osu file format v12

[General]
AudioFilename: Gavin G - Refresh cut.mp3
AudioLeadIn: 0
PreviewTime: 38608
Countdown: 0
SampleSet: Normal
StackLeniency: 0.7
Mode: 0
LetterboxInBreaks: 0

[Editor]
Bookmarks: 3755,16108,27402,38696,49991,61285,72579,83873
DistanceSpacing: 1.4
BeatDivisor: 4
GridSize: 4

[Metadata]
Title:Refresh
TitleUnicode:Refresh
Artist:Gavin G
ArtistUnicode:Gavin G
Creator:senaya
Version:Low
Source:
Tags:dnb
BeatmapID:169873
BeatmapSetID:55968

[Difficulty]
HPDrainRate:3
CircleSize:3
OverallDifficulty:2
ApproachRate:3
SliderMultiplier:0.7
SliderTickRate:1

[Events]
//Background and Video events
0,0,"testbg4.jpg",0,0
//Break Periods
2,16303,25958
//Storyboard Layer 0 (Background)
//Storyboard Layer 1 (Fail)
//Storyboard Layer 2 (Pass)
//Storyboard Layer 3 (Foreground)
//Storyboard Sound Samples
//Background Colour Transformations
3,100,0,0,0

[TimingPoints]
3398.81818181818,352.941176470588,4,2,0,65,1,0
4898,-100,4,2,1,50,0,0
14604,-100,4,1,0,50,0,0
14957,-100,4,2,1,50,0,0
15928,-100,4,1,1,50,0,0
27398,-100,4,2,0,45,0,0
38604,-100,4,1,0,30,0,0
38692,-100,4,1,0,60,0,1
38781,-100,4,2,1,50,0,1
49898,-100,4,2,0,50,0,1
50075,-100,4,2,1,50,0,1
61192,-100,4,2,0,50,0,0
61281,-100,4,1,0,45,0,1
61369,-100,4,2,1,50,0,0
72487,-100,4,2,0,80,0,0
72663,-100,4,2,1,50,0,0
83825,-100,4,1,0,50,0,0

[Colours]
Combo1 : 87,201,3
Combo2 : 255,80,0
Combo3 : 46,180,252
Combo4 : 251,68,68

[HitObjects]
436,68,3751,2,0,B|361:162|232:116,1,210,8|4,0:0|0:0,0:0:0:0:
152,120,5163,6,0,B|120:172|144:228|204:236,1,140,0|0,0:0|0:0,0:0:0:0:
284,260,6222,2,2,B|376:252|400:304,2,105
304,164,7634,5,0,0:0:0:0:
400,180,7987,2,0,B|408:92|312:64,1,140,0|0,0:0|0:0,0:0:0:0:
236,88,9045,2,2,B|170:92|120:68,2,105
200,180,10457,5,0,0:0:0:0:
268,248,10810,1,0,0:0:0:0:
328,172,11163,2,0,B|384:188,2,35
268,92,11869,2,2,B|312:40|388:40,2,105
168,88,13281,5,0,0:0:0:0:
200,180,13634,2,0,B|172:248|84:268,1,140,0|0,0:0|0:0,0:0:0:0:
156,340,14692,1,4,0:0:0:0:
240,288,15045,2,0,B|332:212|448:276,1,210,8|4,0:0|0:0,0:0:0:0:
184,68,27398,6,0,B|140:36|84:64,1,105,2|0,0:0|0:0,0:0:0:0:
40,204,28457,2,0,B|92:232|140:200,1,105,2|0,0:0|0:0,0:0:0:0:
272,140,29516,2,2,B|256:224,1,70
308,292,30222,6,0,B|356:324|408:304,1,105,2|0,0:0|0:0,0:0:0:0:
472,172,31281,2,0,B|428:140|372:160,1,105,2|0,0:0|0:0,0:0:0:0:
232,204,32339,2,2,B|200:136,1,70
132,72,33045,6,2,B|88:40|24:56,2,105,2|0|2,0:0|0:0|0:0,0:0:0:0:
268,124,34634,1,0,0:0:0:0:
404,68,35163,2,2,B|436:46|472:48,2,70,2|2|2,0:0|0:0|0:0,0:0:0:0:
268,124,36398,5,0,0:0:0:0:
128,176,36928,2,0,B|48:216|52:320|136:376|212:336,1,280,2|2,0:0|0:0,0:0:0:0:
284,288,38692,6,0,B|332:254|404:256,1,105,4|0,0:0|0:0,0:0:0:0:
256,180,39751,2,0,B|228:132|156:100,1,105,2|2,0:0|0:0,0:0:0:0:
324,80,40810,6,2,B|392:44|416:56,2,70,0|0|2,0:0|0:0|0:0,0:0:0:0:
404,204,42045,1,0,0:0:0:0:
464,336,42575,2,0,B|412:364|332:340,1,105,2|0,0:0|0:0,0:0:0:0:
232,276,43634,5,0,0:0:0:0:
148,328,43987,2,2,B|117:304|112:240,1,70,0|2,0:0|0:0,0:0:0:0:
112,120,44869,2,2,B|59:85|-20:96,2,105,2|2|2,0:0|0:0|0:0,0:0:0:0:
228,212,46457,5,0,0:0:0:0:
304,272,46810,2,2,B|328:247|336:212,1,70
324,64,47692,2,2,B|381:43|440:56,2,105
180,88,49281,2,2,B|172:156,1,70
156,256,49987,6,0,B|172:301|160:348,1,70,4|4,0:0|0:0,0:0:0:0:
252,284,50692,2,0,B|248:237|264:196,1,70,0|2,0:0|0:0,0:0:0:0:
292,120,51398,2,2,B|352:84|408:100,2,105,0|2|0,0:0|0:0|0:0,0:0:0:0:
204,76,52810,1,2,0:0:0:0:
204,176,53163,5,4,0:0:0:0:
116,132,53516,2,0,B|100:68,2,35,0|4|0,0:0|0:0|0:0,0:0:0:0:
108,228,54222,2,0,B|108:268|76:308,1,70,2|4,0:0|0:0,0:0:0:0:
176,336,54928,2,0,B|208:303|248:292,1,70,2|2,0:0|0:0,0:0:0:0:
332,280,55634,6,2,P|349:227|344:168,1,105,2|0,0:0|0:0,0:0:0:0:
224,100,56692,2,2,P|206:152|212:212,1,105,2|0,0:0|0:0,0:0:0:0:
332,280,57751,2,2,B|264:312,2,70,2|2|2,0:0|0:0|0:0,0:0:0:0:
444,184,58987,6,2,P|416:120|376:96,1,105
256,192,59869,12,4,61281,0:0:0:0:
136,280,61634,6,0,B|93:261|64:228,1,70,4|0,0:0|0:0,0:0:0:0:
108,148,62339,2,0,B|152:166|180:200,1,70,2|0,0:0|0:0,0:0:0:0:
236,116,63045,1,4,0:0:0:0:
316,176,63398,2,0,B|332:156|375:138,1,70,2|0,0:0|0:0,0:0:0:0:
406,232,64104,2,2,B|391:251|348:269,1,70,2|4,0:0|0:0,0:0:0:0:
260,316,64810,5,0,0:0:0:0:
220,228,65163,2,0,B|184:176|132:224|104:160,1,140,2|4,0:0|0:0,0:0:0:0:
136,68,66222,2,0,B|220:60,1,70,2|2,0:0|0:0,0:0:0:0:
292,104,66928,6,2,B|364:112|424:76,1,105,2|0,0:0|0:0,0:0:0:0:
300,200,67987,2,0,B|244:188|168:220,1,105,2|0,0:0|0:0,0:0:0:0:
64,276,69045,2,2,B|72:344,2,70
92,132,70281,6,2,B|136:88|204:84,2,105,2|2|0,0:0|0:0|0:0,0:0:0:0:
200,232,71869,2,0,B|280:252,1,70,2|0,0:0|0:0,0:0:0:0:
368,252,72575,6,0,B|414:229|408:164,1,70,4|4,0:0|0:0,0:0:0:0:
356,112,73281,2,0,B|309:134|316:200,1,70,0|2,0:0|0:0,0:0:0:0:
280,256,73987,2,0,B|255:280|204:284,1,70,0|4,0:0|0:0,0:0:0:0:
124,316,74692,2,0,B|100:372,2,35,2|4|0,0:0|0:0|0:0,0:0:0:0:
132,216,75398,6,0,B|106:187|100:144,1,70,2|4,0:0|0:0,0:0:0:0:
172,84,76104,2,0,B|197:112|204:156,1,70,0|2,0:0|0:0,0:0:0:0:
240,236,76810,2,0,B|267:266|324:276,1,70,0|4,0:0|0:0,0:0:0:0:
392,272,77516,5,2,0:0:0:0:
364,180,77869,2,0,B|364:144|388:108,1,70,2|2,0:0|0:0,0:0:0:0:
276,72,78575,2,0,B|269:107|238:138,1,70,4|0,0:0|0:0,0:0:0:0:
180,208,79281,2,0,B|88:264|152:344|192:359|264:336|268:268,1,280,2|2,0:0|0:0,0:0:0:0:
352,220,81045,6,2,B|417:214|472:268,2,105
256,192,82457,1,4,0:0:0:0:
256,192,82634,12,4,83869,0:0:0:0:
