osu file format v12

[General]
AudioFilename: Gavin G - Refresh cut.mp3
AudioLeadIn: 0
PreviewTime: 38608
Countdown: 0
SampleSet: Normal
StackLeniency: 0.7
Mode: 0
LetterboxInBreaks: 0

[Editor]
Bookmarks: 3755,16108,27402,38696,49991,61285,72579,83873
DistanceSpacing: 1
BeatDivisor: 4
GridSize: 4

[Metadata]
Title:Refresh
TitleUnicode:Refresh
Artist:Gavin G
ArtistUnicode:Gavin G
Creator:senaya
Version:High
Source:
Tags:dnb
BeatmapID:169832
BeatmapSetID:55968

[Difficulty]
HPDrainRate:7
CircleSize:4
OverallDifficulty:8
ApproachRate:9
SliderMultiplier:2.22
SliderTickRate:2

[Events]
//Background and Video events
0,0,"testbg4.jpg",0,0
//Break Periods
2,16304,26798
//Storyboard Layer 0 (Background)
//Storyboard Layer 1 (Fail)
//Storyboard Layer 2 (Pass)
//Storyboard Layer 3 (Foreground)
//Storyboard Sound Samples
//Background Colour Transformations
3,100,0,0,0

[TimingPoints]
3398.81818181818,352.941176470588,4,2,0,50,1,0
4987,-100,4,2,1,50,0,0
14604,-100,4,1,0,50,0,0
14957,-100,4,2,1,50,0,0
16016,-100,4,1,1,50,0,0
27398,-133.333333333333,4,2,0,20,0,0
35869,-133.333333333333,4,2,0,25,0,0
38604,-133.333333333333,4,1,0,30,0,0
38692,-133.333333333333,4,1,0,45,0,1
38781,-100,4,2,1,50,0,1
49898,-100,4,2,0,80,0,1
50075,-100,4,2,1,50,0,1
59869,-100,4,1,0,50,0,1
59957,-100,4,2,0,45,0,1
61192,-100,4,2,0,50,0,0
61281,-100,4,2,0,50,0,1
61369,-100,4,2,1,50,0,0
72487,-100,4,2,0,80,0,0
72663,-100,4,2,1,50,0,0
82369,-100,4,1,0,50,0,0
82545,-100,4,2,1,50,0,0
83825,-100,4,1,0,50,0,0

[Colours]
Combo1 : 87,201,3
Combo2 : 255,80,0
Combo3 : 46,180,252
Combo4 : 251,68,68

[HitObjects]
256,192,3751,12,4,4810,0:0:0:0:
260,156,4987,5,0,1:2:0:0:
336,208,5163,2,0,B|343:260|384:312,1,111,4|2,0:0|0:0,0:0:0:0:
160,176,5516,1,0,0:0:0:0:
160,176,5604,1,2,0:0:0:0:
160,176,5692,2,0,B|156:122|120:56,1,111,4|0,0:0|0:0,0:0:0:0:
376,88,6045,1,0,0:0:0:0:
288,156,6222,2,0,B|224:260|288:372,1,222,0|4,1:2|0:0,0:0:0:0:
168,260,6751,2,0,B|232:156|168:44,1,222,2|4,1:2|0:0,0:0:0:0:
92,332,7281,1,0,1:2:0:0:
200,352,7457,1,2,0:0:0:0:
404,316,7634,5,0,1:2:0:0:
296,292,7810,1,2,1:2:0:0:
384,220,7987,2,0,B|403:163|460:122,1,111,4|0,0:0|0:0,0:0:0:0:
328,116,8339,1,0,0:0:0:0:
328,116,8428,1,2,0:0:0:0:
328,116,8516,2,0,B|308:172|251:213,1,111,4|0,0:0|0:0,0:0:0:0:
152,204,8869,1,0,0:0:0:0:
184,104,9045,2,0,B|256:152|256:152|225:222|260:282,1,222,2|4,1:2|0:0,0:0:0:0:
400,324,9575,2,0,B|435:264|404:193|404:193|476:145,1,222,2|4,1:2|0:0,0:0:0:0:
332,236,10104,1,0,0:0:0:0:
108,296,10281,1,2,0:0:0:0:
24,224,10457,5,0,1:2:0:0:
92,136,10634,1,2,1:2:0:0:
204,152,10810,2,0,B|248:208|220:280,1,111,4|0,0:0|0:0,0:0:0:0:
224,268,11075,1,2,0:0:0:0:
220,276,11163,1,0,0:0:0:0:
356,336,11339,2,0,B|316:288|340:208,1,111,4|2,0:0|0:0,0:0:0:0:
416,156,11692,1,0,0:0:0:0:
308,128,11869,2,0,B|220:144|180:56|180:56|116:88,1,222,2|4,1:2|0:0,0:0:0:0:
68,200,12398,2,0,B|156:184|196:272|196:272|260:240,1,222,2|4,1:2|0:0,0:0:0:0:
360,268,12928,1,0,1:2:0:0:
112,72,13104,1,2,0:0:0:0:
212,24,13281,5,0,1:2:0:0:
280,112,13457,1,2,1:2:0:0:
180,164,13634,2,0,B|168:224|208:268,1,111,4|0,0:0|0:0,0:0:0:0:
316,236,13987,2,0,B|357:186|416:180,2,111,2|4|0,0:0|0:0|0:0,0:0:0:0:
288,344,14516,1,2,0:0:0:0:
208,268,14692,2,0,P|112:228|160:132,1,222,4|8,1:2|0:0,0:0:0:0:
256,192,15222,12,4,16104,0:0:0:0:
456,48,27398,6,0,P|412:112|296:96,1,166.500006351471,2|0,0:0|0:0,0:0:0:0:
224,88,27928,2,0,P|185:173|208:260,1,166.500006351471,2|0,0:0|0:0,0:0:0:0:
264,328,28457,2,0,P|392:308|400:200,1,249.750009527207,2|2,0:0|0:0,0:0:0:0:
88,124,29516,1,2,0:0:0:0:
92,152,29869,1,2,0:0:0:0:
96,180,30222,6,0,P|169:212|248:136,1,166.500006351471,2|0,0:0|0:0,0:0:0:0:
312,92,30751,2,0,P|397:154|392:224,1,166.500006351471,2|0,0:0|0:0,0:0:0:0:
360,316,31281,2,2,P|272:376|192:268,1,249.750009527207
420,76,32339,1,2,0:0:0:0:
416,104,32692,1,2,0:0:0:0:
408,136,33045,6,0,P|360:192|248:188,1,166.500006351471,2|0,0:0|0:0,0:0:0:0:
216,292,33575,2,0,P|168:232|184:140,1,166.500006351471,2|0,0:0|0:0,0:0:0:0:
276,96,34104,2,0,P|132:52|76:116,2,249.750009527207,2|2|2,0:0|0:0|0:0,0:0:0:0:
224,308,35516,1,2,0:0:0:0:
64,160,35869,6,0,B|78:136|104:128,3,41.6249987594784
120,116,36222,1,0,0:0:0:0:
148,108,36310,1,0,0:0:0:0:
176,108,36398,1,0,0:0:0:0:
204,112,36487,1,0,0:0:0:0:
232,124,36575,6,0,B|256:128|272:120,3,41.6249987594784
300,108,36928,1,0,0:0:0:0:
328,104,37016,1,0,0:0:0:0:
356,112,37104,1,0,0:0:0:0:
380,128,37192,1,0,0:0:0:0:
396,152,37281,6,0,B|412:176|408:200,3,41.6249987594784
404,220,37634,1,8,0:0:0:0:
392,248,37722,1,0,0:0:0:0:
368,260,37810,1,0,0:0:0:0:
340,256,37898,1,0,0:0:0:0:
312,244,37987,6,0,B|280:232|244:236,3,41.6249987594784
244,236,38339,2,0,B|180:236|128:280,1,124.875004763603,2|0,0:0|0:0,0:0:0:0:
100,308,38692,5,4,1:2:0:0:
24,220,38869,1,2,1:2:0:0:
136,184,39045,2,0,B|184:144|164:60,1,111,4|0,0:0|0:0,0:0:0:0:
272,124,39398,2,0,B|340:140|408:92,1,111,2|4,0:0|0:0,0:0:0:0:
372,220,39751,1,2,0:0:0:0:
412,316,39928,1,0,0:0:0:0:
304,296,40104,2,0,B|233:289|196:344,1,111,2|0,1:2|0:0,0:0:0:0:
84,320,40457,1,4,0:0:0:0:
160,224,40634,1,2,1:2:0:0:
180,204,40722,1,0,0:0:0:0:
184,176,40810,6,2,B|152:108|152:108|57:120|12:28,2,222,2|2|0,1:2|1:2|1:2,0:0:0:0:
244,272,41692,1,2,1:2:0:0:
244,272,41869,1,4,0:0:0:0:
328,176,42045,2,2,B|360:108|360:108|454:120|500:28,1,222,2|4,0:0|0:0,0:0:0:0:
472,172,42575,2,0,B|436:236|496:316|496:316|477:355|408:356,1,222,2|0,0:0|1:2,0:0:0:0:
332,328,43104,1,0,0:0:0:0:
224,352,43281,2,0,B|143:369|80:304,1,111,4|0,0:0|1:2,0:0:0:0:
88,204,43634,2,0,B|168:184|216:240,1,111,0|0,0:0|1:2,0:0:0:0:
296,268,43987,5,2,0:0:0:0:
300,240,44075,1,0,0:0:0:0:
316,216,44163,1,0,1:2:0:0:
340,200,44251,1,0,0:0:0:0:
360,184,44339,2,0,B|400:96|312:28|216:56,1,222,2|4,1:2|0:0,0:0:0:0:
60,104,44869,2,0,B|104:144|196:124,1,111,2|0,0:0|0:0,0:0:0:0:
136,248,45222,1,4,0:0:0:0:
136,248,45398,2,0,B|173:295|168:360,1,111,0|0,0:0|0:0,0:0:0:0:
248,236,45751,2,0,B|306:207|368:228,1,111,0|2,1:2|0:0,0:0:0:0:
460,264,46104,1,4,0:0:0:0:
492,156,46281,1,0,1:2:0:0:
416,76,46457,5,2,0:0:0:0:
392,60,46545,1,0,0:0:0:0:
364,56,46634,1,4,0:0:0:0:
252,52,46810,2,0,B|192:92|216:172,1,111,2|0,1:2|0:0,0:0:0:0:
336,276,47163,2,0,B|396:236|372:156,1,111,2|0,1:2|1:2,0:0:0:0:
284,124,47516,1,4,0:0:0:0:
240,224,47692,2,0,B|216:304|75:328|4:248,1,222,2|4,0:0|0:0,0:0:0:0:
4,120,48222,2,0,B|27:39|168:15|240:96,1,222,2|0,0:0|1:2,0:0:0:0:
284,124,48751,1,0,0:0:0:0:
388,168,48928,1,4,0:0:0:0:
388,56,49104,1,0,1:2:0:0:
264,132,49281,5,2,0:0:0:0:
392,196,49457,1,0,1:2:0:0:
256,240,49634,2,0,B|196:264|160:356,1,111,2|2,0:0|1:2,0:0:0:0:
100,192,49987,6,0,B|88:152|8:140|8:140|104:12,1,222,4|4,0:0|0:0,0:0:0:0:
188,144,50516,2,0,B|260:196|260:196|240:120|292:68,1,222,2|4,0:0|0:0,0:0:0:0:
396,44,51045,2,4,B|463:133|463:133|382:145|371:185,1,222,2|0,0:0|1:2,0:0:0:0:
496,204,51575,1,2,0:0:0:0:
371,184,51751,1,4,0:0:0:0:
448,104,51928,1,0,1:2:0:0:
408,268,52104,6,0,B|376:324|300:316,2,111,2|4|2,0:0|0:0|1:2,0:0:0:0:
392,116,52634,1,0,0:0:0:0:
392,116,52722,1,0,0:0:0:0:
392,116,52810,2,0,B|332:104|298:164,1,111,2|0,1:2|1:2,0:0:0:0:
147,190,53163,2,0,B|160:248|232:252,1,111,4|2,0:0|0:0,0:0:0:0:
140,76,53516,1,0,0:0:0:0:
112,84,53604,1,0,0:0:0:0:
88,96,53692,1,4,0:0:0:0:
72,120,53781,1,0,0:0:0:0:
56,144,53869,2,0,B|84:204|48:256,1,111,2|0,0:0|0:0,0:0:0:0:
140,320,54222,2,0,B|229:312|268:376,1,111,2|0,0:0|0:0,0:0:0:0:
376,340,54575,6,0,B|425:297|428:218,1,111,4|0,0:0|1:2,0:0:0:0:
367,110,54928,2,0,B|308:212,1,111,2|0,0:0|1:2,0:0:0:0:
180,230,55281,2,0,B|178:170|238:114,1,111,2|0,0:0|1:2,0:0:0:0:
188,24,55634,5,2,1:2:0:0:
84,64,55810,1,0,1:2:0:0:
84,64,55898,1,0,0:0:0:0:
84,64,55987,1,4,0:0:0:0:
108,172,56163,2,0,B|52:183|3:148,1,111,2|0,0:0|0:0,0:0:0:0:
12,260,56516,2,0,B|69:249|118:280,1,111,4|2,0:0|0:0,0:0:0:0:
204,352,56869,1,0,0:0:0:0:
204,352,56957,1,2,0:0:0:0:
204,352,57045,1,0,1:2:0:0:
292,284,57222,5,0,0:0:0:0:
400,304,57398,1,4,0:0:0:0:
420,288,57487,1,0,0:0:0:0:
436,268,57575,1,0,1:2:0:0:
448,244,57663,1,0,0:0:0:0:
452,216,57751,2,0,B|466:147|372:72|296:112,2,222,2|2|2,0:0|1:2|1:2,0:0:0:0:
188,180,58634,1,0,1:2:0:0:
224,28,58810,1,4,0:0:0:0:
340,220,58987,2,2,B|344:304|264:376|132:356|96:288,1,333,2|2,0:0|0:0,0:0:0:0:
300,110,59869,1,4,0:0:0:0:
256,192,60045,12,4,61281,0:0:0:0:
104,204,61634,6,0,B|76:140|132:84,1,111,4|2,0:0|0:0,0:0:0:0:
264,60,61987,2,0,B|296:124|256:176,1,111,0|4,0:0|0:0,0:0:0:0:
204,260,62339,2,0,B|208:368|336:392|408:304,1,222,2|0,0:0|1:2,0:0:0:0:
468,292,62869,2,0,B|433:237|452:156,1,111,2|4,0:0|0:0,0:0:0:0:
472,72,63222,1,0,1:2:0:0:
372,116,63398,2,2,B|312:120|280:168|280:168|224:112|144:116,1,222
80,72,63928,5,0,0:0:0:0:
80,72,64016,1,0,0:0:0:0:
80,72,64104,1,2,1:2:0:0:
44,176,64281,1,0,0:0:0:0:
144,224,64457,2,0,B|192:264|164:340,1,111,4|0,0:0|0:0,0:0:0:0:
272,280,64810,2,0,B|228:224|252:160,1,111,0|4,0:0|0:0,0:0:0:0:
160,108,65163,2,0,B|232:36|328:84|328:84|384:72,2,222,2|0|4,0:0|1:2|0:0,0:0:0:0:
256,192,66045,1,0,1:2:0:0:
344,280,66222,2,0,B|272:344|184:296|184:296|120:312,2,222,2|2|2,0:0|1:2|1:2,0:0:0:0:
452,224,67104,6,0,B|484:168|452:100,1,111,0|4,1:2|0:0,0:0:0:0:
372,48,67457,2,0,B|292:4|232:68|248:132|300:160,1,222,2|4,0:0|0:0,0:0:0:0:
340,256,67987,1,2,0:0:0:0:
324,276,68075,1,0,0:0:0:0:
300,288,68163,1,2,0:0:0:0:
272,284,68251,1,0,0:0:0:0:
244,276,68339,2,0,B|188:256|124:284,1,111,0|2,1:2|0:0,0:0:0:0:
44,344,68692,2,0,B|0:300|24:224,1,111,4|0,0:0|1:2,0:0:0:0:
144,112,69045,2,0,B|188:160|164:232,1,111,2|4,0:0|0:0,0:0:0:0:
260,148,69398,2,0,B|344:52|472:104,1,222,2|2,1:2|0:0,0:0:0:0:
461,99,69928,1,0,0:0:0:0:
420,204,70104,6,0,B|395:264|436:324,1,111,4|0,0:0|0:0,0:0:0:0:
324,272,70457,1,2,0:0:0:0:
324,272,70545,1,0,0:0:0:0:
324,272,70634,1,4,0:0:0:0:
232,336,70810,2,0,B|153:371|66:303|27:231|136:136,2,222,2|0|4,0:0|1:2|0:0,0:0:0:0:
188,236,71692,1,0,1:2:0:0:
280,172,71869,2,0,B|304:116|268:64,1,111,2|0,0:0|1:2,0:0:0:0:
396,96,72222,2,0,B|376:160|412:212,1,111,2|2,0:0|1:2,0:0:0:0:
484,260,72575,5,4,0:0:0:0:
440,360,72751,1,0,1:2:0:0:
340,312,72928,1,4,0:0:0:0:
232,340,73104,1,2,0:0:0:0:
204,332,73192,1,0,0:0:0:0:
180,332,73281,2,0,B|136:312|96:364|96:364|52:336,1,111,0|4,0:0|0:0,0:0:0:0:
32,260,73634,2,0,B|68:212|144:204|144:204|125:143|152:84,1,222,0|0,0:0|1:2,0:0:0:0:
224,36,74163,1,2,0:0:0:0:
48,104,74339,1,4,0:0:0:0:
192,224,74516,5,0,1:2:0:0:
212,244,74604,1,0,0:0:0:0:
236,260,74692,1,2,0:0:0:0:
260,272,74781,1,0,0:0:0:0:
280,292,74869,1,4,0:0:0:0:
372,352,75045,2,0,P|432:328|460:276,1,111,2|0,0:0|0:0,0:0:0:0:
504,192,75398,2,0,P|472:104|332:84,1,222,2|4,1:2|0:0,0:0:0:0:
252,108,75928,1,0,0:0:0:0:
252,108,76016,1,0,0:0:0:0:
252,108,76104,1,2,0:0:0:0:
144,76,76281,1,4,0:0:0:0:
68,156,76457,2,0,B|-28:246|74:343|193:314|174:181,1,333,2|2,0:0|0:0,0:0:0:0:
252,108,77163,6,0,B|400:48,1,111,4|0,0:0|1:2,0:0:0:0:
452,120,77516,2,0,B|324:180,1,111,2|0,0:0|1:2,0:0:0:0:
244,196,77869,2,2,B|162:217|167:301|219:349|295:313,1,222,2|2,0:0|1:2,0:0:0:0:
388,328,78398,1,0,1:2:0:0:
372,216,78575,2,0,B|364:128|388:68,1,111,4|2,0:0|0:0,0:0:0:0:
356,88,78839,1,0,0:0:0:0:
332,72,78928,1,2,0:0:0:0:
304,76,79016,1,0,0:0:0:0:
280,88,79104,1,4,0:0:0:0:
168,76,79281,2,0,B|100:4|-24:60|24:180,1,222,2|0,0:0|1:2,0:0:0:0:
16,252,79810,6,0,B|37:312|96:332,1,111,2|4,0:0|0:0,0:0:0:0:
260,280,80163,2,0,B|238:219|180:200,1,111,0|2,1:2|0:0,0:0:0:0:
76,180,80516,2,0,B|44:60,1,111,4|0,0:0|1:2,0:0:0:0:
156,104,80869,1,2,0:0:0:0:
156,104,80957,1,0,0:0:0:0:
156,104,81045,2,0,B|280:128|384:88,1,222,2|4,1:2|0:0,0:0:0:0:
484,76,81575,2,0,B|462:190|462:190|372:280,1,222,2|4,0:0|0:0,0:0:0:0:
284,332,82104,1,2,0:0:0:0:
104,244,82281,1,0,0:0:0:0:
268,132,82457,1,4,0:0:0:0:
256,192,82634,12,4,83869,0:0:0:0:
