osu file format v13

[General]
AudioFilename: Asphyxia2.mp3
AudioLeadIn: 0
PreviewTime: 65965
Countdown: 0
SampleSet: Soft
StackLeniency: 0.7
Mode: 0
LetterboxInBreaks: 0
WidescreenStoryboard: 0

[Editor]
DistanceSpacing: 1.2
BeatDivisor: 4
GridSize: 4
TimelineZoom: 1

[Metadata]
Title:Culture
TitleUnicode:Culture
Artist:Gavin G
ArtistUnicode:Gavin G
Creator:Asphyxia
Version:Insane
Source:
Tags:liquid dnb drum and bass ProfessionalBox Kyshiro Secretpipe Collab Collaboration
BeatmapID:513245
BeatmapSetID:219056

[Difficulty]
HPDrainRate:7
CircleSize:4
OverallDifficulty:8.5
ApproachRate:9
SliderMultiplier:1.8
SliderTickRate:1

[Events]
//Background and Video events
0,0,"BG resized.jpg",0,0
//Break Periods
//Storyboard Layer 0 (Background)
//Storyboard Layer 1 (Fail)
//Storyboard Layer 2 (Pass)
//Storyboard Layer 3 (Foreground)
//Storyboard Sound Samples
//Background Colour Transformations
3,100,163,162,255

[TimingPoints]
22080,342.857142857143,4,1,0,100,1,0
22080,-125,4,2,1,60,0,0
43680,-125,4,2,1,40,0,0
44022,-117.647058823529,4,2,1,60,0,0
60480,-117.647058823529,4,2,1,60,0,0
61851,-117.647058823529,4,2,1,55,0,0
63222,-117.647058823529,4,2,1,60,0,0
63908,-117.647058823529,4,2,1,65,0,0
64594,-117.647058823529,4,1,1,60,0,0
65280,-117.647058823529,4,1,1,65,0,0
65965,-100,4,2,1,90,0,1
86537,-100,4,2,1,80,0,0
86708,-100,4,2,1,40,0,0
87908,-100,4,2,1,90,0,1
106765,-100,4,2,1,65,0,1
107108,-100,4,2,1,60,0,1
107622,-100,4,2,1,55,0,1
108137,-100,4,2,1,50,0,1
108480,-100,4,2,1,45,0,1
109851,-100,4,2,1,45,0,0

[Colours]
Combo1 : 255,253,223
Combo2 : 125,125,255
Combo3 : 71,254,194
Combo4 : 227,227,227
Combo5 : 19,255,255
Combo6 : 255,88,100
Combo7 : 255,187,221
Combo8 : 255,94,55

[HitObjects]
44,316,22080,6,0,P|112:328|176:280,1,144
208,208,22594,1,0,0:0:0:0:
272,268,22765,2,0,L|288:352,1,72,8|0,0:0|0:0,0:0:0:0:
352,208,23108,2,0,P|364:172|316:68,1,144,0|0,0:0|0:0,0:0:0:0:
244,51,23622,5,0,0:0:0:0:
137,166,23794,1,0,0:0:0:0:
148,6,23965,1,0,0:0:0:0:
232,146,24137,1,8,0:0:0:0:
84,79,24308,1,0,0:0:0:0:
205,234,24480,1,2,0:0:0:0:
314,106,24651,1,2,0:0:0:0:
314,106,24822,6,0,L|470:82,1,144,0|0,0:0|0:0,0:0:0:0:
508,232,25337,1,0,0:0:0:0:
428,264,25508,2,0,P|392:268|356:256,1,72,8|0,0:0|0:0,0:0:0:0:
136,236,25851,2,0,P|190:192|260:201,1,144
214,274,26365,5,0,0:0:0:0:
300,112,26537,1,0,0:0:0:0:
404,208,26708,1,0,0:0:0:0:
404,208,26880,2,0,L|500:192,1,72,8|0,0:0|0:0,0:0:0:0:
285,286,27222,2,0,L|189:270,1,72,2|2,0:0|0:0,0:0:0:0:
8,160,27565,70,0,P|76:144|152:180,1,144,0|0,0:0|0:0,0:0:0:0:
200,240,28080,1,0,0:0:0:0:
260,180,28251,2,0,P|272:140|264:100,2,72,8|0|0,0:0|0:0|0:0,0:0:0:0:
200,240,28765,1,0,0:0:0:0:
284,264,28937,6,0,L|372:248,1,72,0|0,0:0|0:0,0:0:0:0:
440,232,29280,1,0,0:0:0:0:
372,104,29451,1,0,0:0:0:0:
284,264,29622,1,8,0:0:0:0:
276,276,29965,1,2,0:0:0:0:
228,348,30137,1,2,0:0:0:0:
148,224,30308,6,0,L|128:72,1,144,0|0,0:0|0:0,0:0:0:0:
280,12,30822,1,0,0:0:0:0:
272,100,30994,2,0,L|260:180,1,72,8|0,0:0|0:0,0:0:0:0:
364,356,31337,2,0,P|380:316|340:228,1,144
160,260,31851,5,0,0:0:0:0:
227,316,32022,2,0,L|315:300,1,72
492,256,32365,1,8,0:0:0:0:
312,12,32708,1,2,0:0:0:0:
256,80,32880,1,2,0:0:0:0:
424,112,33051,70,0,L|340:100,1,72,0|0,0:0|0:0,0:0:0:0:
208,204,33394,2,0,L|279:193,1,72,0|0,0:0|0:0,0:0:0:0:
172,340,33737,2,0,L|0:312,1,144,8|0,0:0|0:0,0:0:0:0:
0,168,34251,1,0,0:0:0:0:
84,152,34422,6,0,P|124:156|156:180,1,72
304,80,34765,2,0,P|273:98|238:101,1,72,0|0,0:0|0:0,0:0:0:0:
244,4,35108,1,8,0:0:0:0:
360,152,35280,1,0,0:0:0:0:
424,96,35451,1,2,0:0:0:0:
208,92,35622,1,2,0:0:0:0:
308,240,35794,6,0,P|364:256|449:201,2,144,0|0|8,0:0|0:0|0:0,0:0:0:0:
232,200,36651,1,0,0:0:0:0:
232,200,36822,2,0,L|156:212,1,72
68,344,37165,6,0,P|111:343|144:325,1,72,0|0,0:0|0:0,0:0:0:0:
124,128,37508,2,0,P|55:110|-10:167,1,144,0|8,0:0|0:0,0:0:0:0:
8,160,38194,1,2,0:0:0:0:
80,28,38365,1,2,0:0:0:0:
216,176,38537,70,0,L|376:160,1,144,0|0,0:0|0:0,0:0:0:0:
500,304,39051,1,0,0:0:0:0:
416,284,39222,2,0,L|344:292,1,72,8|0,0:0|0:0,0:0:0:0:
124,148,39565,2,0,P|140:116|252:88,1,144
316,116,40080,5,0,0:0:0:0:
316,116,40251,1,0,0:0:0:0:
376,56,40422,1,0,0:0:0:0:
440,212,40594,1,8,0:0:0:0:
408,132,40765,1,0,0:0:0:0:
384,300,40937,1,2,0:0:0:0:
252,176,41108,1,2,0:0:0:0:
252,176,41280,6,0,L|92:200,1,144,0|0,0:0|0:0,0:0:0:0:
312,280,41794,2,0,P|364:292|468:252,1,144,0|0,0:0|0:0,0:0:0:0:
208,72,42308,1,0,0:0:0:0:
216,84,43680,6,0,L|196:192,1,108,2|0,0:0|0:0,0:0:0:0:
236,256,44022,70,0,P|280:272|384:236,1,153.000002918243
424,164,44537,1,0,0:0:0:0:
476,240,44708,2,0,L|496:324,1,76.5000014591217,10|0,0:0|0:0,0:0:0:0:
424,164,45051,2,0,L|441:89,1,76.5000014591217,0|0,0:0|0:0,0:0:0:0:
464,0,45394,5,0,0:0:0:0:
340,88,45565,1,0,0:0:0:0:
340,88,45737,1,0,0:0:0:0:
268,32,45908,1,0,0:0:0:0:
216,204,46080,1,10,0:0:0:0:
240,116,46251,1,0,0:0:0:0:
272,264,46422,2,0,P|236:288|196:288,1,76.5000014591217,2|2,0:0|0:0,0:0:0:0:
300,184,46765,6,0,L|460:204,1,153.000002918243,0|0,0:0|0:0,0:0:0:0:
240,116,47280,1,0,0:0:0:0:
160,160,47451,2,0,L|72:152,1,76.5000014591217,10|0,0:0|0:0,0:0:0:0:
284,288,47794,1,0,0:0:0:0:
288,304,48137,5,0,0:0:0:0:
189,109,48308,1,0,0:0:0:0:
333,157,48480,1,0,0:0:0:0:
140,260,48651,1,0,0:0:0:0:
280,72,48822,1,10,0:0:0:0:
384,240,48994,1,0,0:0:0:0:
168,184,49165,2,0,L|76:200,1,76.5000014591217,2|2,0:0|0:0,0:0:0:0:
284,232,49508,70,0,P|328:240|436:204,1,153.000002918243
252,144,50022,1,0,0:0:0:0:
252,144,50194,2,0,P|211:176|191:222,1,76.5000014591217,10|0,0:0|0:0,0:0:0:0:
408,96,50537,2,0,P|423:46|413:-2,1,76.5000014591217
216,16,50880,5,0,0:0:0:0:
284,232,51051,1,0,0:0:0:0:
408,96,51222,1,0,0:0:0:0:
408,96,51394,1,0,0:0:0:0:
352,292,51565,2,0,P|280:268|184:276,1,153.000002918243,10|0,0:0|0:0,0:0:0:0:
44,308,52080,1,2,0:0:0:0:
72,136,52251,6,0,P|56:92|60:52,2,76.5000014591217,0|0|0,0:0|0:0|0:0,0:0:0:0:
204,252,52765,1,0,0:0:0:0:
284,204,52937,2,0,L|360:216,1,76.5000014591217,10|0,0:0|0:0,0:0:0:0:
132,304,53280,2,0,L|56:292,1,76.5000014591217,0|0,0:0|0:0,0:0:0:0:
204,160,53622,5,0,0:0:0:0:
284,296,53794,1,0,0:0:0:0:
308,88,53965,1,0,0:0:0:0:
204,252,54137,1,0,0:0:0:0:
360,256,54308,2,0,L|524:240,1,153.000002918243,10|0,0:0|0:0,0:0:0:0:
280,200,54822,1,2,0:0:0:0:
204,252,54994,70,0,P|189:217|191:179,2,76.5000014591217,0|0|0,0:0|0:0|0:0,0:0:0:0:
244,100,55508,2,0,P|204:84|100:156,1,153.000002918243,2|0,0:0|0:0,0:0:0:0:
380,188,56022,2,0,L|480:180,1,76.5000014591217
236,284,56365,5,0,0:0:0:0:
172,208,56537,1,0,0:0:0:0:
272,188,56708,1,0,0:0:0:0:
136,304,56880,1,0,0:0:0:0:
208,112,57051,1,10,0:0:0:0:
336,260,57222,1,0,0:0:0:0:
172,208,57394,1,0,0:0:0:0:
300,96,57565,1,2,0:0:0:0:
304,343,57737,6,0,P|378:337|422:278,1,153.000002918243
356,187,58251,2,0,P|337:221|336:259,1,76.5000014591217,2|8,0:0|0:0,0:0:0:0:
428,252,58594,1,0,0:0:0:0:
280,128,58765,2,0,L|188:140,1,76.5000014591217
112,156,59108,5,0,0:0:0:0:
304,24,59280,1,0,0:0:0:0:
254,228,59451,1,0,0:0:0:0:
204,53,59622,1,0,0:0:0:0:
357,199,59794,1,10,0:0:0:0:
178,157,59965,1,0,0:0:0:0:
380,93,60137,1,2,0:0:0:0:
280,128,60308,1,2,0:0:0:0:
328,292,60480,70,0,L|340:344,7,38.2500007295609,2|0|0|0|0|0|0|0,0:0|0:0|0:0|0:0|0:0|0:0|0:0|0:0,0:0:0:0:
224,240,61165,2,0,L|215:202,7,38.2500007295609,10|0|0|0|0|0|0|0,0:0|0:0|0:0|0:0|0:0|0:0|0:0|0:0,0:0:0:0:
120,196,61851,5,2,0:0:0:0:
128,164,61937,1,0,0:0:0:0:
144,140,62022,1,0,0:0:0:0:
168,120,62108,1,0,0:0:0:0:
196,108,62194,1,2,0:0:0:0:
228,104,62280,1,0,0:0:0:0:
260,112,62365,1,2,0:0:0:0:
288,128,62451,1,0,0:0:0:0:
308,152,62537,2,0,P|336:144|364:128,3,38.2500007295609,10|0|0|0,0:0|0:0|0:0|0:0,0:0:0:0:
312,236,62880,2,0,P|340:243|372:243,3,38.2500007295609,2|0|0|0,0:0|0:0|0:0|0:0,0:0:0:0:
224,208,63222,5,2,0:0:0:0:
224,208,63308,1,0,0:0:0:0:
224,208,63394,1,0,0:0:0:0:
224,208,63480,1,0,0:0:0:0:
216,244,63565,1,2,0:0:0:0:
228,280,63651,1,0,0:0:0:0:
252,312,63737,1,2,0:0:0:0:
284,328,63822,1,0,0:0:0:0:
320,332,63908,2,0,P|348:328|372:312,3,38.2500007295609,8|0|0|0,0:0|0:0|0:0|0:0,0:0:0:0:
392,312,64251,2,0,P|420:316|444:332,3,38.2500007295609,2|0|0|0,0:0|0:0|0:0|0:0,0:0:0:0:
512,240,64594,21,0,0:0:0:0:
512,240,64680,1,0,0:0:0:0:
512,240,64765,2,0,L|456:224,1,38.2500007295609,8|8,0:0|0:0,0:0:0:0:
348,152,64937,5,0,0:0:0:0:
348,152,65022,1,0,0:0:0:0:
348,152,65108,2,0,L|404:136,1,38.2500007295609,8|0,0:1|0:0,0:0:0:0:
288,36,65280,5,0,0:0:0:0:
252,20,65365,1,0,0:0:0:0:
208,20,65451,1,0,0:0:0:0:
168,32,65537,1,0,0:0:0:0:
136,60,65622,1,0,0:0:0:0:
116,96,65708,1,0,0:0:0:0:
112,140,65794,2,0,P|116:168|128:192,1,38.2500007295609,8|8,0:0|0:0,0:0:0:0:
184,256,65965,6,0,L|168:360,1,90,4|0,0:0|0:0,0:0:0:0:
315,264,66308,1,8,0:0:0:0:
261,62,66480,1,0,0:0:0:0:
261,62,66565,1,0,0:0:0:0:
261,62,66651,1,0,0:0:0:0:
360,144,66822,1,8,0:0:0:0:
153,131,66994,1,2,0:0:0:0:
120,140,67080,1,0,0:0:0:0:
88,148,67165,1,2,0:0:0:0:
56,156,67251,1,0,0:0:0:0:
24,164,67337,70,0,L|8:268,1,90,0|0,0:0|0:0,0:0:0:0:
208,364,67680,1,8,0:0:0:0:
252,264,67851,2,0,P|252:216|232:172,1,90,0|0,0:0|0:0,0:0:0:0:
344,32,68194,1,8,0:0:0:0:
416,220,68365,1,2,0:0:0:0:
416,220,68451,1,0,0:0:0:0:
416,220,68537,1,10,0:0:0:0:
288,100,68708,6,0,L|104:80,1,180,0|8,0:0|0:0,0:0:0:0:
0,316,69222,2,0,P|44:328|192:264,1,180,0|8,0:0|0:0,0:0:0:0:
356,364,69737,1,2,0:0:0:0:
356,364,69822,1,0,0:0:0:0:
356,364,69908,1,2,0:0:0:0:
304,144,70080,6,0,L|288:248,1,90,0|0,0:0|0:0,0:0:0:0:
368,288,70422,1,8,0:0:0:0:
224,64,70594,2,0,L|208:168,1,90
368,288,70937,1,8,0:0:0:0:
464,104,71108,1,2,0:0:0:0:
464,104,71194,1,0,0:0:0:0:
464,104,71280,1,10,0:0:0:0:
352,300,71451,6,0,P|276:312|184:268,1,180,0|8,0:0|0:0,0:0:0:0:
112,68,71965,1,0,0:0:0:0:
112,68,72051,1,0,0:0:0:0:
112,68,72137,1,0,0:0:0:0:
40,148,72308,1,8,0:0:0:0:
212,120,72480,2,0,P|224:76|216:28,1,90,2|2,0:0|0:0,0:0:0:0:
140,220,72822,69,0,0:0:0:0:
336,120,72994,1,0,0:0:0:0:
336,120,73080,1,0,0:0:0:0:
336,120,73165,1,8,0:0:0:0:
443,234,73337,1,2,0:0:0:0:
410,262,73422,1,0,0:0:0:0:
368,276,73508,1,2,0:0:0:0:
323,277,73594,1,0,0:0:0:0:
281,262,73680,1,10,0:0:0:0:
84,132,73851,1,0,0:0:0:0:
124,324,74022,1,8,0:0:0:0:
248,176,74194,6,0,P|264:128|208:8,1,180,0|8,0:0|0:0,0:0:0:0:
172,240,74708,2,0,L|372:200,1,180,0|8,0:0|0:0,0:0:0:0:
500,344,75222,1,2,0:0:0:0:
456,360,75308,1,0,0:0:0:0:
412,356,75394,1,2,0:0:0:0:
372,332,75480,1,0,0:0:0:0:
351,291,75565,6,0,P|339:247|351:199,1,90
392,8,75908,1,8,0:0:0:0:
464,88,76080,2,0,P|473:131|461:174,1,90
240,248,76422,1,8,0:0:0:0:
184,156,76594,1,2,0:0:0:0:
100,328,76765,1,10,0:0:0:0:
280,148,76937,6,0,P|264:104|136:72,1,180,4|8,0:0|0:0,0:0:0:0:
240,248,77451,1,0,0:0:0:0:
240,248,77537,1,0,0:0:0:0:
240,248,77622,1,0,0:0:0:0:
332,56,77794,1,8,0:0:0:0:
144,200,77965,1,2,0:0:0:0:
348,240,78137,1,0,0:0:0:0:
348,240,78222,1,0,0:0:0:0:
348,240,78308,70,0,L|444:224,1,90,2|0,0:0|0:0,0:0:0:0:
504,32,78651,1,8,0:0:0:0:
400,56,78822,2,0,L|311:70,1,90,0|0,0:0|0:0,0:0:0:0:
88,168,79165,1,8,2:0:0:0:
197,214,79337,1,2,2:0:0:0:
197,214,79422,1,0,0:0:0:0:
197,214,79508,1,10,0:0:0:0:
212,25,79680,5,0,2:0:0:0:
275,125,79851,1,0,2:0:0:0:
97,49,80022,1,8,2:0:0:0:
208,224,80194,2,0,L|392:204,1,180,0|8,0:0|0:0,0:0:0:0:
456,344,80708,1,2,0:0:0:0:
456,344,80794,1,0,0:0:0:0:
456,344,80880,1,2,0:0:0:0:
456,344,80965,1,0,0:0:0:0:
456,344,81051,6,0,L|356:356,1,90,0|0,0:0|0:0,0:0:0:0:
208,312,81394,1,8,0:0:0:0:
0,244,81565,2,0,L|89:237,1,90,0|0,0:0|0:0,0:0:0:0:
172,100,81908,1,8,0:0:0:0:
388,176,82080,2,0,L|298:182,1,90,2|10,0:0|0:0,0:0:0:0:
392,52,82422,6,0,P|440:60|488:108,2,90,0|0|8,0:0|0:0|0:0,0:0:0:0:
176,192,82937,2,0,P|128:184|80:136,1,90,0|0,0:0|0:0,0:0:0:0:
284,136,83280,1,8,0:0:0:0:
408,340,83451,1,2,0:0:0:0:
408,340,83537,1,0,0:0:0:0:
408,340,83622,1,2,0:0:0:0:
408,340,83708,1,0,0:0:0:0:
408,340,83794,70,0,L|512:328,1,90,0|0,0:0|0:0,0:0:0:0:
304,292,84137,1,8,0:0:0:0:
500,140,84308,2,0,P|456:160|400:160,1,90,0|0,0:0|0:0,0:0:0:0:
432,56,84651,1,8,0:0:0:0:
200,248,84822,2,0,L|92:232,1,90,2|8,0:0|0:0,0:0:0:0:
304,184,85165,6,0,P|364:184|484:120,1,180,0|8,0:0|0:0,0:0:0:0:
167,71,85680,2,0,L|207:287,1,180,0|8,0:0|0:0,0:0:0:0:
4,348,86194,1,2,0:0:0:0:
36,316,86280,1,0,0:0:0:0:
52,276,86365,1,2,0:0:0:0:
52,232,86451,1,0,0:0:0:0:
40,188,86537,70,0,B|24:168|24:168|32:92,1,90,0|0,0:0|0:0,0:0:0:0:
481,103,87565,2,0,B|488:168|488:168|472:188,1,90,0|0,0:0|0:0,0:0:0:0:
436,268,87908,53,4,0:0:0:0:
320,64,88080,1,0,0:0:0:0:
320,64,88165,1,0,0:0:0:0:
320,64,88251,1,8,0:0:0:0:
240,252,88422,1,0,0:0:0:0:
140,208,88594,2,0,L|24:224,1,90,0|8,0:0|0:0,0:0:0:0:
168,48,88937,1,2,0:0:0:0:
208,32,89022,1,0,0:0:0:0:
252,28,89108,1,2,0:0:0:0:
296,36,89194,1,0,0:0:0:0:
332,64,89280,5,0,0:0:0:0:
286,264,89451,1,0,0:0:0:0:
439,131,89622,1,8,0:0:0:0:
238,147,89794,1,0,0:0:0:0:
411,253,89965,1,0,0:0:0:0:
332,64,90137,1,8,0:0:0:0:
286,264,90308,1,2,0:0:0:0:
439,131,90480,1,10,0:0:0:0:
286,264,90651,70,0,P|232:280|96:272,1,180,0|8,0:0|0:0,0:0:0:0:
88,44,91165,2,0,P|175:23|264:32,1,180,0|8,0:0|0:0,0:0:0:0:
508,192,91680,1,2,0:0:0:0:
480,224,91765,1,0,0:0:0:0:
440,244,91851,1,2,0:0:0:0:
396,244,91937,1,0,0:0:0:0:
352,232,92022,6,0,L|260:216,1,90,0|0,0:0|0:0,0:0:0:0:
104,136,92365,1,8,0:0:0:0:
0,340,92537,2,0,L|116:316,1,90,0|0,0:0|0:0,0:0:0:0:
336,336,92880,1,8,0:0:0:0:
500,196,93051,2,0,L|400:216,1,90,2|10,0:0|0:0,0:0:0:0:
108,200,93394,6,0,P|156:212|288:184,1,180,0|8,0:0|0:0,0:0:0:0:
408,72,93908,1,0,0:0:0:0:
408,72,93994,1,0,0:0:0:0:
408,72,94080,1,0,0:0:0:0:
448,240,94251,1,8,0:0:0:0:
384,48,94422,2,0,L|292:40,1,90,2|2,0:0|0:0,0:0:0:0:
72,80,94765,5,0,0:0:0:0:
212,216,94937,1,0,0:0:0:0:
212,216,95022,1,0,0:0:0:0:
212,216,95108,1,8,0:0:0:0:
296,40,95280,1,0,0:0:0:0:
296,40,95365,1,0,0:0:0:0:
296,40,95451,1,0,0:0:0:0:
192,104,95622,1,8,0:0:0:0:
316,248,95794,2,0,P|364:248|416:224,1,90,2|10,0:0|0:0,0:0:0:0:
232,336,96137,70,0,L|44:312,1,180,0|8,0:0|0:0,0:0:0:0:
316,248,96651,2,0,P|408:252|504:200,1,180,0|8,0:0|0:0,0:0:0:0:
252,12,97165,1,2,0:0:0:0:
224,48,97251,1,0,0:0:0:0:
216,92,97337,1,2,0:0:0:0:
220,136,97422,1,0,0:0:0:0:
244,176,97508,6,0,L|356:156,1,90
484,124,97851,1,8,0:0:0:0:
276,268,98022,2,0,L|164:248,1,90
16,356,98365,1,8,0:0:0:0:
120,184,98537,2,0,P|108:128|80:96,1,90,2|10,0:0|0:0,0:0:0:0:
52,272,98880,6,0,P|120:296|224:228,1,180,4|8,0:0|0:0,0:0:0:0:
444,120,99394,2,0,P|471:154|477:198,1,90
368,200,99737,1,8,0:0:0:0:
248,60,99908,1,2,0:0:0:0:
204,48,99994,1,0,0:0:0:0:
160,36,100080,1,2,0:0:0:0:
116,24,100165,1,0,0:0:0:0:
72,16,100251,6,0,P|44:64|48:112,1,90,0|0,0:0|0:0,0:0:0:0:
168,312,100594,1,8,0:0:0:0:
216,216,100765,2,0,L|196:112,1,90
384,12,101108,1,8,0:0:0:0:
408,116,101280,2,0,L|424:204,1,90,2|10,0:0|0:0,0:0:0:0:
252,360,101622,70,0,L|48:328,1,180,0|8,0:0|0:0,0:0:0:0:
204,100,102137,2,0,P|260:112|328:240,1,180,0|8,0:0|0:0,0:0:0:0:
56,180,102651,2,0,P|28:136|28:88,1,90,2|2,0:0|0:0,0:0:0:0:
180,256,102994,6,0,L|164:348,1,90
336,116,103337,1,8,0:0:0:0:
276,244,103508,2,0,L|260:336,1,90,0|0,0:0|0:0,0:0:0:0:
348,96,103851,1,8,0:0:0:0:
436,248,104022,1,2,0:0:0:0:
448,240,104108,1,0,0:0:0:0:
456,232,104194,1,10,0:0:0:0:
464,220,104280,1,0,0:0:0:0:
468,208,104365,6,0,P|464:160|444:120,1,90,0|0,0:0|0:0,0:0:0:0:
184,160,104708,1,8,0:0:0:0:
280,208,104880,2,0,L|384:192,1,90
92,116,105222,1,8,0:0:0:0:
16,248,105394,1,2,0:0:0:0:
60,264,105480,1,0,0:0:0:0:
104,264,105565,1,2,0:0:0:0:
148,256,105651,1,0,0:0:0:0:
188,232,105737,6,0,P|204:184|192:132,1,90
136,52,106080,1,8,0:0:0:0:
192,244,106251,70,0,P|218:200|218:147,1,90
144,36,106594,1,8,0:0:0:0:
300,128,106765,2,0,L|356:120,1,45,2|0,0:0|0:0,0:0:0:0:
372,116,106937,1,10,0:0:0:0:
400,112,107022,1,0,0:0:0:0:
428,108,107108,6,0,L|516:136,2,90,0|0|8,0:0|0:0|0:0,0:0:0:0:
428,256,107622,2,0,L|468:338,2,90,0|0|8,0:0|0:0|0:0,0:0:0:0:
268,200,108137,1,2,0:0:0:0:
224,208,108222,1,0,0:0:0:0:
184,224,108308,1,2,0:0:0:0:
148,252,108394,1,0,0:0:0:0:
124,288,108480,1,0,0:0:0:0:
256,192,108565,12,4,109851,0:0:0:0:
