osu file format v13

[General]
AudioFilename: Asphyxia2.mp3
AudioLeadIn: 0
PreviewTime: 65965
Countdown: 0
SampleSet: Soft
StackLeniency: 0.7
Mode: 0
LetterboxInBreaks: 0
WidescreenStoryboard: 1

[Editor]
DistanceSpacing: 1.2
BeatDivisor: 4
GridSize: 4
TimelineZoom: 1.9

[Metadata]
Title:Culture
TitleUnicode:Culture
Artist:Gavin G
ArtistUnicode:Gavin G
Creator:Asphyxia
Version:Hard
Source:
Tags:liquid dnb drum and bass ProfessionalBox Kyshiro Secretpipe Collab Collaboration
BeatmapID:513244
BeatmapSetID:219056

[Difficulty]
HPDrainRate:7
CircleSize:4
OverallDifficulty:7
ApproachRate:8
SliderMultiplier:1.5
SliderTickRate:1

[Events]
//Background and Video events
0,0,"BG resized.jpg",0,0
//Break Periods
//Storyboard Layer 0 (Background)
//Storyboard Layer 1 (Fail)
//Storyboard Layer 2 (Pass)
//Storyboard Layer 3 (Foreground)
//Storyboard Sound Samples
//Background Colour Transformations
3,100,163,162,255

[TimingPoints]
22080,342.857142857143,4,2,1,60,1,0
44022,-100,4,2,1,60,0,0
63908,-100,4,2,1,65,0,0
64594,-100,4,1,1,60,0,0
65280,-100,4,1,1,65,0,0
65965,-100,4,2,1,90,0,1
86537,-100,4,2,1,80,0,0
86708,-100,4,2,1,40,0,0
87908,-100,4,2,1,90,0,1
106765,-100,4,2,1,65,0,1
107108,-100,4,2,1,60,0,1
107622,-100,4,2,1,55,0,1
108137,-100,4,2,1,50,0,1
108480,-100,4,2,1,45,0,1
109851,-100,4,2,1,45,0,0

[Colours]
Combo1 : 255,253,223
Combo2 : 125,125,255
Combo3 : 71,254,194
Combo4 : 227,227,227
Combo5 : 19,255,255
Combo6 : 255,88,100
Combo7 : 255,187,221
Combo8 : 255,94,55

[HitObjects]
72,152,22080,6,0,P|124:160|220:128,1,150,0|0,0:0|0:0,0:0:0:0:
284,76,22594,1,0,0:0:0:0:
312,160,22766,2,0,L|332:248,2,75,8|0|0,0:0|0:0|0:0,0:0:0:0:
460,268,23451,6,0,L|444:352,1,75,0|0,0:0|0:0,0:0:0:0:
384,224,23794,2,0,P|410:195|453:180,1,75,0|0,0:0|0:0,0:0:0:0:
356,308,24137,2,0,L|196:292,1,150,8|2,0:0|0:0,0:0:0:0:
116,280,24651,1,2,0:0:0:0:
52,344,24823,6,0,P|90:367|125:371,1,75,0|0,0:0|0:0,0:0:0:0:
181,216,25166,2,0,P|143:193|108:189,1,75,0|0,0:0|0:0,0:0:0:0:
28,244,25508,1,8,0:0:0:0:
168,52,25851,1,0,0:0:0:0:
308,164,26194,6,0,L|384:152,2,75,0|0|0,0:0|0:0|0:0,0:0:0:0:
244,228,26708,2,0,L|168:216,2,75,0|8|0,0:0|0:0|0:0,0:0:0:0:
332,252,27223,2,0,P|336:296|316:328,1,75,2|2,0:0|0:0,0:0:0:0:
244,228,27566,70,0,P|264:188|376:172,1,150,0|0,0:0|0:0,0:0:0:0:
420,232,28080,1,0,0:0:0:0:
480,164,28251,2,0,P|484:124|464:88,1,75,8|0,0:0|0:0,0:0:0:0:
400,36,28594,1,0,0:0:0:0:
244,128,28937,6,0,L|164:116,1,75,0|0,0:0|0:0,0:0:0:0:
108,184,29280,1,0,0:0:0:0:
108,184,29451,2,0,L|28:172,2,75,0|8|0,0:0|0:0|0:0,0:0:0:0:
180,240,29966,2,0,P|184:280|164:320,1,75,2|2,0:0|0:0,0:0:0:0:
100,364,30308,6,0,L|268:348,1,150,0|0,0:0|0:0,0:0:0:0:
340,340,30823,1,0,0:0:0:0:
404,280,30994,2,0,P|368:256|312:256,1,75,8|0,0:0|0:0,0:0:0:0:
248,264,31337,1,0,0:0:0:0:
344,112,31680,6,0,L|324:32,2,75,0|0|0,0:0|0:0|0:0,0:0:0:0:
432,136,32194,2,0,L|450:208,2,75,0|8|0,0:0|0:0|0:0,0:0:0:0:
412,56,32708,1,2,0:0:0:0:
368,196,32880,1,2,0:0:0:0:
368,196,33051,70,0,L|268:184,1,75,0|0,0:0|0:0,0:0:0:0:
72,264,33566,1,0,0:0:0:0:
72,264,33737,2,0,L|146:272,1,75,8|0,0:0|0:0,0:0:0:0:
236,288,34080,1,0,0:0:0:0:
120,148,34423,5,0,0:0:0:0:
172,76,34594,1,0,0:0:0:0:
236,136,34766,2,0,L|324:120,1,75,0|0,0:0|0:0,0:0:0:0:
440,180,35108,2,0,L|288:208,1,150,8|2,0:0|0:0,0:0:0:0:
208,232,35623,1,2,0:0:0:0:
136,284,35794,6,0,P|172:312|208:324,2,75,0|0|0,0:0|0:0|0:0,0:0:0:0:
68,228,36308,2,0,P|33:242|4:266,2,75,0|8|0,0:0|0:0|0:0,0:0:0:0:
140,172,36823,2,0,P|156:138|162:101,1,75,0|0,0:0|0:0,0:0:0:0:
236,52,37166,6,0,L|385:59,1,150,0|0,0:0|0:0,0:0:0:0:
504,160,37680,1,0,0:0:0:0:
416,148,37851,2,0,L|328:144,1,75,8|0,0:0|0:0,0:0:0:0:
188,196,38194,2,0,L|276:204,1,75,2|2,0:0|0:0,0:0:0:0:
172,308,38537,70,0,P|120:288|76:204,1,150,0|0,0:0|0:0,0:0:0:0:
196,92,39051,2,0,P|262:122|293:189,1,150,0|0,0:0|0:0,0:0:0:0:
288,312,39566,1,0,0:0:0:0:
296,324,39908,6,0,L|369:338,1,75,0|0,0:0|0:0,0:0:0:0:
436,280,40251,2,0,L|418:207,1,75,0|0,0:0|0:0,0:0:0:0:
328,188,40594,2,0,P|347:148|450:118,1,150,8|2,0:0|0:0,0:0:0:0:
368,308,41280,1,0,0:0:0:0:
288,268,41451,5,0,0:0:0:0:
220,212,41623,2,0,L|136:204,1,75,0|0,0:0|0:0,0:0:0:0:
57,192,41966,2,0,P|79:147|179:122,1,150,8|0,0:0|0:0,0:0:0:0:
512,280,43680,6,0,P|480:300|400:300,1,112.5,2|0,0:0|0:0,0:0:0:0:
364,288,44023,70,0,L|284:304,1,75,0|0,0:0|0:0,0:0:0:0:
152,224,44366,2,0,L|232:240,1,75,0|0,0:0|0:0,0:0:0:0:
172,116,44708,2,0,P|128:116|51:190,2,150,10|0|0,0:0|0:0|0:0,0:0:0:0:
240,172,45566,5,0,0:0:0:0:
240,172,45737,1,0,0:0:0:0:
340,24,46080,1,10,0:0:0:0:
464,152,46423,1,2,0:0:0:0:
400,92,46594,1,2,0:0:0:0:
400,92,46766,6,0,L|380:168,1,75,0|0,0:0|0:0,0:0:0:0:
124,376,47280,1,0,0:0:0:0:
124,376,47451,2,0,L|143:303,1,75,10|0,0:0|0:0,0:0:0:0:
229,281,47794,2,0,P|202:238|97:228,1,150,0|0,0:0|0:0,0:0:0:0:
48,288,48308,5,0,0:0:0:0:
24,200,48480,2,0,P|40:168|92:136,1,75,0|0,0:0|0:0,0:0:0:0:
157,126,48823,2,0,P|140:89|29:66,1,150,10|2,0:0|0:0,0:0:0:0:
140,212,49337,1,2,0:0:0:0:
224,184,49508,70,0,L|320:196,1,75,0|0,0:0|0:0,0:0:0:0:
480,316,50023,1,0,0:0:0:0:
480,316,50194,2,0,P|444:328|408:364,1,75,10|0,0:0|0:0,0:0:0:0:
268,268,50537,2,0,P|303:279|331:303,1,75,0|0,0:0|0:0,0:0:0:0:
160,288,50880,6,0,P|161:243|226:166,1,150,0|0,0:0|0:0,0:0:0:0:
312,140,51394,1,0,0:0:0:0:
396,112,51566,2,0,L|228:72,1,150,10|0,0:0|0:0,0:0:0:0:
16,128,52251,6,0,P|64:128|176:92,1,150,0|0,0:0|0:0,0:0:0:0:
188,200,52766,2,0,P|117:224|42:227,1,150,0|0,0:0|0:0,0:0:0:0:
60,332,53280,2,0,P|108:332|220:296,1,150,0|0,0:0|0:0,0:0:0:0:
296,300,53794,6,0,P|348:312|388:316,2,75,0|0|0,0:0|0:0|0:0,0:0:0:0:
200,208,54308,2,0,P|148:220|108:224,1,75,10|0,0:0|0:0,0:0:0:0:
308,136,54651,1,0,0:0:0:0:
316,148,54994,70,0,L|472:132,1,150,0|0,0:0|0:0,0:0:0:0:
480,236,55508,2,0,L|330:251,1,150,2|0,0:0|0:0,0:0:0:0:
240,264,56023,1,0,0:0:0:0:
92,160,56366,6,0,P|122:131|109:19,1,150,0|0,0:0|0:0,0:0:0:0:
48,84,56880,1,0,0:0:0:0:
92,160,57051,2,0,L|76:244,1,75,10|0,0:0|0:0,0:0:0:0:
144,320,57394,2,0,L|158:246,1,75,0|2,0:0|0:0,0:0:0:0:
236,200,57737,6,0,B|308:176|308:216|384:192,1,150,0|0,0:0|0:0,0:0:0:0:
460,240,58251,2,0,P|474:191|416:108,1,150,2|0,0:0|0:0,0:0:0:0:
336,112,58766,1,0,0:0:0:0:
324,104,59108,6,0,L|340:28,1,75,0|0,0:0|0:0,0:0:0:0:
256,172,59451,2,0,L|271:245,1,75,0|0,0:0|0:0,0:0:0:0:
348,288,59794,2,0,P|288:331|217:315,1,150,10|2,0:0|0:0,0:0:0:0:
168,240,60308,1,2,0:0:0:0:
300,124,60480,69,2,0:0:0:0:
256,192,60651,12,2,64251,0:0:0:0:
176,120,64594,54,0,L|188:164,3,37.5,0|0|8|8,0:0|0:0|0:0|0:0,0:0:0:0:
172,200,64937,6,0,L|156:244,3,37.5,0|0|8|0,0:0|0:0|0:1|0:0,0:0:0:0:
152,280,65280,6,0,L|164:315,3,37.5,0|0|0|0,0:0|0:0|0:0|0:0,0:0:0:0:
180,340,65622,1,0,0:0:0:0:
204,356,65708,1,0,0:0:0:0:
232,364,65794,1,8,0:0:0:0:
264,364,65880,1,8,0:0:0:0:
292,356,65966,6,0,L|380:344,1,75,4|0,0:0|0:0,0:0:0:0:
452,316,66308,1,8,0:0:0:0:
464,228,66480,1,0,0:0:0:0:
464,228,66566,1,0,0:0:0:0:
464,228,66651,2,0,L|484:140,1,75,0|8,0:0|0:0,0:0:0:0:
396,128,66994,2,0,L|384:80,3,37.5,2|0|2|0,0:0|0:0|0:0|0:0,0:0:0:0:
386,91,67337,70,0,L|306:63,2,75,0|0|8,0:0|0:0|0:0,0:0:0:0:
224,108,67851,2,0,L|144:80,2,75,0|0|8,0:0|0:0|0:0,0:0:0:0:
252,192,68366,2,0,P|216:216|164:220,1,75,2|10,0:0|0:0,0:0:0:0:
104,260,68708,6,0,L|276:280,1,150,0|8,0:0|0:0,0:0:0:0:
380,224,69223,2,0,P|352:196|248:172,1,150,0|8,0:0|0:0,0:0:0:0:
184,96,69737,2,0,P|220:76|276:80,1,75,2|2,0:0|0:0,0:0:0:0:
340,92,70080,6,0,L|436:76,1,75,0|0,0:0|0:0,0:0:0:0:
500,60,70423,1,8,0:0:0:0:
400,164,70594,2,0,L|326:176,1,75,0|0,0:0|0:0,0:0:0:0:
240,196,70937,1,8,0:0:0:0:
304,260,71108,1,2,0:0:0:0:
304,260,71194,1,0,0:0:0:0:
304,260,71280,1,10,0:0:0:0:
392,256,71451,6,0,P|381:302|294:348,1,150,0|8,0:0|0:0,0:0:0:0:
304,260,71966,2,0,P|235:235|208:167,1,150,0|8,0:0|0:0,0:0:0:0:
300,168,72480,2,0,P|328:140|336:128,2,37.5,2|0|2,0:0|0:0|0:0,0:0:0:0:
248,96,72823,70,0,P|212:85|168:96,2,75,0|0|8,0:0|0:0|0:0,0:0:0:0:
340,84,73337,2,0,P|375:70|403:34,2,75,2|2|10,0:0|0:0|0:0,0:0:0:0:
300,168,73851,2,0,P|297:205|311:239,1,75,0|8,0:0|0:0,0:0:0:0:
388,288,74194,6,0,L|224:272,1,150,0|8,0:0|0:0,0:0:0:0:
160,320,74708,2,0,P|188:296|180:188,1,150,0|8,0:0|0:0,0:0:0:0:
120,128,75223,2,0,P|100:164|100:176,3,37.5,2|0|2|0,0:0|0:0|0:0|0:0,0:0:0:0:
76,200,75566,6,0,L|92:280,1,75,0|0,0:0|0:0,0:0:0:0:
196,216,75908,1,8,0:0:0:0:
216,304,76080,2,0,L|232:384,1,75,0|0,0:0|0:0,0:0:0:0:
300,256,76423,1,8,0:0:0:0:
382,288,76594,2,0,P|386:240|372:208,1,75,2|10,0:0|0:0,0:0:0:0:
288,100,76937,6,0,L|268:184,1,75,4|0,0:0|0:0,0:0:0:0:
228,252,77280,1,8,0:0:0:0:
156,196,77451,1,0,0:0:0:0:
156,196,77537,1,0,0:0:0:0:
156,196,77623,2,0,L|80:180,1,75,0|8,0:0|0:0,0:0:0:0:
4,140,77966,2,0,P|25:115|66:93,1,75,2|0,0:0|0:0,0:0:0:0:
152,100,78308,70,0,P|148:68|117:24,1,75,2|0,0:0|0:0,0:0:0:0:
96,176,78651,1,8,0:0:0:0:
184,192,78822,2,0,L|272:176,1,75,0|0,0:0|0:0,0:0:0:0:
344,156,79165,1,8,2:0:0:0:
384,300,79337,2,0,L|372:376,1,75,2|10,2:0|0:0,0:0:0:0:
460,264,79680,6,0,P|428:228|327:238,1,150,0|8,2:0|2:0,0:0:0:0:
268,292,80194,2,0,P|236:328|135:318,1,150,0|8,0:0|0:0,0:0:0:0:
194,212,80708,2,0,L|190:260,3,37.5,2|0|2|0,0:0|0:0|0:0|0:0,0:0:0:0:
194,212,81051,6,0,L|176:132,1,75,0|0,0:0|0:0,0:0:0:0:
156,52,81394,1,8,0:0:0:0:
268,168,81565,2,0,L|284:241,1,75,0|0,0:0|0:0,0:0:0:0:
308,328,81908,1,8,0:0:0:0:
376,268,82080,1,2,0:0:0:0:
376,268,82165,1,0,0:0:0:0:
376,268,82251,1,10,0:0:0:0:
447,320,82422,6,0,P|465:254|418:190,1,150,0|8,0:0|0:0,0:0:0:0:
336,164,82937,2,0,B|288:176|288:176|188:156,1,150,0|8,0:0|0:0,0:0:0:0:
100,148,83451,2,0,L|56:156,2,37.5,2|0|2,0:0|0:0|0:0,0:0:0:0:
144,52,83794,70,0,L|232:36,1,75,0|0,0:0|0:0,0:0:0:0:
308,20,84137,1,8,0:0:0:0:
336,164,84308,2,0,L|348:240,1,75,0|0,0:0|0:0,0:0:0:0:
364,328,84651,1,8,0:0:0:0:
432,268,84822,2,0,P|475:294|495:294,2,37.5,2|0|2,0:0|0:0|0:0,0:0:0:0:
504,216,85165,6,0,P|440:180|360:216,1,150,0|8,0:0|0:0,0:0:0:0:
296,256,85680,2,0,L|360:104,1,150,0|8,0:0|0:0,0:0:0:0:
264,44,86194,2,0,L|276:96,3,37.5,2|0|2|0,0:0|0:0|0:0|0:0,0:0:0:0:
272,80,86537,70,0,B|268:104|268:104|236:156,1,75,0|0,0:0|0:0,0:0:0:0:
56,352,87565,2,0,B|60:328|60:328|87:284,1,75,0|0,0:0|0:0,0:0:0:0:
172,252,87908,54,0,L|328:272,1,150,4|8,0:0|0:0,0:0:0:0:
412,268,88422,2,0,L|448:248,2,37.5,0|0|0,0:0|0:0|0:0,0:0:0:0:
364,192,88765,1,8,0:0:0:0:
276,180,88937,2,0,L|232:176,3,37.5,2|0|2|0,0:0|0:0|0:0|0:0,0:0:0:0:
238,176,89280,6,0,P|188:164|164:140,1,75,0|0,0:0|0:0,0:0:0:0:
124,72,89622,1,8,0:0:0:0:
96,208,89794,2,0,L|108:296,1,75,0|0,0:0|0:0,0:0:0:0:
124,372,90137,1,8,0:0:0:0:
200,328,90308,1,2,0:0:0:0:
200,328,90394,1,0,0:0:0:0:
200,328,90480,1,10,0:0:0:0:
288,352,90651,70,0,P|332:344|440:352,1,150,0|8,0:0|0:0,0:0:0:0:
432,244,91165,2,0,P|357:235|283:244,1,150,0|8,0:0|0:0,0:0:0:0:
196,228,91680,2,0,P|216:188|232:176,3,37.5,2|0|2|0,0:0|0:0|0:0|0:0,0:0:0:0:
210,194,92022,6,0,L|120:172,1,75,0|0,0:0|0:0,0:0:0:0:
52,156,92365,1,8,0:0:0:0:
19,71,92537,2,0,P|56:65|92:75,2,75,0|0|8,0:0|0:0|0:0,0:0:0:0:
144,144,93051,2,0,P|170:114|177:67,1,75,2|10,0:0|0:0,0:0:0:0:
264,48,93394,6,0,P|308:68|428:48,1,150,0|8,0:0|0:0,0:0:0:0:
512,168,93908,1,0,0:0:0:0:
512,168,93994,1,0,0:0:0:0:
512,168,94080,2,0,P|472:152|432:160,1,75,0|8,0:0|0:0,0:0:0:0:
400,282,94422,2,0,P|433:269|468:225,1,75,2|2,0:0|0:0,0:0:0:0:
384,196,94765,6,0,L|372:356,1,150,0|8,0:0|0:0,0:0:0:0:
268,256,95280,2,0,L|280:312,3,37.5,0|0|0|0,0:0|0:0|0:0|0:0,0:0:0:0:
268,256,95622,2,0,L|184:244,1,75,8|2,0:0|0:0,0:0:0:0:
104,232,95965,1,10,0:0:0:0:
28,184,96137,70,0,P|79:145|159:160,1,150,0|8,0:0|0:0,0:0:0:0:
248,152,96651,2,0,P|299:191|379:176,1,150,0|8,0:0|0:0,0:0:0:0:
468,184,97165,2,0,L|488:220,3,37.5,2|0|2|0,0:0|0:0|0:0|0:0,0:0:0:0:
492,260,97508,6,0,L|481:334,2,75,0|0|8,0:0|0:0|0:0,0:0:0:0:
376,192,98022,2,0,L|386:266,2,75,0|0|8,0:0|0:0|0:0,0:0:0:0:
257,128,98537,2,0,L|241:212,1,75,2|10,0:0|0:0,0:0:0:0:
160,240,98880,6,0,P|200:284|310:267,1,150,4|8,0:0|0:0,0:0:0:0:
243,202,99394,2,0,P|219:170|183:150,1,75,0|0,0:0|0:0,0:0:0:0:
100,148,99737,1,8,0:0:0:0:
48,220,99908,2,0,L|8:204,3,37.5,2|0|2|0,0:0|0:0|0:0|0:0,0:0:0:0:
48,220,100251,6,0,L|64:312,1,75,0|0,0:0|0:0,0:0:0:0:
80,380,100594,1,8,0:0:0:0:
168,364,100765,2,0,L|240:345,1,75,0|0,0:0|0:0,0:0:0:0:
324,316,101108,1,8,0:0:0:0:
256,256,101280,1,2,0:0:0:0:
256,256,101365,1,0,0:0:0:0:
256,256,101451,1,10,0:0:0:0:
340,220,101622,70,0,P|301:178|200:182,1,150,0|8,0:0|0:0,0:0:0:0:
136,224,102137,2,0,P|81:272|8:269,1,150,0|8,0:0|0:0,0:0:0:0:
61,115,102651,2,0,L|49:207,1,75,2|2,0:0|0:0,0:0:0:0:
144,80,102994,6,0,P|121:47|84:28,1,75,0|0,0:0|0:0,0:0:0:0:
136,172,103337,1,8,0:0:0:0:
220,140,103508,2,0,L|296:92,1,75,0|0,0:0|0:0,0:0:0:0:
360,52,103851,1,8,0:0:0:0:
388,136,104022,2,0,L|316:180,1,75,2|10,0:0|0:0,0:0:0:0:
248,228,104365,6,0,P|290:261|392:240,1,150,0|8,0:0|0:0,0:0:0:0:
468,220,104880,2,0,L|352:324,1,150,0|8,0:0|0:0,0:0:0:0:
272,356,105394,2,0,L|224:340,3,37.5,2|0|2|0,0:0|0:0|0:0|0:0,0:0:0:0:
236,344,105737,6,0,L|152:360,2,75,0|0|8,0:0|0:0|0:0,0:0:0:0:
100,284,106251,2,0,L|15:299,2,75,0|0|8,0:0|0:0|0:0,0:0:0:0:
160,220,106765,2,0,P|168:188|152:136,1,75,2|10,0:0|0:0,0:0:0:0:
76,108,107108,70,0,P|124:116|224:56,1,150,0|8,0:0|0:0,0:0:0:0:
280,132,107622,2,0,P|246:167|240:283,1,150,0|8,0:0|0:0,0:0:0:0:
284,340,108137,2,0,L|276:380,3,37.5,2|0|2|0,0:0|0:0|0:0|0:0,0:0:0:0:
256,192,108480,12,4,109851,0:0:0:0:
