osu file format v13

[General]
AudioFilename: Asphyxia2.mp3
AudioLeadIn: 0
PreviewTime: 65965
Countdown: 0
SampleSet: Soft
StackLeniency: 0.7
Mode: 0
LetterboxInBreaks: 0
WidescreenStoryboard: 1

[Editor]
DistanceSpacing: 0.9
BeatDivisor: 2
GridSize: 4
TimelineZoom: 1

[Metadata]
Title:Culture
TitleUnicode:Culture
Artist:Gavin G
ArtistUnicode:Gavin G
Creator:Asphyxia
Version:Advanced
Source:
Tags:liquid dnb drum and bass ProfessionalBox Kyshiro Secretpipe Collab Collaboration
BeatmapID:521213
BeatmapSetID:219056

[Difficulty]
HPDrainRate:5
CircleSize:4
OverallDifficulty:5
ApproachRate:6
SliderMultiplier:1.2
SliderTickRate:1

[Events]
//Background and Video events
0,0,"BG resized.jpg",0,0
//Break Periods
//Storyboard Layer 0 (Background)
//Storyboard Layer 1 (Fail)
//Storyboard Layer 2 (Pass)
//Storyboard Layer 3 (Foreground)
//Storyboard Sound Samples
//Background Colour Transformations
3,100,163,162,255

[TimingPoints]
22080,342.857142857143,4,2,1,60,1,0
43680,-100,4,2,1,40,0,0
44022,-100,4,2,1,60,0,0
64594,-100,4,1,1,60,0,0
65965,-100,4,2,1,90,0,1
86537,-100,4,2,1,80,0,0
86708,-100,4,2,1,40,0,0
87908,-100,4,2,1,90,0,1
106765,-100,4,2,1,65,0,1
107108,-100,4,2,1,60,0,1
107622,-100,4,2,1,55,0,1
108137,-100,4,2,1,50,0,1
108480,-100,4,2,1,45,0,1
109851,-100,4,2,1,45,0,0

[Colours]
Combo1 : 255,253,223
Combo2 : 125,125,255
Combo3 : 71,254,194
Combo4 : 227,227,227
Combo5 : 19,255,255
Combo6 : 255,88,100
Combo7 : 255,187,221
Combo8 : 255,94,55

[HitObjects]
72,96,22080,6,0,P|124:108|188:80,1,120,0|0,0:0|0:0,0:0:0:0:
288,104,22765,2,0,P|340:92|404:120,1,120,8|0,0:0|0:0,0:0:0:0:
436,156,23280,1,0,0:0:0:0:
448,208,23451,2,0,L|440:272,1,60,0|0,0:0|0:0,0:0:0:0:
424,320,23794,2,0,P|368:348|296:324,1,120,0|8,0:0|0:0,0:0:0:0:
252,248,24480,1,2,0:0:0:0:
200,244,24651,1,2,0:0:0:0:
160,280,24822,6,0,L|32:300,2,120,0|0|8,0:0|0:0|0:0,0:0:0:0:
216,188,25851,1,0,0:0:0:0:
144,108,26194,2,0,P|124:72|120:36,2,60,0|0|0,0:0|0:0|0:0,0:0:0:0:
168,156,26708,2,0,P|160:184|144:210,2,60,0|8|0,0:0|0:0|0:0,0:0:0:0:
200,112,27222,2,0,L|276:120,1,60,2|2,0:0|0:0,0:0:0:0:
312,124,27565,6,0,B|392:124|424:36|424:36|448:88|508:88,1,240,0|8,0:0|0:0,0:0:0:0:
500,196,28594,1,0,0:0:0:0:
424,276,28937,1,0,0:0:0:0:
372,268,29108,1,0,0:0:0:0:
320,276,29280,2,0,P|260:288|200:260,1,120,0|8,0:0|0:0,0:0:0:0:
272,180,29965,1,2,0:0:0:0:
172,140,30308,6,0,P|212:88|274:70,1,120,0|0,0:0|0:0,0:0:0:0:
316,80,30822,2,0,P|360:118|380:176,1,120,0|0,0:0|0:0,0:0:0:0:
368,228,31337,1,0,0:0:0:0:
432,316,31680,2,0,L|496:304,2,60,0|0|0,0:0|0:0|0:0,0:0:0:0:
384,340,32194,2,0,L|320:328,2,60,0|8|0,0:0|0:0|0:0,0:0:0:0:
382,284,32708,2,0,P|366:244|370:220,1,60,2|2,0:0|0:0,0:0:0:0:
408,192,33051,70,0,P|372:120|220:132,1,240,0|8,0:0|0:0,0:0:0:0:
156,204,34080,1,0,0:0:0:0:
68,264,34422,2,0,P|48:204|68:144,1,120,0|0,0:0|0:0,0:0:0:0:
96,108,34937,1,0,0:0:0:0:
144,88,35108,2,0,L|268:96,1,120,8|2,0:0|0:0,0:0:0:0:
316,192,35794,6,0,P|357:153|346:24,2,180,0|0|0,0:0|0:0|0:0,0:0:0:0:
212,228,37165,1,0,0:0:0:0:
212,228,37337,1,0,0:0:0:0:
212,228,37508,2,0,L|200:352,2,120,0|8|2,0:0|0:0|0:0,0:0:0:0:
312,184,38537,6,0,P|272:129|184:124,1,120,0|0,0:0|0:0,0:0:0:0:
172,124,39051,2,0,P|115:165|101:214,1,120,0|0,0:0|0:0,0:0:0:0:
115,262,39565,1,0,0:0:0:0:
204,324,39908,2,0,P|200:372|196:384,2,60,0|0|0,0:0|0:0|0:0,0:0:0:0:
236,280,40422,2,0,P|228:250|228:221,2,60,0|8|0,0:0|0:0|0:0,0:0:0:0:
276,316,40937,2,0,L|352:308,1,60,2|2,0:0|0:0,0:0:0:0:
388,304,41280,5,0,0:0:0:0:
292,176,41794,2,0,P|300:144|320:116,1,60
392,196,42308,1,0,0:0:0:0:
256,192,42651,12,0,44022,0:0:0:0:
308,16,44708,69,8,0:0:0:0:
112,104,45394,5,0,0:0:0:0:
128,156,45565,1,0,0:0:0:0:
148,208,45737,1,0,0:0:0:0:
216,292,46080,2,0,P|250:242|244:160,1,120,10|2,0:0|0:0,0:0:0:0:
232,136,46594,1,2,0:0:0:0:
268,96,46765,2,0,L|464:116,1,180,0|0,0:0|0:0,0:0:0:0:
448,168,47451,2,0,P|400:208|336:208,1,120,8|0,0:0|0:0,0:0:0:0:
248,164,48137,6,0,P|200:160|176:144,2,60,0|0|0,0:0|0:0|0:0,0:0:0:0:
276,208,48651,2,0,P|272:256|256:280,2,60,0|10|0,0:0|0:0|0:0,0:0:0:0:
304,160,49165,2,0,L|376:168,1,60,2|2,0:0|0:0,0:0:0:0:
412,188,49508,2,0,P|424:228|384:308,2,120,0|0|10,0:0|0:0|0:0,0:0:0:0:
328,120,50537,1,0,0:0:0:0:
220,124,50880,6,0,P|152:116|92:164,1,120,0|0,0:0|0:0,0:0:0:0:
72,180,51394,1,0,0:0:0:0:
72,232,51565,1,10,0:0:0:0:
96,280,51737,2,0,P|144:308|212:292,1,120,0|2,0:0|0:0,0:0:0:0:
252,272,52251,2,0,B|336:248|336:292|440:260,2,180,0|0|0,0:0|0:0|0:0,0:0:0:0:
164,212,53622,70,0,P|216:172|288:172,1,120,0|0,0:0|0:0,0:0:0:0:
324,172,54137,1,0,0:0:0:0:
356,128,54308,2,0,P|368:76|344:12,1,120,10|0,0:0|0:0,0:0:0:0:
292,12,54822,1,2,0:0:0:0:
240,20,54994,2,0,L|116:28,1,120,0|0,0:0|0:0,0:0:0:0:
120,136,55680,2,0,L|-4:144,1,120,0|0,0:0|0:0,0:0:0:0:
12,252,56365,6,0,B|84:276|148:236|148:236|188:268|256:260,1,240,0|10,0:0|0:0,0:0:0:0:
312,176,57394,2,0,P|348:176|388:192,1,60,0|2,0:0|0:0,0:0:0:0:
408,224,57737,2,0,L|392:360,1,120,0|0,0:0|0:0,0:0:0:0:
344,368,58251,2,0,P|288:372|220:348,1,120,2|0,0:0|0:0,0:0:0:0:
188,316,58765,1,0,0:0:0:0:
200,208,59108,6,0,P|168:208|136:220,2,60,0|0|0,0:0|0:0|0:0,0:0:0:0:
240,172,59622,2,0,P|225:143|200:120,2,60,0|10|0,0:0|0:0|0:0,0:0:0:0:
280,208,60137,2,0,L|348:200,1,60,2|2,0:0|0:0,0:0:0:0:
256,192,60480,12,0,64594,0:0:0:0:
112,48,65965,70,4,P|116:96|80:168,1,120,4|8,0:0|0:0,0:0:0:0:
176,220,66651,2,0,P|173:279|200:332,1,120,0|2,0:0|0:0,0:0:0:0:
248,360,67165,1,2,0:0:0:0:
304,360,67337,2,0,L|428:344,1,120,0|8,0:0|0:0,0:0:0:0:
468,316,67851,2,0,P|492:272|488:204,1,120,0|8,0:0|0:0,0:0:0:0:
448,164,68365,1,2,0:0:0:0:
412,124,68537,1,10,0:0:0:0:
420,72,68708,70,0,P|388:28|312:16,1,120,0|8,0:0|0:0,0:0:0:0:
300,60,69222,1,0,0:0:0:0:
300,60,69394,2,0,L|292:119,1,60,0|8,0:0|0:0,0:0:0:0:
304,172,69737,2,0,P|272:204|240:216,1,60,2|2,0:0|0:0,0:0:0:0:
208,220,70080,2,0,L|136:208,2,60,0|0|8,0:0|0:0|0:0,0:0:0:0:
248,256,70594,2,0,P|256:296|252:340,2,60,0|0|8,0:0|0:0|0:0,0:0:0:0:
260,204,71108,2,0,P|280:164|304:144,1,60,2|10,0:0|0:0,0:0:0:0:
344,144,71451,6,0,L|528:176,2,180,0|0|2,0:0|0:0|0:0,0:0:0:0:
288,52,72822,2,0,P|244:102|247:178,1,120,0|8,0:0|0:0,0:0:0:0:
244,208,73337,2,0,P|196:224|104:204,1,120,2|10,0:0|0:0,0:0:0:0:
104,168,73851,2,0,P|68:168|36:180,1,60,0|8,0:0|0:0,0:0:0:0:
8,216,74194,6,0,P|-12:264|16:336,1,120,0|8,0:0|0:0,0:0:0:0:
52,360,74708,2,0,P|112:372|160:340,1,120,0|0,0:0|0:0,0:0:0:0:
180,292,75222,2,0,P|160:264|160:224,1,60,2|0,0:0|0:0,0:0:0:0:
184,192,75565,2,0,L|256:200,1,60,0|0,0:0|0:0,0:0:0:0:
296,204,75908,1,8,0:0:0:0:
344,176,76080,2,0,P|360:140|352:100,1,60,0|0,0:0|0:0,0:0:0:0:
348,68,76422,1,8,0:0:0:0:
296,52,76594,2,0,L|224:60,1,60,2|10,0:0|0:0,0:0:0:0:
184,64,76937,6,0,B|120:52|120:52|72:80,1,120,4|8,0:0|0:0,0:0:0:0:
76,132,77451,2,0,B|140:144|140:144|188:116,1,120,0|8,0:0|0:0,0:0:0:0:
236,92,77965,1,2,0:0:0:0:
276,128,78137,1,0,0:0:0:0:
288,180,78308,2,0,P|300:240|268:304,1,120,2|8,0:0|0:0,0:0:0:0:
236,328,78822,1,0,0:0:0:0:
184,340,78994,1,0,0:0:0:0:
132,332,79165,1,8,2:0:0:0:
88,300,79337,2,0,P|52:308|24:324,1,60,2|10,2:0|0:0,0:0:0:0:
0,364,79680,69,0,2:0:0:0:
24,204,80194,1,0,0:0:0:0:
184,204,80708,1,2,0:0:0:0:
240,208,80880,1,2,0:0:0:0:
292,192,81051,2,0,P|332:172|364:172,2,60,0|0|8,0:0|0:0|0:0,0:0:0:0:
276,244,81565,2,0,P|278:288|264:317,2,60,0|0|8,0:0|0:0|0:0,0:0:0:0:
240,208,82080,2,0,L|172:196,1,60,2|10,0:0|0:0,0:0:0:0:
128,208,82422,6,0,P|64:200|24:116,1,120,0|8,0:0|0:0,0:0:0:0:
28,104,82937,2,0,P|62:49|155:48,1,120,0|8,0:0|0:0,0:0:0:0:
168,44,83451,1,2,0:0:0:0:
272,76,83794,2,0,L|344:68,1,60,0|0,0:0|0:0,0:0:0:0:
384,60,84137,1,8,0:0:0:0:
432,84,84308,2,0,P|452:120|452:156,1,60,0|0,0:0|0:0,0:0:0:0:
420,180,84651,1,8,0:0:0:0:
396,228,84822,2,0,L|412:296,1,60,2|8,0:0|0:0,0:0:0:0:
436,336,85165,6,0,B|316:360|316:360|256:348,2,180,0|0|2,0:0|0:0|0:0,0:0:0:0:
460,288,86365,1,2,0:0:0:0:
468,236,86537,54,0,P|464:200|448:160,1,60,0|0,0:0|0:0,0:0:0:0:
236,24,87565,2,0,L|216:100,1,60,0|0,0:0|0:0,0:0:0:0:
212,136,87908,70,0,L|232:264,1,120,4|8,0:0|0:0,0:0:0:0:
216,308,88422,2,0,B|136:324|136:324|88:304,1,120,0|8,0:0|0:0,0:0:0:0:
52,280,88937,1,2,0:0:0:0:
28,232,89108,1,2,0:0:0:0:
36,180,89280,2,0,P|28:144|0:116,2,60,0|0|8,0:0|0:0|0:0,0:0:0:0:
88,200,89794,2,0,P|124:193|153:166,2,60,0|0|8,0:0|0:0|0:0,0:0:0:0:
28,232,90308,2,0,L|16:300,1,60,2|10,0:0|0:0,0:0:0:0:
12,344,90651,70,0,P|68:360|136:328,1,120,0|8,0:0|0:0,0:0:0:0:
176,344,91165,2,0,P|232:328|288:348,1,120,0|8,0:0|0:0,0:0:0:0:
340,372,91680,1,2,0:0:0:0:
392,360,91851,1,2,0:0:0:0:
436,328,92022,2,0,P|464:328|500:320,2,60,0|0|8,0:0|0:0|0:0,0:0:0:0:
404,284,92537,2,0,P|374:277|344:277,2,60,0|0|8,0:0|0:0|0:0,0:0:0:0:
436,240,93051,2,0,P|440:220|436:180,1,60,2|10,0:0|0:0,0:0:0:0:
408,136,93394,6,0,P|352:108|288:116,1,120,0|8,0:0|0:0,0:0:0:0:
256,152,93908,2,0,P|204:180|144:178,1,120,0|8,0:0|0:0,0:0:0:0:
96,156,94422,1,2,0:0:0:0:
140,256,94765,2,0,L|156:320,2,60,0|0|8,0:0|0:0|0:0,0:0:0:0:
184,224,95280,2,0,L|168:160,2,60,0|0|8,0:0|0:0|0:0,0:0:0:0:
232,248,95794,2,0,P|284:264|312:252,1,60,2|10,0:0|0:0,0:0:0:0:
340,260,96137,6,0,L|472:244,1,120,0|8,0:0|0:0,0:0:0:0:
492,200,96651,2,0,P|500:129|470:82,1,120,0|8,0:0|0:0,0:0:0:0:
440,52,97165,1,2,0:0:0:0:
336,28,97508,2,0,L|272:40,1,60,0|0,0:0|0:0,0:0:0:0:
224,56,97851,1,8,0:0:0:0:
172,72,98022,2,0,L|104:84,1,60,0|0,0:0|0:0,0:0:0:0:
60,76,98365,1,8,0:0:0:0:
40,128,98537,2,0,L|28:208,1,60,2|10,0:0|0:0,0:0:0:0:
64,232,98880,6,0,B|76:312|76:312|60:368,1,120,4|8,0:0|0:0,0:0:0:0:
120,356,99394,2,0,P|172:360|244:336,1,120,0|8,0:0|0:0,0:0:0:0:
280,308,99908,2,0,P|316:308|348:320,1,60,2|2,0:0|0:0,0:0:0:0:
392,332,100251,2,0,P|428:328|452:320,2,60,0|0|8,0:0|0:0|0:0,0:0:0:0:
384,280,100765,2,0,P|406:251|417:228,2,60,0|0|8,0:0|0:0|0:0,0:0:0:0:
340,248,101280,2,0,P|336:208|316:180,1,60,2|10,0:0|0:0,0:0:0:0:
284,160,101622,70,0,L|160:144,1,120,0|8,0:0|0:0,0:0:0:0:
112,144,102137,2,0,P|48:164|8:232,1,120,0|8,0:0|0:0,0:0:0:0:
12,256,102651,1,2,0:0:0:0:
40,304,102822,1,2,0:0:0:0:
84,336,102994,2,0,P|116:328|152:332,1,60,0|0,0:0|0:0,0:0:0:0:
196,340,103337,1,8,0:0:0:0:
244,360,103508,2,0,P|276:368|312:364,1,60,0|0,0:0|0:0,0:0:0:0:
348,340,103851,2,0,L|420:352,2,60,8|2|10,0:0|0:0|0:0,0:0:0:0:
324,292,104365,6,0,P|308:228|336:156,1,120,0|8,0:0|0:0,0:0:0:0:
364,144,104880,2,0,P|380:80|352:8,1,120,0|8,0:0|0:0,0:0:0:0:
316,4,105394,1,2,0:0:0:0:
232,72,105737,2,0,L|168:64,1,60,0|0,0:0|0:0,0:0:0:0:
120,56,106080,1,8,0:0:0:0:
68,68,106251,2,0,P|48:108|48:136,1,60,0|0,0:0|0:0,0:0:0:0:
52,176,106594,2,0,L|64:248,2,60,8|2|10,0:0|0:0|0:0,0:0:0:0:
100,152,107108,6,0,P|160:160|224:148,1,120,0|8,0:0|0:0,0:0:0:0:
256,188,107622,2,0,P|316:180|380:192,1,120,0|8,0:0|0:0,0:0:0:0:
412,228,108137,2,0,P|456:232|488:224,1,60,2|2,0:0|0:0,0:0:0:0:
256,192,108480,12,4,109851,0:0:0:0:
