osu file format v4

[General]
AudioFilename: Gary Cao - Ni Shi Wo De Bao Bei.mp3
AudioLeadIn: 0
AudioHash: 30d96f47a7da951754a9c01fd7a7ac63
PreviewTime: -1
SampleSet: Soft
EditorBookmarks: 12983,27983,103013

[Metadata]
Title:Ni Shi Wo De Bao Bei
Artist:Gary Cao
Creator:chan
Version:Hard

[Difficulty]
HPDrainRate:5
CircleSize:5
OverallDifficulty:5
SliderMultiplier: 1.4
SliderTickRate: 2

[Events]
2,164149,176813
3,0,163,162,255

[TimingPoints]
22358,468.75,4,2,1

[HitObjects]
160,112,12983,5,0,
208,96,13217,1,0,
256,80,13451,1,0,
304,64,13686,1,0,
352,48,13920,1,2,
352,224,14858,5,0,
304,208,15092,1,0,
256,192,15326,1,0,
208,176,15561,1,0,
160,160,15795,1,2,
160,336,16733,5,0,
208,320,16967,1,0,
256,304,17201,1,0,
304,288,17436,1,0,
352,272,17670,1,2,
256,272,18608,5,0,
256,192,19076,1,0,
256,112,19545,1,2,
352,112,20483,5,0,
304,96,20717,1,0,
256,80,20951,1,0,
208,64,21186,1,0,
160,48,21420,1,2,
160,224,22358,5,0,
208,208,22592,1,0,
256,192,22826,1,0,
304,176,23061,1,0,
352,160,23295,1,2,
352,336,24233,5,0,
304,320,24467,1,0,
256,304,24701,1,0,
208,288,24936,1,0,
160,272,25170,1,2,
256,272,26108,5,0,
256,192,26576,1,0,
256,112,27045,1,2,
112,80,27983,6,0,B|112:80|256:80,1,140
240,144,28920,1,2,
288,144,29154,1,0,
288,144,29272,1,0,
336,112,29506,1,0,
384,128,29858,2,0,B|384:128|445:200|336:240,1,140
288,224,30795,5,2,
240,224,31029,1,0,
240,224,31147,1,0,
208,192,31381,1,0,
144,192,31733,2,0,B|144:192|21:223|29:335|100:362|320:352,1,280
112,112,33373,5,0,
112,112,33490,1,0,
112,112,33608,1,0,
144,128,33842,1,0,
176,128,34076,1,0,
208,144,34311,1,0,
240,144,34545,2,0,B|240:144|304:144|352:128|384:80,1,140
400,80,35483,6,0,B|400:80|256:80,1,140
272,144,36420,1,2,
224,144,36654,1,0,
224,144,36772,1,0,
176,112,37006,1,0,
128,128,37358,2,0,B|128:128|67:200|176:240,1,140
192,256,38061,5,0,
224,224,38295,1,2,
272,224,38529,1,0,
272,224,38647,1,0,
304,192,38881,1,0,
368,192,39233,2,0,B|368:192|491:223|483:335|412:362|192:352,1,280
400,112,40873,5,0,
400,112,40990,1,0,
400,112,41108,1,0,
368,128,41342,1,0,
336,128,41576,1,0,
304,144,41811,1,0,
256,160,42045,1,0,
240,144,42162,1,0,
224,128,42279,1,0,
64,112,42983,6,0,B|64:112|224:112,1,140
208,48,43920,1,2,
256,128,44154,1,0,
256,128,44272,1,0,
320,128,44623,1,0,
352,192,44858,2,0,B|352:192|128:192,1,210
80,192,45795,1,2,
16,192,46029,1,0,
16,192,46147,1,0,
48,128,46381,1,0,
112,160,46733,2,0,B|112:160|400:160,1,280
400,192,48373,5,0,
384,176,48490,1,0,
368,160,48608,1,0,
320,176,48842,1,0,
272,176,49076,1,0,
224,208,49311,1,0,
176,208,49545,1,0,
160,192,49662,1,0,
144,176,49779,1,0,
48,80,50483,6,0,B|48:80|192:80,1,140
272,128,51420,1,2,
336,128,51654,1,0,
336,128,51772,1,0,
384,96,52006,1,0,
432,176,52358,2,0,B|432:176|208:176,1,210
192,176,53295,1,2,
160,176,53529,1,0,
160,176,53647,1,0,
128,144,53881,2,0,B|128:144|208:64|272:208,1,175
256,192,56108,12,4,57514
144,240,57983,5,0,
144,192,58217,1,0,
144,144,58451,1,0,
144,96,58686,1,0,
144,48,58920,1,2,
240,272,59858,5,0,
240,224,60092,1,0,
240,176,60326,1,0,
240,128,60561,1,0,
240,80,60795,1,2,
352,304,61733,5,0,
352,256,61967,1,0,
352,208,62201,1,0,
352,160,62436,1,0,
352,112,62670,1,2,
128,208,63373,5,0,
192,208,63608,1,0,
256,144,64076,1,0,
352,176,64545,1,2,
160,240,65483,5,0,
144,192,65717,1,0,
160,144,65951,1,0,
144,96,66186,1,0,
160,48,66420,1,2,
352,240,67358,5,0,
368,192,67592,1,0,
352,144,67826,1,0,
368,96,68061,1,0,
352,48,68295,1,2,
256,320,69233,5,0,
240,272,69467,1,0,
256,224,69701,1,0,
240,176,69936,1,0,
256,128,70170,1,2,
320,128,70639,1,0,
352,128,70873,1,0,
384,96,71108,2,0,B|384:96|472:162|352:240,2,140
96,160,73217,5,0,
96,160,73334,1,0,
96,160,73451,1,0,
128,160,73686,1,0,
160,160,73920,1,2,
192,176,74154,1,0,
224,176,74389,1,0,
256,128,74623,2,0,B|256:128|400:128,1,140
432,128,75326,1,0,
464,128,75561,1,0,
496,128,75795,1,2,
464,64,76029,2,0,B|464:64|426:78|384:64,2,70
336,64,76967,6,0,B|336:64|256:64,3,70
240,80,77904,2,0,B|240:80|240:112,2,70
208,64,78608,1,0,
192,208,79076,5,0,
240,208,79311,1,0,
272,192,79545,1,2,
304,176,79779,1,0,
336,160,80014,1,0,
368,160,80248,1,4,
256,208,80717,5,0,
208,208,80951,2,0,B|208:208|80:208,1,105
103,208,81420,1,2,
64,224,81654,1,0,
32,240,81889,1,0,
16,160,82123,2,0,B|16:160|176:160,1,140
192,160,82826,1,0,
224,160,83061,1,0,
224,160,83178,1,0,
224,160,83295,1,2,
256,96,83529,1,0,
288,128,83764,1,0,
320,160,83998,2,0,B|320:160|464:160,1,140
432,208,84701,1,0,
400,208,84936,1,0,
368,208,85170,1,2,
336,240,85404,1,0,
304,272,85639,1,0,
64,224,86342,5,0,
96,224,86576,1,0,
128,256,86811,1,0,
160,224,87045,1,2,
192,192,87279,1,0,
224,160,87514,1,0,
256,192,87748,2,0,C|256:192|288:172|297:143|289:122|274:109|246:102|214:109|188:131|174:165|175:193|184:215|199:234|224:247|280:246,1,350
416,272,89389,5,0,
384,304,89623,2,0,C|384:304|175:312|80:208,1,350
48,80,91264,2,0,C|48:80|101:47|189:44|228:36|275:60|311:44|448:32,1,420
144,224,93608,5,0,
192,160,94076,1,0,
240,96,94545,1,2,
48,320,95483,6,0,L|48:320|112:299|79:236|140:201|96:128,1,280
192,144,97358,5,0,
304,192,98295,1,2,
400,272,99233,6,0,L|400:272|342:232|405:203|342:171|416:128,1,280
304,208,101108,1,0,
240,160,101576,1,0,
176,112,102045,1,2,
32,192,102983,6,0,B|32:192|176:192,1,140
224,112,103920,1,2,
288,144,104154,1,0,
288,144,104272,1,0,
336,144,104506,1,0,
384,144,104858,2,0,B|384:144|445:216|336:256,1,140
304,256,105561,5,0,
256,256,105795,1,2,
208,256,106029,1,0,
208,256,106147,1,0,
176,224,106381,1,0,
112,240,106733,2,0,B|112:240|52:362|352:352,1,280
448,192,108373,5,0,
448,192,108490,1,0,
448,192,108608,1,0,
416,208,108842,1,0,
384,208,109076,1,0,
352,224,109311,1,0,
320,208,109545,1,2,
320,208,109662,1,0,
320,208,109779,1,0,
400,80,110483,6,0,B|400:80|256:80,1,140
176,80,111420,1,2,
176,80,111537,1,0,
128,80,111772,1,0,
80,80,112006,1,0,
48,128,112358,2,0,B|48:128|-13:200|96:240,1,140
128,240,113061,5,0,
160,208,113295,1,2,
208,208,113529,1,0,
208,208,113647,1,0,
272,192,113998,2,0,B|272:192|395:223|387:335|316:362|148:354,1,350
256,192,116108,12,4,117514
112,192,117983,2,0,L|112:192|112:121|181:121|181:191|269:191,1,280
256,120,119858,2,0,L|256:120|326:120|326:190|395:190|395:119,1,280
400,256,121733,2,0,L|400:256|400:327|331:327|331:257|243:257,1,280
336,224,123373,5,0,
288,224,123608,1,0,
224,176,124076,2,0,B|224:176|80:240,1,140
160,240,125483,5,0,
192,208,125717,1,0,
160,176,125951,1,0,
128,144,126186,1,0,
160,112,126420,1,2,
272,272,127358,5,0,
240,240,127592,1,0,
272,208,127826,1,0,
304,176,128061,1,0,
272,144,128295,1,2,
448,256,129233,5,0,
416,224,129467,1,0,
448,192,129701,1,0,
416,160,129936,1,0,
448,128,130170,2,0,B|448:128|336:128,1,140
288,128,130873,1,0,
272,80,131108,2,0,B|272:80|96:112,1,140
16,128,132045,1,0,
96,160,133217,5,0,
96,160,133334,1,0,
96,160,133451,1,0,
128,160,133686,1,0,
160,160,133920,1,2,
192,176,134154,1,0,
224,176,134389,1,0,
256,128,134623,2,0,B|256:128|400:128,1,140
432,128,135326,1,0,
464,128,135561,1,0,
496,128,135795,1,2,
464,64,136029,2,0,B|464:64|426:78|384:64,2,70
336,64,136967,6,0,B|336:64|256:64,3,70
240,80,137904,2,0,B|240:80|240:112,2,70
208,64,138608,1,0,
192,208,139076,5,0,
240,208,139311,1,0,
272,192,139545,1,2,
304,176,139779,1,0,
336,160,140014,1,0,
368,160,140248,1,4,
256,208,140717,5,0,
208,208,140951,2,0,B|208:208|80:208,1,105
103,208,141420,1,2,
64,224,141654,1,0,
32,240,141889,1,0,
16,160,142123,2,0,B|16:160|176:160,1,140
192,160,142826,1,0,
224,160,143061,1,0,
224,160,143178,1,0,
224,160,143295,1,2,
256,96,143529,1,0,
288,128,143764,1,0,
320,160,143998,2,0,B|320:160|464:160,1,140
432,208,144701,1,0,
400,208,144936,1,0,
368,208,145170,1,2,
336,240,145404,1,0,
304,272,145639,1,0,
64,224,146342,5,0,
96,224,146576,1,0,
128,256,146811,1,0,
160,224,147045,1,2,
192,192,147279,1,0,
224,160,147514,1,0,
256,192,147748,1,0,
480,160,148217,5,0,
480,160,148334,1,0,
480,160,148451,1,0,
448,160,148686,1,0,
416,160,148920,1,2,
384,176,149154,1,0,
352,176,149389,1,0,
336,128,149623,2,0,B|336:128|256:100|192:128,1,140
160,128,150326,1,0,
128,128,150561,1,0,
96,128,150795,1,2,
80,160,151029,2,0,B|80:160|42:174|0:160,2,70
48,64,151967,6,0,B|48:64|128:64,3,70
144,80,152904,2,0,B|144:80|144:112,2,70
176,64,153608,1,0,
176,192,154076,5,0,
224,192,154311,1,0,
272,160,154545,2,0,B|272:160|368:80,1,140
404,71,155248,1,4,
256,208,155717,5,0,
304,208,155951,2,0,B|304:208|432:208,1,105
409,208,156420,1,2,
448,224,156654,1,0,
480,240,156889,1,0,
496,160,157123,2,0,B|496:160|336:160,1,140
320,160,157826,5,0,
288,160,158061,1,0,
288,160,158178,1,0,
288,160,158295,1,2,
256,96,158529,1,0,
224,128,158764,1,0,
192,160,158998,2,0,B|192:160|48:160,1,140
80,208,159701,1,0,
112,208,159936,1,0,
144,208,160170,1,2,
176,240,160404,1,0,
208,272,160639,1,0,
448,224,161342,5,0,
416,224,161576,1,0,
384,256,161811,1,0,
352,224,162045,1,2,
320,192,162279,1,0,
288,160,162514,1,0,
256,192,162748,2,0,B|256:192|234:58|43:49|0:208,1,350
256,192,177983,12,2,181264
400,80,181967,1,0,
352,80,182201,1,0,
304,80,182436,1,0,
256,80,182670,1,2,
208,96,182904,1,0,
160,112,183139,1,0,
112,96,183373,1,0,
64,80,183608,1,0,
48,224,184076,5,0,
96,224,184311,1,0,
144,192,184545,2,0,B|144:192|224:192|288:128,1,140
320,144,185248,1,4,
432,64,185717,5,0,
384,64,185951,2,0,B|384:64|256:64,1,105
279,64,186420,1,2,
240,96,186654,1,0,
208,128,186889,1,0,
192,80,187123,2,0,B|192:80|128:16|50:71|48:192,1,210
96,160,188061,1,0,
96,160,188178,1,0,
96,160,188295,1,2,
96,112,188529,2,0,B|96:112|240:144,1,140
176,64,189467,5,0,
224,64,189701,1,0,
272,64,189936,1,0,
320,64,190170,1,2,
368,80,190404,1,0,
416,96,190639,1,0,
208,64,191342,5,0,
256,64,191576,1,0,
304,64,191811,1,0,
352,64,192045,1,2,
400,80,192279,1,0,
448,96,192514,1,0,
0,112,193217,5,0,
0,112,193334,1,0,
0,112,193451,1,0,
48,112,193686,1,0,
96,128,193920,1,2,
128,144,194154,1,0,
176,160,194389,1,0,
160,112,194623,2,0,B|160:112|528:112,1,350
480,80,196029,1,0,
448,112,196264,1,0,
416,80,196498,2,0,B|416:80|272:80,1,140
240,80,197201,1,0,
192,80,197436,1,0,
144,80,197670,1,2,
112,112,197904,1,0,
80,144,198139,1,0,
48,112,198373,1,0,
16,80,198608,1,0,
64,192,199076,5,0,
64,192,199311,1,0,
112,192,199545,2,0,B|112:192|192:192|240:112,1,140
229,127,200248,1,4,
16,80,200717,5,0,
64,80,200951,2,0,B|64:80|176:80,1,105
169,80,201420,1,2,
208,112,201654,1,0,
248,144,201889,1,0,
256,96,202123,2,0,B|256:96|304:32|384:112,1,140
416,96,202826,1,0,
480,96,203061,1,0,
480,96,203178,1,0,
480,96,203295,1,2,
464,32,203529,2,0,B|464:32|368:144,1,140
336,96,204467,5,0,
288,96,204701,1,0,
240,96,204936,1,0,
192,96,205170,1,2,
144,112,205404,1,0,
96,128,205639,1,0,
160,240,206342,5,0,
192,208,206576,1,0,
224,240,206811,1,0,
256,208,207045,1,2,
288,176,207279,1,0,
320,144,207514,2,0,B|320:144|451:-16|512:240,1,280
