osu file format v9

[General]
AudioFilename: I Can Give You Gatsby().mp3
AudioLeadIn: 3000
PreviewTime: 16602
Countdown: 0
SampleSet: Soft
StackLeniency: 0.2
Mode: 0
LetterboxInBreaks: 1

[Editor]
DistanceSpacing: 1
BeatDivisor: 4
GridSize: 8

[Metadata]
Title:I Can Give You Gatsby
Artist:Gary Adkins
Creator:jameskong1
Version:Normal
Source:Gatsby
Tags:The Stylistics - I Can't Give You Anything But My Love

[Difficulty]
HPDrainRate:6
CircleSize:4
OverallDifficulty:6
ApproachRate:6
SliderMultiplier:1.6
SliderTickRate:2

[Events]
//Background and Video events
0,0,"20080503_4ecee1392a328e35fd0e8vmH4bH4B1yR.jpg"
//Break Periods
//Storyboard Layer 0 (Background)
//Storyboard Layer 1 (Fail)
//Storyboard Layer 2 (Pass)
//Storyboard Layer 3 (Foreground)
//Storyboard Sound Samples
//Background Colour Transformations
3,100,163,162,255

[TimingPoints]
44,517.241379310345,4,2,1,60,1,0
16595,-100,4,2,1,71,0,1
16854,-100,4,2,1,71,0,0
31078,-100,4,2,1,71,0,0
31207,-100,4,2,1,71,0,0
33147,-100,4,2,1,71,0,1
33276,-100,4,2,1,71,0,0
49699,-100,4,2,1,71,0,1
60949,-100,4,2,1,71,0,0
61078,-100,4,2,1,71,0,1
64052,-100,4,2,1,71,0,0
64181,-100,4,2,1,71,0,1
66250,-100,4,2,1,71,0,0
79699,-100,4,2,1,71,0,0
80216,-100,4,2,1,71,0,0
80733,-100,4,2,1,34,0,0
81250,-100,4,2,1,24,0,0
81768,-100,4,2,1,14,0,0
82285,-100,4,2,1,5,0,0

[HitObjects]
64,72,44,1,0
64,72,302,2,0,B|64:24,2,40
136,112,819,2,0,B|136:64,2,40
208,152,1337,2,0,B|208:104,2,40
280,192,1854,2,0,B|280:144,4,40
280,112,2630,6,0,B|440:112,2,160,2|0|2
200,248,4181,2,0,B|152:296|0:296|-16:184|-8:72|56:64|160:48|208:88,2,480
336,160,7802,2,0,B|376:240|336:328,1,160
272,280,8578,2,0,B|216:280,2,40
256,200,9095,2,0,B|216:200,2,40
240,120,9612,2,0,B|192:120,6,40
320,120,10647,5,0
400,144,11164,1,0
376,224,11423,5,0
136,224,11940,1,0
256,120,12457,2,0,B|192:200|344:256|232:368,2,240
256,32,14526,5,2
256,192,15044,1,0
112,272,15561,2,0,B|80:304|112:344,2,80,2|0|0
176,224,16337,1,0
248,264,16595,5,6
320,224,16854,2,0,B|360:200,2,40
248,176,17371,2,0,B|248:120,2,40
176,224,17888,1,0
104,184,18147,1,0
152,120,18406,1,0
72,104,18664,2,0,B|56:56|112:40,1,80
184,40,19181,5,0
312,136,19699,1,0
304,296,20216,1,0
240,248,20475,1,0
176,200,20733,1,0
176,120,20992,1,0
184,40,21250,1,0
184,40,21509,2,0,B|104:40,2,80
136,112,22285,6,0,B|64:184,1,80
152,208,22802,2,0,B|152:296,1,80
232,264,23319,2,0,B|312:328,1,80
344,256,23837,5,0
232,128,24354,1,0
232,128,24612,1,0
160,160,24871,5,4
96,208,25130,2,0,B|48:240,2,40
88,128,25647,2,0,B|48:120,2,40
152,80,26164,1,0
240,80,26423,2,0,B|264:40,4,40
248,160,27199,1,0
272,240,27457,1,0
344,200,27716,1,0
416,240,27975,5,0
424,80,28492,1,0
424,80,28750,1,0
344,88,29009,5,4
200,160,29526,1,0
64,248,30044,1,0
200,160,30561,1,0
184,320,31078,6,0,B|272:280,1,80
312,344,31595,2,0,B|400:296,1,80
320,240,32112,2,0,B|392:200,2,80
248,280,32888,1,0
192,224,33147,6,0,B|136:184|176:112|248:152,1,160,6|0
280,224,33923,1,0
360,216,34181,2,0,B|416:256|376:328|304:288,1,160,0|0
280,224,34957,2,0,B|256:144,2,80
352,256,35733,2,0,B|400:208|400:56|288:40|176:48|168:112|152:216|192:264,2,480
288,328,39354,6,0,B|288:144,3,160
208,176,41164,2,0,B|232:88,1,80
304,64,41681,2,0,B|352:56,2,40
328,144,42199,2,0,B|288:168,2,40
384,200,42716,2,0,B|400:248,2,40
408,120,43233,1,0
480,72,43492,6,0,B|496:160,3,80
448,216,44526,5,0
288,192,45044,2,0,B|208:192,1,80
184,112,45561,2,0,B|104:112|104:112|80:176|128:184,2,160
256,80,46854,1,0
328,112,47112,2,0,B|408:112|408:112|432:176|384:184,2,160
256,152,48406,1,0
224,224,48664,6,0,B|128:224,1,80
72,184,49181,2,0,B|32:120|64:80,1,80
128,120,49699,6,0,B|224:120,1,80
232,32,50216,2,0,B|328:64|360:152,2,160
160,56,51509,2,0,B|80:128,2,80
232,80,52285,5,0
320,216,52802,1,0
160,216,53319,1,0
40,328,53837,5,0
136,104,54612,2,0,B|232:104,7,80
104,216,56940,5,0
232,120,57457,1,0
232,200,57716,1,0
288,256,57975,6,0,B|360:320,1,80
376,232,58492,2,0,B|464:232,1,80
416,160,59009,2,0,B|488:120,1,80
448,48,59526,2,0,B|504:48,2,40
368,48,60044,6,0,B|288:104|184:72,1,160
168,144,61078,1,0
168,144,61595,1,0
168,144,61854,1,0
248,144,62112,6,0,B|344:104|424:160,1,160
434,250,63147,2,0,B|376:208|280:248,1,160
136,184,64181,6,0,B|136:96,3,80
216,80,65216,2,0,B|216:168,3,80
216,240,66250,5,0
376,240,66768,2,0,B|296:240,1,80
136,240,67544,1,0
216,240,67802,1,0
136,240,68061,1,0
56,240,68319,1,0
128,96,68837,6,0,B|296:96,1,160
384,288,69871,2,0,B|216:288,2,160
384,288,71164,1,0
464,288,71423,1,0
352,224,71940,6,0,B|352:64,1,160
352,64,72975,1,0
160,160,73492,2,0,B|160:320,1,160,0|0
160,320,74268,1,0
240,320,74526,6,0,B|288:256|248:160,1,160
168,168,75302,1,0
168,168,75561,2,0,B|352:168,1,160
408,168,76337,2,0,B|456:168,2,40
280,72,77112,1,0
256,232,77630,5,0
256,72,78147,1,0
256,72,78406,1,0
184,112,78664,6,0,B|224:192|168:288,1,160
256,296,79440,1,0
332,266,79699,2,0,B|288:192|328:112,1,160
256,256,80733,6,0,B|256:168,3,80
256,96,81768,2,0,B|256:16,3,80
