osu file format v5

[General]
AudioFilename: Mysterious Eyes (TV Size).mp3
AudioLeadIn: 0
PreviewTime: -1
Countdown: 1
SampleSet: Soft
StackLeniency: 0.7
Mode: 0
LetterboxInBreaks: 1
SkinPreference:Default

[Metadata]
Title:Mysterious Eyes
Artist:Garnet Crow
Creator:jmaeshawn
Version:Normal
Source:Detective Conan
Tags:

[Difficulty]
HPDrainRate:3
CircleSize:3
OverallDifficulty:4
SliderMultiplier:1.4
SliderTickRate:1

[Events]
//Background and Video events
1,0,"conanop07.avi"
//Break Periods
2,70066,73177
//Storyboard Layer 0 (Background)
//Storyboard Layer 1 (Failing)
//Storyboard Layer 2 (Passing)
//Storyboard Layer 3 (Foreground)
//Storyboard Sound Samples
//Background Colour Transformations
3,100,163,162,255

[TimingPoints]
17315,451.127819548872,4,2,0,100
84307,1428.57142857143,4,2,0,100
88593,451.127819548872,4,2,0,100
89721,952.380952380952,4,2,0,100
92202,451.127819548872,4,2,0,100

[Colours]
Combo1 : 0,0,128
Combo2 : 0,128,255
Combo3 : 0,145,72
Combo4 : 220,204,14

[HitObjects]
80,88,17089,1,0
144,88,17315,1,0
144,152,17540,1,0
208,152,17766,1,0
272,152,17991,1,0
336,152,18217,1,0
400,152,18442,1,0
400,280,18893,5,0
336,280,19119,1,0
272,280,19345,1,0
208,280,19570,2,0,L|208:128,1,140
248,96,20247,1,0
376,96,20698,2,0,L|448:96,2,70
256,192,24307,5,0
256,256,24533,1,0
256,320,24758,1,0
320,320,24984,1,0
384,320,25209,2,0,B|421:355|464:304,2,70
256,64,26111,5,0
192,64,26337,1,0
192,64,26563,1,0
128,64,26788,2,0,L|128:176,2,105
64,168,27916,1,0
64,232,28142,1,0
104,280,28367,1,0
232,280,28818,1,0
296,280,29044,5,0
360,280,29269,2,0,B|405:284|416:240,2,70
360,216,29946,2,0,B|362:74,1,140
120,32,31525,5,0
120,96,31751,1,0
120,160,31976,1,0
120,224,32202,1,0
120,288,32427,1,0
120,352,32653,1,0
184,352,32878,1,0
312,352,33330,6,0,L|232:352,2,70
376,352,34006,6,0,B|472:352,6,70
376,288,35585,1,0
312,288,35811,2,0,B|181:268|176:152,1,210
176,152,36713,2,0,L|400:152,1,210
448,152,37615,1,0
136,208,38743,6,0,L|136:288,1,70
200,280,39194,2,0,B|231:309|280:272,3,70
328,280,40096,1,0
456,272,40548,5,0
456,208,40773,1,0
456,208,40999,1,0
456,144,41224,2,0,B|460:20|349:20|288:48,1,210
192,40,42352,1,0
128,40,42578,2,0,B|4:36|4:147|32:208,1,210
56,272,43705,5,0
120,272,43931,1,0
184,272,44157,1,0
248,272,44382,1,0
312,272,44608,1,0
376,272,44833,1,0
400,80,45510,6,0,B|96:80,1,280
120,208,46863,1,0
120,272,47089,1,0
120,336,47314,1,0
248,336,47766,2,0,B|320:336,2,70
264,80,49119,5,0
192,80,49345,1,0
128,80,49570,1,0
80,128,49796,1,0
40,176,50021,1,0
40,304,50472,2,0,B|116:386|252:150|376:398|464:304,1,420
448,64,52728,5,0
400,104,52954,1,0
352,144,53179,1,0
288,144,53405,1,0
224,144,53630,2,0,B|104:136|104:232,1,140
104,264,54307,1,0
104,328,54533,1,0
232,328,54984,1,0
232,328,55209,1,0
296,328,55435,2,0,B|433:339|432:168,1,210
240,192,56788,5,4
240,64,57239,5,4
240,192,57690,5,4
240,320,58142,5,4
112,320,58593,6,4,L|56:272,1,70
64,144,59269,5,4
248,192,59946,5,0
248,192,60172,1,0
248,192,60397,1,0
248,192,60623,1,0
312,192,60848,2,0,L|488:192,1,175
480,72,61751,1,0
416,72,61976,1,0
352,72,62202,1,0
288,72,62427,1,0
224,72,62653,1,0
232,200,63104,1,0
80,312,63781,6,0,L|152:264,3,70
264,272,64908,1,0
392,272,65360,2,0,L|320:272,4,70
264,272,66713,1,0
264,16,67615,5,0
216,56,67841,1,0
168,96,68066,1,0
120,144,68292,1,0
120,208,68518,2,0,B|123:292|232:288,1,140
280,288,69194,2,0,B|415:288|408:144,1,210
424,64,74382,6,0,B|399:48|399:48|374:66|374:66|344:56,4,70
208,192,76187,2,0,L|432:192,1,210
416,256,77089,1,0
416,128,77540,1,0
224,128,78217,2,0,L|195:109|152:136,3,70
168,256,79345,1,0
296,256,79796,2,0,L|267:275|224:248,4,70
296,128,81149,1,0
56,32,82051,5,0
56,96,82277,1,0
56,160,82502,1,0
56,224,82728,1,0
56,288,82954,1,0
56,352,83179,1,0
120,352,83405,1,0
120,352,83630,1,0
256,352,84081,1,0
256,352,84485,2,2,L|256:0,1,350
376,168,88818,5,0
312,168,89043,1,0
248,168,89269,1,0
184,168,89495,1,0
184,168,89721,2,2,B|182:338|182:338|0:336,1,350
32,248,92427,1,0
72,200,92653,1,0
160,112,93104,1,0
288,112,93555,2,4,B|384:88|433:168|421:229|309:256|264:200,1,280
256,192,95359,12,2,98968
