osu file format v5

[General]
AudioFilename: Mysterious Eyes (TV Size).mp3
AudioLeadIn: 0
PreviewTime: -1
Countdown: 1
SampleSet: Soft
StackLeniency: 0.7
Mode: 0
LetterboxInBreaks: 1

[Metadata]
Title:Mysterious Eyes
Artist:Garnet Crow
Creator:jmaeshawn
Version:Hard
Source:
Tags:

[Difficulty]
HPDrainRate:5
CircleSize:5
OverallDifficulty:5
SliderMultiplier:1.4
SliderTickRate:1

[Events]
//Background and Video events
1,0,"conanop07.avi"
//Break Periods
2,70066,73177
//Storyboard Layer 0 (Background)
//Storyboard Layer 1 (Failing)
//Storyboard Layer 2 (Passing)
//Storyboard Layer 3 (Foreground)
//Storyboard Sound Samples
//Background Colour Transformations
3,100,0,0,0

[TimingPoints]
17315,451.127819548872,4,2,0,100
84307,1428.57142857143,4,2,0,100
88593,451.127819548872,4,2,0,100
89721,952.380952380952,4,2,0,100
92202,451.127819548872,4,2,0,100

[Colours]
Combo1 : 0,0,128
Combo2 : 0,128,255
Combo3 : 0,145,72
Combo4 : 220,204,14

[HitObjects]
360,232,17089,1,0
360,296,17315,1,0
296,296,17540,1,0
232,296,17766,1,0
168,296,17991,1,0
104,296,18217,1,0
104,232,18442,1,0
104,104,18893,1,0
168,104,19119,1,0
232,104,19345,1,0
296,104,19570,2,0,L|296:256,1,140
297,244,20247,1,0
424,240,20698,2,0,L|424:312,2,70
256,192,24307,5,0
192,192,24533,1,0
128,192,24758,1,0
128,192,24984,1,0
128,128,25209,1,0
128,64,25435,1,0
128,64,25660,1,0
256,64,26111,5,0
320,64,26337,1,0
320,128,26563,1,0
320,192,26788,2,0,L|208:192,2,105
448,192,27916,1,0
408,240,28142,1,0
368,288,28367,1,0
248,320,28818,1,0
184,320,29044,5,0
120,320,29269,2,0,B|75:324|64:280,3,70
64,160,30397,1,0
392,32,31525,5,0
392,96,31751,1,0
392,160,31976,1,0
392,224,32202,1,0
392,288,32427,1,0
392,352,32653,1,0
328,352,32878,1,0
200,352,33330,6,0,L|120:352,2,70
200,288,34006,5,0
200,224,34232,1,0
200,160,34457,1,0
264,160,34683,1,0
200,160,34908,1,0
264,160,35134,1,0
200,160,35360,1,0
264,160,35585,1,0
264,96,35811,2,0,L|488:96,1,210
472,96,36713,2,0,B|507:235|392:304,1,210
418,285,37615,1,0
168,208,38743,5,0
168,208,38969,1,0
208,160,39194,1,0
272,160,39420,1,0
328,192,39645,2,0,L|328:272,2,70
472,272,40548,5,0
472,208,40773,1,0
472,208,40999,1,0
472,144,41224,1,0
392,88,41563,1,0
296,88,41901,1,0
168,88,42352,1,0
168,88,42578,1,0
168,88,42803,1,0
56,144,43254,1,0
56,272,43705,5,0
120,272,43931,1,0
184,272,44157,1,0
248,272,44382,1,0
312,272,44608,1,0
376,272,44833,1,0
328,88,45510,5,0
264,88,45736,1,0
200,88,45961,1,0
152,128,46187,1,0
152,192,46412,1,0
200,312,46863,1,0
264,312,47089,1,0
328,312,47314,1,0
432,240,47766,1,0
432,176,47991,1,0
432,112,48217,1,0
256,288,49119,5,0
192,288,49345,1,0
128,288,49570,1,0
80,240,49796,1,0
40,192,50021,1,0
40,64,50472,1,0
104,64,50698,1,0
168,64,50924,1,0
232,64,51149,1,0
280,104,51375,1,0
328,144,51600,1,0
376,184,51826,1,0
120,192,52728,5,0
120,192,52954,1,0
184,192,53179,1,0
184,192,53405,1,0
248,192,53630,2,0,B|368:200|368:104,1,140
364,138,54307,1,0
427,139,54533,1,0
344,40,54984,1,0
280,40,55209,1,0
216,40,55435,2,0,B|119:36|128:128,1,140
192,120,56111,1,0
40,192,56788,5,4
168,192,57239,5,4
296,192,57690,5,4
424,192,58142,5,4
296,192,58593,6,4,L|192:192,1,70
96,192,59269,5,4
208,40,59946,5,0
272,40,60172,1,0
272,104,60397,1,0
208,104,60623,1,0
208,168,60848,2,0,L|208:344,1,175
304,344,61751,1,0
352,304,61976,1,0
416,304,62202,1,0
416,240,62427,1,0
416,176,62653,1,0
320,88,63104,1,0
128,88,63781,6,0,L|128:160,3,70
160,304,64908,1,0
288,304,65360,2,0,L|216:304,4,70
160,304,66713,1,0
408,352,67615,5,0
408,288,67841,1,0
408,224,68066,1,0
408,160,68292,1,0
408,96,68518,2,0,L|408:24|336:24,1,140
280,24,69194,1,0
240,72,69420,1,0
200,120,69645,1,0
200,184,69871,1,0
88,64,74382,6,0,B|113:48|113:48|138:66|138:66|168:56,4,70
304,192,76187,2,0,L|80:192,1,210
96,256,77089,1,0
96,128,77540,1,0
288,128,78217,2,0,L|317:109|360:136,3,70
352,256,79345,1,0
224,256,79796,2,0,L|253:275|296:248,4,70
224,128,81149,1,0
408,24,81995,5,0
408,88,82221,1,0
464,88,82446,1,0
464,152,82672,1,0
464,216,82898,1,0
464,280,83123,1,0
464,344,83349,1,0
464,344,83574,1,0
360,344,83969,1,0
256,344,84485,2,2,L|256:-8,1,350
184,224,88743,5,0
248,224,88969,1,0
312,224,89194,1,0
376,224,89420,1,0
376,288,89721,2,2,L|8:288,1,350
64,208,92427,1,0
104,160,92653,1,0
192,64,93104,1,0
320,64,93555,2,4,L|320:344,1,280
256,192,95359,12,2,98970
