osu file format v14

[General]
AudioFilename: Gareth Johnson & Chris Bussey - Ninja style.mp3
AudioLeadIn: 0
PreviewTime: 65574
Countdown: 0
SampleSet: Normal
StackLeniency: 0.7
Mode: 1
LetterboxInBreaks: 0
WidescreenStoryboard: 0

[Editor]
DistanceSpacing: 1
BeatDivisor: 4
GridSize: 32
TimelineZoom: 1

[Metadata]
Title:Ninja Style
TitleUnicode:Ninja Style
Artist:Gareth Johnson & Chris Bussey
ArtistUnicode:Gareth Johnson & Chris Bussey
Creator:guineaQ
Version:Muzukashii
Source:
Tags:electronic dubstep
BeatmapID:705724
BeatmapSetID:316740

[Difficulty]
HPDrainRate:5
CircleSize:4
OverallDifficulty:4
ApproachRate:9
SliderMultiplier:1.4
SliderTickRate:1

[Events]
//Background and Video events
0,0,"ninjastyle.jpg",0,0
//Break Periods
//Storyboard Layer 0 (Background)
//Storyboard Layer 1 (Fail)
//Storyboard Layer 2 (Pass)
//Storyboard Layer 3 (Foreground)
//Storyboard Sound Samples

[TimingPoints]
241,333.333333333333,4,1,0,60,1,0
12240,-100,4,1,0,60,0,1
22907,-100,4,1,0,60,0,0
65574,-100,4,1,0,60,0,1
86907,-100,4,1,0,60,0,0

[HitObjects]
128,192,241,6,0,L|416:192,2,280
256,192,1907,1,0,0:0:0:0:
256,192,2074,1,2,0:0:0:0:
256,192,2240,1,2,0:0:0:0:
256,192,2407,1,0,0:0:0:0:
256,192,2574,1,0,0:0:0:0:
256,192,2740,1,2,0:0:0:0:
256,192,2824,1,2,0:0:0:0:
256,192,2907,1,2,0:0:0:0:
256,192,3240,1,0,0:0:0:0:
256,192,3407,1,2,0:0:0:0:
256,192,3574,1,2,0:0:0:0:
256,192,3740,1,0,0:0:0:0:
256,192,3907,1,0,0:0:0:0:
256,192,4240,1,2,0:0:0:0:
256,192,4574,1,0,0:0:0:0:
256,192,4740,1,2,0:0:0:0:
256,192,4907,1,2,0:0:0:0:
256,192,5074,1,0,0:0:0:0:
256,192,5240,1,0,0:0:0:0:
256,192,5407,1,2,0:0:0:0:
256,192,5490,1,2,0:0:0:0:
256,192,5574,1,2,0:0:0:0:
256,192,5907,1,0,0:0:0:0:
256,192,6074,1,2,0:0:0:0:
256,192,6240,1,2,0:0:0:0:
256,192,6407,1,0,0:0:0:0:
256,192,6574,1,0,0:0:0:0:
256,192,6907,1,2,0:0:0:0:
256,192,7240,1,2,0:0:0:0:
256,192,7407,1,0,0:0:0:0:
256,192,7574,1,0,0:0:0:0:
256,192,7740,1,2,0:0:0:0:
256,192,7907,1,2,0:0:0:0:
256,192,8074,1,0,0:0:0:0:
256,192,8157,1,0,0:0:0:0:
256,192,8240,1,0,0:0:0:0:
256,192,8574,1,2,0:0:0:0:
256,192,8740,1,0,0:0:0:0:
256,192,8907,1,0,0:0:0:0:
256,192,9074,1,2,0:0:0:0:
256,192,9240,1,0,0:0:0:0:
256,192,9574,1,2,0:0:0:0:
256,192,9907,1,2,0:0:0:0:
256,192,10074,1,0,0:0:0:0:
256,192,10240,1,0,0:0:0:0:
256,192,10407,1,2,0:0:0:0:
256,192,10574,1,2,0:0:0:0:
256,192,10740,1,0,0:0:0:0:
256,192,10824,1,0,0:0:0:0:
256,192,10907,1,0,0:0:0:0:
256,192,11240,1,2,0:0:0:0:
256,192,11407,1,0,0:0:0:0:
256,192,11574,1,0,0:0:0:0:
256,192,11740,1,2,0:0:0:0:
256,192,11907,1,0,0:0:0:0:
256,192,12240,5,6,0:0:0:0:
256,192,12574,1,0,0:0:0:0:
256,192,12740,1,2,0:0:0:0:
256,192,12907,1,0,0:0:0:0:
256,192,13074,1,2,0:0:0:0:
256,192,13240,1,0,0:0:0:0:
256,192,13407,1,2,0:0:0:0:
256,192,13490,1,2,0:0:0:0:
256,192,13574,1,2,0:0:0:0:
256,192,13907,1,0,0:0:0:0:
256,192,14074,1,2,0:0:0:0:
256,192,14407,1,2,0:0:0:0:
256,192,14574,1,0,0:0:0:0:
256,192,14740,1,2,0:0:0:0:
256,192,14907,1,0,0:0:0:0:
256,192,15240,1,0,0:0:0:0:
256,192,15407,1,0,0:0:0:0:
256,192,15574,1,2,0:0:0:0:
256,192,15740,1,2,0:0:0:0:
256,192,15907,1,0,0:0:0:0:
256,192,16240,1,2,0:0:0:0:
256,192,16574,1,0,0:0:0:0:
256,192,16740,1,2,0:0:0:0:
256,192,17074,1,2,0:0:0:0:
256,192,17240,1,0,0:0:0:0:
256,192,17574,5,2,0:0:0:0:
256,192,17907,1,0,0:0:0:0:
256,192,18074,1,2,0:0:0:0:
256,192,18240,1,0,0:0:0:0:
256,192,18407,1,2,0:0:0:0:
256,192,18574,1,0,0:0:0:0:
256,192,18740,1,2,0:0:0:0:
256,192,18824,1,2,0:0:0:0:
256,192,18907,1,2,0:0:0:0:
256,192,19240,1,0,0:0:0:0:
256,192,19407,1,2,0:0:0:0:
256,192,19740,1,2,0:0:0:0:
256,192,19907,1,0,0:0:0:0:
256,192,20074,1,2,0:0:0:0:
256,192,20240,1,0,0:0:0:0:
256,192,20574,1,0,0:0:0:0:
256,192,20740,1,0,0:0:0:0:
256,192,20907,1,2,0:0:0:0:
256,192,21074,1,2,0:0:0:0:
256,192,21240,1,0,0:0:0:0:
256,192,21574,1,2,0:0:0:0:
256,192,21907,1,0,0:0:0:0:
256,192,22074,1,2,0:0:0:0:
256,192,22407,1,2,0:0:0:0:
256,192,22574,1,0,0:0:0:0:
256,192,22657,1,0,0:0:0:0:
256,192,22740,1,0,0:0:0:0:
256,192,22907,1,4,0:0:0:0:
256,192,23240,1,2,0:0:0:0:
256,192,23574,1,0,0:0:0:0:
256,192,23907,1,0,0:0:0:0:
256,192,24074,1,2,0:0:0:0:
256,192,24240,1,2,0:0:0:0:
256,192,24574,1,2,0:0:0:0:
256,192,24907,1,0,0:0:0:0:
256,192,25240,1,0,0:0:0:0:
256,192,25574,1,2,0:0:0:0:
256,192,25907,1,2,0:0:0:0:
256,192,26240,1,0,0:0:0:0:
256,192,26574,1,0,0:0:0:0:
256,192,26740,1,2,0:0:0:0:
256,192,26907,1,2,0:0:0:0:
256,192,27240,1,2,0:0:0:0:
256,192,27574,1,0,0:0:0:0:
256,192,27907,1,0,0:0:0:0:
256,192,28240,1,2,0:0:0:0:
256,192,28574,1,2,0:0:0:0:
256,192,28907,1,0,0:0:0:0:
256,192,29240,1,0,0:0:0:0:
256,192,29407,1,2,0:0:0:0:
256,192,29574,1,2,0:0:0:0:
256,192,29907,1,2,0:0:0:0:
256,192,30240,1,0,0:0:0:0:
256,192,30574,1,0,0:0:0:0:
256,192,30907,1,2,0:0:0:0:
256,192,31240,1,2,0:0:0:0:
256,192,31574,1,0,0:0:0:0:
256,192,31907,1,0,0:0:0:0:
256,192,32074,1,2,0:0:0:0:
256,192,32240,1,2,0:0:0:0:
256,192,32574,1,2,0:0:0:0:
256,192,32907,1,0,0:0:0:0:
256,192,33074,1,0,0:0:0:0:
256,192,33240,1,0,0:0:0:0:
256,192,33574,1,6,0:0:0:0:
256,192,33907,1,2,0:0:0:0:
256,192,34240,1,0,0:0:0:0:
256,192,34574,1,0,0:0:0:0:
256,192,34740,1,2,0:0:0:0:
256,192,34907,1,2,0:0:0:0:
256,192,35240,1,2,0:0:0:0:
256,192,35574,1,0,0:0:0:0:
256,192,35907,1,0,0:0:0:0:
256,192,36240,1,2,0:0:0:0:
256,192,36574,1,2,0:0:0:0:
256,192,36907,1,0,0:0:0:0:
256,192,37240,1,0,0:0:0:0:
256,192,37407,1,2,0:0:0:0:
256,192,37574,1,2,0:0:0:0:
256,192,37907,1,2,0:0:0:0:
256,192,38240,1,0,0:0:0:0:
256,192,38574,1,0,0:0:0:0:
256,192,38907,1,2,0:0:0:0:
256,192,39240,1,2,0:0:0:0:
256,192,39574,1,0,0:0:0:0:
256,192,39907,1,0,0:0:0:0:
256,192,40074,1,2,0:0:0:0:
256,192,40240,1,2,0:0:0:0:
256,192,40574,1,2,0:0:0:0:
256,192,40907,1,0,0:0:0:0:
256,192,41240,1,0,0:0:0:0:
256,192,41574,12,0,43907,0:0:0:0:
256,192,44240,5,6,0:0:0:0:
256,192,44574,1,0,0:0:0:0:
256,192,44740,1,2,0:0:0:0:
256,192,44907,1,2,0:0:0:0:
256,192,45074,1,0,0:0:0:0:
256,192,45240,1,0,0:0:0:0:
256,192,45407,1,2,0:0:0:0:
256,192,45490,1,2,0:0:0:0:
256,192,45574,1,2,0:0:0:0:
256,192,45907,1,0,0:0:0:0:
256,192,46074,1,2,0:0:0:0:
256,192,46240,1,2,0:0:0:0:
256,192,46407,1,0,0:0:0:0:
256,192,46574,1,0,0:0:0:0:
256,192,46907,1,2,0:0:0:0:
256,192,47240,1,0,0:0:0:0:
256,192,47407,1,2,0:0:0:0:
256,192,47574,1,2,0:0:0:0:
256,192,47740,1,0,0:0:0:0:
256,192,47907,1,0,0:0:0:0:
256,192,48074,1,2,0:0:0:0:
256,192,48157,1,2,0:0:0:0:
256,192,48240,1,2,0:0:0:0:
256,192,48574,1,0,0:0:0:0:
256,192,48740,1,2,0:0:0:0:
256,192,48907,1,2,0:0:0:0:
256,192,49074,1,0,0:0:0:0:
256,192,49240,1,0,0:0:0:0:
256,192,49574,1,2,0:0:0:0:
256,192,49907,1,2,0:0:0:0:
256,192,50074,1,0,0:0:0:0:
256,192,50240,1,0,0:0:0:0:
256,192,50407,1,2,0:0:0:0:
256,192,50574,1,2,0:0:0:0:
256,192,50740,1,0,0:0:0:0:
256,192,50824,1,0,0:0:0:0:
256,192,50907,1,0,0:0:0:0:
256,192,51240,1,2,0:0:0:0:
256,192,51407,1,0,0:0:0:0:
256,192,51574,1,0,0:0:0:0:
256,192,51740,1,2,0:0:0:0:
256,192,51907,1,0,0:0:0:0:
256,192,52240,1,2,0:0:0:0:
256,192,52574,1,2,0:0:0:0:
256,192,52740,1,0,0:0:0:0:
256,192,52907,1,0,0:0:0:0:
256,192,53074,1,2,0:0:0:0:
256,192,53240,1,2,0:0:0:0:
256,192,53407,1,0,0:0:0:0:
256,192,53490,1,0,0:0:0:0:
256,192,53574,1,0,0:0:0:0:
256,192,53907,1,2,0:0:0:0:
256,192,54074,1,0,0:0:0:0:
256,192,54240,1,0,0:0:0:0:
256,192,54407,1,2,0:0:0:0:
256,192,54574,1,0,0:0:0:0:
256,192,54907,1,6,0:0:0:0:
256,192,55240,1,0,0:0:0:0:
256,192,55407,1,2,0:0:0:0:
256,192,55574,1,2,0:0:0:0:
256,192,55740,1,0,0:0:0:0:
256,192,55907,1,0,0:0:0:0:
256,192,56074,1,2,0:0:0:0:
256,192,56157,1,2,0:0:0:0:
256,192,56240,1,2,0:0:0:0:
256,192,56574,1,0,0:0:0:0:
256,192,56740,1,2,0:0:0:0:
256,192,56907,1,2,0:0:0:0:
256,192,57074,1,0,0:0:0:0:
256,192,57240,1,0,0:0:0:0:
256,192,57574,1,2,0:0:0:0:
256,192,57907,1,0,0:0:0:0:
256,192,58074,1,2,0:0:0:0:
256,192,58240,1,2,0:0:0:0:
256,192,58407,1,0,0:0:0:0:
256,192,58574,1,0,0:0:0:0:
256,192,58740,1,2,0:0:0:0:
256,192,58824,1,2,0:0:0:0:
256,192,58907,1,2,0:0:0:0:
256,192,59240,1,0,0:0:0:0:
256,192,59407,1,2,0:0:0:0:
256,192,59574,1,2,0:0:0:0:
256,192,59740,1,0,0:0:0:0:
256,192,59907,1,0,0:0:0:0:
256,192,60240,1,2,0:0:0:0:
256,192,60574,1,2,0:0:0:0:
256,192,60740,1,0,0:0:0:0:
256,192,60907,1,0,0:0:0:0:
256,192,61074,1,2,0:0:0:0:
256,192,61240,1,2,0:0:0:0:
256,192,61407,1,0,0:0:0:0:
256,192,61490,1,0,0:0:0:0:
256,192,61574,1,0,0:0:0:0:
256,192,61907,1,2,0:0:0:0:
256,192,62074,1,0,0:0:0:0:
256,192,62240,1,0,0:0:0:0:
256,192,62407,1,2,0:0:0:0:
256,192,62574,1,0,0:0:0:0:
256,192,62907,1,2,0:0:0:0:
256,192,63240,1,2,0:0:0:0:
256,192,63407,1,0,0:0:0:0:
256,192,63574,1,0,0:0:0:0:
256,192,63740,1,2,0:0:0:0:
256,192,63907,1,2,0:0:0:0:
256,192,64074,1,0,0:0:0:0:
256,192,64157,1,0,0:0:0:0:
256,192,64240,1,0,0:0:0:0:
256,192,64574,1,2,0:0:0:0:
256,192,64740,1,0,0:0:0:0:
256,192,64907,1,0,0:0:0:0:
256,192,65074,1,2,0:0:0:0:
256,192,65157,1,2,0:0:0:0:
256,192,65240,1,2,0:0:0:0:
256,192,65574,5,6,0:0:0:0:
256,192,65907,1,0,0:0:0:0:
256,192,66074,1,2,0:0:0:0:
256,192,66240,1,0,0:0:0:0:
256,192,66407,1,2,0:0:0:0:
256,192,66574,1,0,0:0:0:0:
256,192,66740,1,2,0:0:0:0:
256,192,66824,1,2,0:0:0:0:
256,192,66907,1,2,0:0:0:0:
256,192,67240,1,0,0:0:0:0:
256,192,67407,1,2,0:0:0:0:
256,192,67740,1,2,0:0:0:0:
256,192,67907,1,0,0:0:0:0:
256,192,68074,1,2,0:0:0:0:
256,192,68240,1,0,0:0:0:0:
256,192,68574,1,0,0:0:0:0:
256,192,68740,1,0,0:0:0:0:
256,192,68907,1,2,0:0:0:0:
256,192,69074,1,2,0:0:0:0:
256,192,69240,1,0,0:0:0:0:
256,192,69574,1,2,0:0:0:0:
256,192,69907,1,0,0:0:0:0:
256,192,70074,1,2,0:0:0:0:
256,192,70407,1,2,0:0:0:0:
256,192,70574,1,0,0:0:0:0:
256,192,70907,5,2,0:0:0:0:
256,192,71240,1,0,0:0:0:0:
256,192,71407,1,2,0:0:0:0:
256,192,71574,1,0,0:0:0:0:
256,192,71740,1,2,0:0:0:0:
256,192,71907,1,0,0:0:0:0:
256,192,72074,1,2,0:0:0:0:
256,192,72157,1,2,0:0:0:0:
256,192,72240,1,2,0:0:0:0:
256,192,72574,1,0,0:0:0:0:
256,192,72740,1,2,0:0:0:0:
256,192,73074,1,2,0:0:0:0:
256,192,73240,1,0,0:0:0:0:
256,192,73407,1,2,0:0:0:0:
256,192,73574,1,0,0:0:0:0:
256,192,73907,1,0,0:0:0:0:
256,192,74074,1,0,0:0:0:0:
256,192,74240,1,2,0:0:0:0:
256,192,74407,1,2,0:0:0:0:
256,192,74574,1,0,0:0:0:0:
256,192,74907,1,2,0:0:0:0:
256,192,75240,1,0,0:0:0:0:
256,192,75407,1,2,0:0:0:0:
256,192,75740,1,2,0:0:0:0:
256,192,75907,1,0,0:0:0:0:
256,192,76240,5,6,0:0:0:0:
256,192,76574,1,0,0:0:0:0:
256,192,76740,1,2,0:0:0:0:
256,192,76907,1,0,0:0:0:0:
256,192,77074,1,2,0:0:0:0:
256,192,77240,1,0,0:0:0:0:
256,192,77407,1,2,0:0:0:0:
256,192,77490,1,2,0:0:0:0:
256,192,77574,1,2,0:0:0:0:
256,192,77907,1,0,0:0:0:0:
256,192,78074,1,2,0:0:0:0:
256,192,78407,1,2,0:0:0:0:
256,192,78574,1,0,0:0:0:0:
256,192,78740,1,2,0:0:0:0:
256,192,78907,1,0,0:0:0:0:
256,192,79240,1,0,0:0:0:0:
256,192,79407,1,0,0:0:0:0:
256,192,79574,1,2,0:0:0:0:
256,192,79740,1,2,0:0:0:0:
256,192,79907,1,0,0:0:0:0:
256,192,80240,1,2,0:0:0:0:
256,192,80574,1,0,0:0:0:0:
256,192,80740,1,2,0:0:0:0:
256,192,81074,1,2,0:0:0:0:
256,192,81240,1,0,0:0:0:0:
256,192,81574,5,2,0:0:0:0:
256,192,81907,1,0,0:0:0:0:
256,192,82074,1,2,0:0:0:0:
256,192,82240,1,0,0:0:0:0:
256,192,82407,1,2,0:0:0:0:
256,192,82574,1,0,0:0:0:0:
256,192,82740,1,2,0:0:0:0:
256,192,82824,1,2,0:0:0:0:
256,192,82907,1,2,0:0:0:0:
256,192,83240,1,0,0:0:0:0:
256,192,83407,1,2,0:0:0:0:
256,192,83740,1,2,0:0:0:0:
256,192,83907,1,0,0:0:0:0:
256,192,84074,1,2,0:0:0:0:
256,192,84240,1,0,0:0:0:0:
256,192,84574,1,0,0:0:0:0:
256,192,84740,1,0,0:0:0:0:
256,192,84907,1,2,0:0:0:0:
256,192,85074,1,2,0:0:0:0:
256,192,85240,1,0,0:0:0:0:
256,192,85574,1,2,0:0:0:0:
256,192,85907,1,0,0:0:0:0:
256,192,86074,1,2,0:0:0:0:
256,192,86407,1,2,0:0:0:0:
256,192,86574,1,0,0:0:0:0:
256,192,86657,1,0,0:0:0:0:
256,192,86740,1,0,0:0:0:0:
256,192,86907,1,6,0:0:0:0:
