osu file format v4

[General]
AudioFilename: Ikkitousen Dragon Destiny OP.mp3
AudioLeadIn: 1535
AudioHash: fb68f06fcd81b0d7bd26ebaf04491215
PreviewTime: -1
SampleSet: Normal
EditorBookmarks: 28790,29959,30153,30933,34439,38920,45933,51679,57036,72426,73790,78757,83335,83725

[Metadata]
Title:HEART&SOUL (TV Size)
Artist:Gankou Mai
Creator:EiJi
Version:Hard

[Difficulty]
HPDrainRate:5
CircleSize:5
OverallDifficulty:5
SliderMultiplier: 1.4
SliderTickRate: 1

[Events]
1,0,"Ikkitousen Dragon Destiny OP.avi"
2,46133,50966
3,0,163,162,255

[TimingPoints]
6928,389.61038961039,4,1,1

[HitObjects]
56,184,694,1,0
336,192,1668,1,0
448,192,2057,1,0
448,136,2252,2,0,L|448:136|320:56|184:88,1,280
112,88,3324,1,0
112,168,3616,1,0
112,224,3811,1,0
336,240,4590,5,0
336,184,4785,1,0
336,128,4979,1,0
336,72,5174,1,0
280,72,5369,1,0
280,152,5661,1,0
360,152,5953,2,0,L|360:152|272:40|72:104,1,350
72,216,7317,5,0
184,216,7707,1,0
296,216,8096,1,0
408,216,8486,1,0
408,328,8876,1,0
296,336,9265,1,0
184,336,9655,1,0
72,328,10044,1,0
72,216,10434,1,0
72,160,10629,6,0,L|72:160|296:168|432:104,1,350
432,280,12187,5,0
296,280,12577,1,0
296,280,12674,1,0
296,280,12772,1,0
240,280,12966,5,0
184,280,13161,1,0
128,280,13356,1,0
128,224,13551,1,0
128,168,13746,1,0
120,24,14233,5,0
120,24,14330,1,0
176,24,14525,5,0
232,24,14720,1,0
344,24,15109,1,0
344,80,15304,1,0
344,248,15889,5,0
288,248,16083,1,0
232,264,16278,1,0
184,240,16473,1,0
136,264,16668,1,0
88,232,16863,5,0
40,264,17057,1,0
40,208,17252,1,0
80,168,17447,1,0
40,128,17642,1,0
152,128,18031,1,0
376,136,18811,5,0
376,136,18908,1,0
376,136,19005,1,0
376,192,19200,5,0
352,240,19395,1,0
304,264,19590,1,0
248,264,19785,1,0
192,248,19979,1,0
136,152,20369,5,0
168,104,20564,1,0
216,80,20759,1,0
272,80,20953,1,0
360,144,21343,1,0
352,200,21538,1,0
192,248,22122,5,0
160,200,22317,1,0
160,144,22512,1,0
176,88,22707,1,0
224,64,22902,1,0
272,88,23096,1,0
328,96,23291,2,0,L|328:96|328:248,1,140
272,240,23876,5,0
328,240,24070,2,0,L|328:240|332:96|44:96,1,420
48,208,25629,5,0
128,288,26018,1,0
184,288,26213,1,0
352,280,26798,2,0,L|352:280|496:280|496:144,1,280
496,32,27966,5,0
384,32,28356,1,0
272,32,28746,2,0,L|272:32|184:64|280:80|176:104|240:120|240:192,1,420
240,232,30109,6,0,L|240:232|280:280|288:224|328:256|336:200|384:240,1,280
72,216,31668,5,0
128,216,31863,1,0
184,216,32057,1,0
296,216,32447,1,0
288,104,32837,1,0
288,272,33421,2,0,L|288:272|328:240|304:208|352:168|312:120|272:152|224:88|160:136|192:184|152:208|184:256|176:256,1,560
160,176,35174,5,0
136,128,35369,1,0
112,80,35564,1,0
224,80,35953,5,0
248,128,36148,1,0
272,176,36343,1,0
288,224,36538,2,0,L|288:224|392:224|280:168|416:120|256:72|424:16|304:88,1,840
264,80,39070,2,0,L|264:80|48:80,1,210
48,136,39850,5,0
48,192,40044,1,0
48,248,40239,1,0
160,248,40629,1,0
160,136,41018,1,0
272,136,41408,5,0
272,192,41603,1,0
328,192,41798,1,0
328,80,42187,1,0
272,80,42382,1,0
104,72,42966,5,0
128,120,43161,1,0
96,168,43356,1,0
96,280,43746,5,0
72,328,43940,1,0
104,368,44135,1,0
216,368,44525,5,0
216,256,44915,2,0,L|216:256|280:312|344:232|256:168|216:232,1,350
48,192,52122,5,0
104,192,52317,1,0
160,192,52512,1,0
216,192,52707,1,0
328,192,53096,1,0
328,304,53486,1,0
216,304,53876,1,0
216,192,54265,1,0
216,80,54655,2,0,L|216:80|160:80|160:16|232:16|232:-24,1,210
288,0,55434,5,0
344,0,55629,1,0
400,0,55824,1,0
400,112,56213,2,0,L|400:112|384:136|416:152|360:152|400:176|328:168|368:208,1,280
280,280,57382,5,0
168,280,57772,2,0,L|168:280|80:208|176:168|88:136,1,280
112,32,58940,5,0
160,64,59135,1,0
200,104,59330,1,0
240,144,59525,1,0
280,176,59720,1,0
376,232,60109,5,0
264,232,60499,1,0
152,232,60889,1,0
144,120,61278,5,0
192,144,61473,1,0
240,120,61668,1,0
352,120,62057,1,0
408,120,62252,1,0
416,288,62837,5,0
384,336,63031,1,0
352,288,63226,1,0
328,336,63421,1,0
296,288,63616,1,0
184,288,64005,5,0
184,176,64395,1,0
184,64,64785,1,0
296,72,65174,1,0
336,112,65369,1,0
416,192,65759,1,0
416,304,66148,1,0
256,192,66246,12,0,71603
448,32,72382,1,0
448,112,72674,1,0
448,192,72966,1,0
448,248,73161,1,0
448,328,73453,1,0
360,328,73746,6,4,L|360:328|328:328|248:328|184:328|128:328|128:104|8:104|6:248|144:248|280:248|280:184|192:184|192:104|352:104|352:244|459:245|456:80,2,1785
256,192,84655,12,0,88940
