osu file format v14

[General]
AudioFilename: Gamad - Kobasice.mp3
AudioLeadIn: 0
PreviewTime: -1
Countdown: 1
SampleSet: None
StackLeniency: 0.7
Mode: 0
LetterboxInBreaks: 1
WidescreenStoryboard: 0

[Editor]
DistanceSpacing: 0.9
BeatDivisor: 4
GridSize: 4
TimelineZoom: 1

[Metadata]
Title:Kobasice
TitleUnicode:Kobasice
Artist:Gamad
ArtistUnicode:Gamad
Creator:UltraRik
Version:Vuzzix
Source:
Tags:
BeatmapID:917784
BeatmapSetID:424918

[Difficulty]
HPDrainRate:3
CircleSize:3
OverallDifficulty:5
ApproachRate:8.2
SliderMultiplier:1.4
SliderTickRate:1

[Events]
//Background and Video events
//Break Periods
//Storyboard Layer 0 (Background)
//Storyboard Layer 1 (Fail)
//Storyboard Layer 2 (Pass)
//Storyboard Layer 3 (Foreground)
//Storyboard Sound Samples

[TimingPoints]
1787,333.228702163062,4,1,0,100,1,0
35245,333.328702163062,4,1,0,100,1,0

[HitObjects]
132,136,1786,5,0,0:0:0:0:
208,208,2120,1,0,0:0:0:0:
288,144,2453,1,0,0:0:0:0:
344,224,2786,1,0,0:0:0:0:
412,136,3119,5,0,0:0:0:0:
304,172,3453,1,0,0:0:0:0:
400,188,3786,5,0,0:0:0:0:
348,96,4119,1,0,0:0:0:0:
248,172,4452,6,0,L|272:264,1,70
251,308,4786,2,0,L|267:228,1,70
326,206,5119,6,0,L|250:246,1,70
194,233,5452,2,0,L|279:239,1,70
296,299,5785,6,0,L|260:231,1,70
274,170,6118,2,0,L|262:266,1,70
184,316,6452,2,0,P|140:320|52:268,1,140
44,152,7118,6,0,P|116:140|184:160,1,140
272,232,7785,2,0,P|316:176|292:112,1,140
400,104,8451,2,0,P|404:176|448:240,1,140
408,328,9118,2,0,P|384:288|292:236,1,140
188,152,9784,5,0,0:0:0:0:
240,252,10117,1,0,0:0:0:0:
144,316,10450,1,0,0:0:0:0:
84,224,10784,1,0,0:0:0:0:
108,104,11117,5,0,0:0:0:0:
128,220,11450,1,0,0:0:0:0:
184,116,11783,5,0,0:0:0:0:
92,172,12117,1,0,0:0:0:0:
224,240,12450,2,0,P|284:240|508:160,1,280
284,72,13783,2,0,P|176:104|52:228,1,280
304,224,15116,6,0,L|320:304,1,70
356,172,15449,2,0,L|364:96,1,70
388,240,15782,6,0,L|400:320,1,70
432,180,16115,2,0,L|452:108,1,70
492,236,16449,2,0,P|496:316|520:372,2,140
496,76,17448,1,0,0:0:0:0:
372,160,17781,6,0,P|284:152|212:120,1,140
88,96,18448,2,0,L|144:232,1,140
304,112,19114,2,0,B|240:112|240:112|244:192,1,140
220,304,19781,2,0,B|300:296|300:296|304:220,1,140
324,84,20447,5,0,0:0:0:0:
156,136,20781,1,0,0:0:0:0:
288,172,21114,1,0,0:0:0:0:
180,80,21447,1,0,0:0:0:0:
200,224,21780,1,0,0:0:0:0:
248,124,22113,1,0,0:0:0:0:
288,248,22447,1,0,0:0:0:0:
196,312,22780,1,0,0:0:0:0:
64,272,23113,6,0,P|68:192|104:136,1,140
200,96,23780,2,0,P|176:184|128:212,1,140
88,120,24446,2,0,B|132:48|200:24|284:32|324:144,1,280
336,316,25779,2,0,L|172:332,1,140
236,240,26445,2,0,L|80:260,1,140
80,176,27112,2,0,P|72:108|96:36,2,140
108,304,28112,1,0,0:0:0:0:
184,212,28445,2,0,L|328:188,1,140
452,264,29111,2,0,L|296:292,1,140
256,208,29778,2,0,L|320:68,1,140
376,224,30444,2,0,L|292:344,1,140
156,256,31111,5,0,0:0:0:0:
256,296,31444,1,0,0:0:0:0:
228,172,31777,1,0,0:0:0:0:
256,280,32110,1,0,0:0:0:0:
336,176,32444,1,0,0:0:0:0:
264,80,32777,2,0,L|220:56,4,35
264,104,35245,6,0,L|272:180,1,70
176,144,35578,2,0,L|184:228,1,70
260,144,35911,6,0,L|264:228,1,70
348,188,36244,2,0,L|352:264,1,70
248,320,36578,5,0,0:0:0:0:
200,200,36911,1,0,0:0:0:0:
308,252,37244,1,0,0:0:0:0:
376,140,37578,1,0,0:0:0:0:
240,88,37911,6,0,L|80:88,1,140
240,88,38578,2,0,L|236:236,1,140
240,88,39244,2,0,L|384:92,1,140
236,227,39911,2,0,L|240:83,1,140
100,108,40578,5,0,0:0:0:0:
92,216,40911,1,0,0:0:0:0:
180,112,41244,5,0,0:0:0:0:
184,228,41578,1,0,0:0:0:0:
256,112,41911,5,0,0:0:0:0:
276,236,42244,1,0,0:0:0:0:
328,100,42578,5,0,0:0:0:0:
364,236,42911,1,0,0:0:0:0:
424,92,43244,6,0,P|408:44|328:16,1,140
364,176,43911,2,0,P|408:216|492:208,1,140
376,68,44578,2,0,P|304:56|236:88,1,140
172,208,45244,2,0,P|192:252|280:300,2,140
172,72,46244,1,0,0:0:0:0:
80,160,46578,5,0,0:0:0:0:
248,184,46911,1,0,0:0:0:0:
108,240,47244,1,0,0:0:0:0:
192,124,47578,1,0,0:0:0:0:
208,272,47911,1,0,0:0:0:0:
88,164,48244,1,0,0:0:0:0:
192,124,48578,6,0,P|204:76|208:28,1,70
264,144,48911,2,0,L|256:220,1,70
344,140,49244,2,0,L|328:60,1,70
416,124,49578,2,0,L|452:196,1,70
360,228,49911,6,0,L|284:240,1,70
188,168,50244,2,0,L|268:164,1,70
408,212,50578,2,0,L|308:216,1,70
232,248,50911,2,0,L|264:332,1,70
352,304,51244,6,0,P|388:276|420:52,1,280
176,88,52578,2,0,P|128:224|188:340,1,280
