osu file format v9

[General]
AudioFilename: AGE1.mp3
AudioLeadIn: 1000
PreviewTime: 56313
Countdown: 0
SampleSet: Normal
StackLeniency: 0.4
Mode: 0
LetterboxInBreaks: 0

[Editor]
Bookmarks: 39356,56748
DistanceSpacing: 1
BeatDivisor: 2
GridSize: 8

[Metadata]
Title:Asu e (TV size)
Artist:Galileo Galilei
Creator:AoiX
Version:Normal
Source:Mobile Suit Gundam AGE
Tags:Sunrise opening tutuhaha

[Difficulty]
HPDrainRate:3
CircleSize:3
OverallDifficulty:4
ApproachRate:4
SliderMultiplier:1.2
SliderTickRate:2

[Events]
//Background and Video events
0,0,"BG.jpg"
Video,0,"AGE1.avi"
//Break Periods
//Storyboard Layer 0 (Background)
//Storyboard Layer 1 (Fail)
//Storyboard Layer 2 (Pass)
//Storyboard Layer 3 (Foreground)
//Storyboard Sound Samples
//Background Colour Transformations
3,100,163,162,255

[TimingPoints]
1096,434.782608695652,4,1,1,50,1,0
15009,-100,4,2,1,60,0,0
24139,-100,4,2,1,40,0,0
25335,-100,4,2,1,60,0,0
42835,-133.333333333333,4,2,1,50,0,0
48922,-100,4,2,1,60,0,0
56313,-133.333333333333,4,2,1,30,0,0
56748,-100,4,1,1,70,0,1
82835,-100,4,2,1,40,0,0
84574,-100,4,2,1,30,0,0
86313,-100,4,2,1,20,0,0
87182,-100,4,2,1,10,0,0
88052,-100,4,2,1,5,0,0

[Colours]
Combo1 : 255,255,0
Combo2 : 200,200,200
Combo3 : 50,50,200
Combo4 : 200,50,50

[HitObjects]
40,48,1096,2,0,B|104:56|160:40,1,120,2|8
72,128,1965,2,0,B|136:136|192:120,1,120,2|8
104,208,2835,2,0,B|168:216|224:200,1,120,2|8
136,288,3704,2,0,B|200:296|256:280,1,120,2|8
376,288,4574,6,0,B|384:224|376:168,1,120,2|8
296,256,5443,2,0,B|304:192|296:136,1,120,2|8
216,224,6313,2,0,B|208:160|216:104,1,120,2|8
136,192,7182,2,0,B|128:128|136:72,1,120,2|8
256,40,8052,6,0,B|384:72|432:192,1,240,2|2
360,288,9356,1,8
256,344,9791,2,0,B|128:312|80:192,1,240,2|2
80,72,11095,1,8
200,72,11530,6,0,B|256:32|312:72,1,120,0|8
320,192,12400,2,0,B|376:232|432:192,1,120,2|8
424,312,13269,6,0,B|368:272|312:312,1,120,2|8
192,312,14139,1,2
72,312,14574,2,0,B|8:312,2,60,8|8|4
128,208,15443,5,8
192,104,15878,1,0
312,104,16313,1,8
368,208,16748,2,0,B|488:208,1,120,0|8
488,328,17617,2,0,B|368:328,1,120,0|8
368,208,18487,6,8,B|312:104,1,120,0|8
192,104,19356,2,0,B|135:209,1,120,0|8
256,232,20226,1,0
256,352,20661,1,8
152,296,21095,2,0,B|88:296,2,60,0|0|8
96,192,21965,5,0
136,80,22400,1,8
256,80,22835,2,0,B|368:136|488:80,1,240,8|0
488,200,24139,2,2,B|368:256|256:200,1,240
256,320,25443,5,0
256,320,25878,1,8
256,320,26313,1,0
376,320,26748,2,0,B|440:320,2,60,8|0|0
312,216,27617,1,8
192,216,28052,1,0
136,320,28487,1,8
80,216,28922,6,0,B|136:112,1,120,4|8
192,216,29791,2,0,B|248:112,1,120,0|8
304,216,30661,2,0,B|360:320,1,120,0|8
416,216,31530,2,0,B|472:320,1,120,0|8
360,320,32400,5,0
256,256,32835,2,0,B|256:320,2,60,8|0|0
152,320,33704,1,8
64,240,34139,1,0
104,128,34574,1,8
224,144,35009,2,0,B|288:144,2,60,0|0|8
256,256,35878,6,0,B|224:256|136:320|24:256,1,240,2|0
256,176,37617,2,0,B|224:176|136:112|24:176,1,240,2|0
256,96,39356,6,0,B|328:96|336:168,1,120,0|8
336,288,40226,2,0,B|407:287|415:216,1,120,0|8
416,96,41095,2,0,B|488:96|496:168,2,120,0|8|0
296,96,42400,1,8
176,96,42835,6,0,B|208:192|176:272,3,179.999994635582,6|2|2|2
408,272,46313,6,0,B|375:191|407:95,3,179.999994635582,2|2|2|2
112,192,49791,6,0,B|208:224|288:192|368:136|464:192,1,360,4|0
408,296,51530,2,0,B|360:256|296:264,1,120,0|8
344,376,52400,2,0,B|280:384|232:344,2,120,0|8|0
464,352,53704,5,8
480,232,54139,1,0
376,168,54574,1,8
256,152,55009,2,0,B|224:136|184:224|152:192,1,120,0|8
256,336,56313,6,0,B|288:336|312:312|344:312,1,89.9999973177911,0|4
464,312,57182,2,0,B|448:256,1,60,8|0
344,192,57835,2,0,B|328:136,1,60,0|8
208,136,58487,2,0,B|200:200|152:240,1,120,0|8
56,312,59356,2,0,B|80:256,2,60,0|8|8
40,192,60226,5,0
56,72,60661,2,0,B|80:128,1,60,8|0
184,192,61313,2,0,B|208:248,1,60,0|8
304,320,61965,6,0,B|360:336|424:312,3,120,0|8|0|8
336,232,63704,2,0,B|392:248|456:224,3,120,0|8|0|8
368,144,65443,2,0,B|424:160|488:136,3,120,0|8|0|8
416,40,67182,6,0,B|288:40|200:128,1,240,2|0
120,216,68487,1,8
200,304,68922,2,0,B|328:304|416:216,1,240,2|0
352,120,70226,1,8
256,192,70661,6,0,B|256:128,2,60,4|0|8
160,120,71530,1,0
256,48,71965,1,8
352,120,72400,2,0,B|352:240,1,120,0|8
256,168,73269,2,0,B|256:288,1,120,0|8
152,352,74139,6,0,B|152:288,2,60,0|0|8
256,288,75009,1,0
360,352,75443,1,8
360,232,75878,2,0,B|464:168,2,120,0|8|0
256,176,77182,1,8
216,64,77617,6,0,B|160:48|96:72,3,120,0|8|0|8
184,152,79356,2,0,B|128:136|64:160,3,120,0|8|0|8
152,240,81095,2,0,B|96:224|32:248,3,120,0|8|0|8
104,344,82835,5,2
224,344,83269,1,2
336,296,83704,1,2
392,192,84139,1,2
256,192,84574,12,0,88052
