osu file format v9

[General]
AudioFilename: AGE1.mp3
AudioLeadIn: 1000
PreviewTime: 56313
Countdown: 0
SampleSet: Soft
StackLeniency: 0.4
Mode: 0
LetterboxInBreaks: 0

[Editor]
Bookmarks: 39356,56748
DistanceSpacing: 1
BeatDivisor: 4
GridSize: 4

[Metadata]
Title:Asu e (TV size)
Artist:Galileo Galilei
Creator:AoiX
Version:Hard
Source:Mobile Suit Gundam AGE
Tags:Sunrise opening tutuhaha

[Difficulty]
HPDrainRate:5
CircleSize:4
OverallDifficulty:5
ApproachRate:6
SliderMultiplier:1.6
SliderTickRate:2

[Events]
//Background and Video events
0,0,"BG.jpg"
Video,0,"AGE1.avi"
//Break Periods
//Storyboard Layer 0 (Background)
//Storyboard Layer 1 (Fail)
//Storyboard Layer 2 (Pass)
//Storyboard Layer 3 (Foreground)
//Storyboard Sound Samples
//Background Colour Transformations
3,100,163,162,255

[TimingPoints]
1096,434.782608695652,4,1,1,50,1,0
15009,-100,4,2,1,30,0,0
15117,-100,4,2,1,60,0,0
24139,-100,4,2,1,30,0,0
25335,-100,4,2,1,60,0,0
28922,-100,4,2,1,40,0,0
29030,-100,4,2,1,60,0,0
35878,-100,4,2,1,40,0,0
35987,-100,4,2,1,60,0,0
42835,-133.333333333333,4,2,1,30,0,0
42943,-133.333333333333,4,2,1,50,0,0
48922,-100,4,2,1,60,0,0
49791,-100,4,2,1,40,0,0
49900,-100,4,2,1,60,0,0
56313,-133.333333333333,4,2,1,30,0,0
56748,-100,4,1,1,70,0,1
82835,-100,4,2,1,40,0,0
84682,-100,4,2,1,30,0,0
86313,-100,4,2,1,20,0,0
87182,-100,4,2,1,10,0,0
88052,-100,4,2,1,5,0,0

[Colours]
Combo1 : 255,255,0
Combo2 : 200,200,200
Combo3 : 50,50,200
Combo4 : 200,50,50

[HitObjects]
256,72,1096,1,2
384,168,1530,1,8
336,320,1965,1,2
176,320,2400,1,8
128,168,2835,2,0,B|136:80|212:40,1,160,2|8
184,208,3704,2,0,B|224:128|312:128,1,160,2|8
360,280,4574,2,0,B|280:232|208:276,3,160,2|8|2|8
48,296,6313,6,0,B|104:352,1,80,2|0
128,276,6748,2,0,B|204:296,1,80,8|0
184,220,7182,2,0,B|260:200,1,80,2|8
208,140,7617,2,0,B|256:76,1,80,8|0
256,76,8052,5,2
100,44,8487,1,8
164,192,8922,2,0,B|116:192|96:160,2,80,2|0|8
256,324,9791,2,0,B|248:292|264:276|256:244,2,80,2|0|8
348,192,10661,2,0,B|396:192|416:160,2,80,2|0|8
164,192,11530,5,2
348,192,11965,1,8
196,124,12400,1,2
316,124,12835,1,8
324,44,13269,5,2
256,84,13487,1,0
188,44,13704,1,8
116,84,13922,1,0
116,164,14139,1,2
188,200,14356,1,8
260,168,14574,1,10
284,168,14682,1,2
308,168,14791,1,2
332,168,14900,1,2
356,168,15009,6,0,B|400:164|412:120,2,80,4|0|8
356,248,15661,1,0
348,328,15878,2,0,B|420:296,1,80
356,248,16313,2,0,B|428:216,1,80,8|0
392,144,16748,5,0
332,92,16965,1,0
256,64,17182,1,8
180,92,17400,1,0
180,92,17509,1,0
180,92,17617,2,0,B|132:104|112:68,2,80,0|0|8
256,124,18269,1,0
332,92,18487,6,0,B|404:124,1,80
336,168,18922,2,0,B|408:200,1,80,8|0
372,272,19356,1,0
296,304,19574,2,0,B|256:324|220:304,2,80,0|8|0
256,236,20226,5,0
176,236,20443,1,0
148,160,20661,1,8
212,112,20878,1,0
276,160,21095,2,0,B|356:160,1,80
372,160,21422,1,0
388,160,21530,1,8
452,112,21748,1,8
464,192,21965,5,0
448,272,22182,1,0
408,340,22400,1,8
368,272,22617,1,0
332,340,22835,2,0,B|292:356|256:336,1,80
184,300,23269,2,0,B|144:284|132:240,2,80,8|0|0
112,120,24139,5,2
128,112,24356,1,2
144,104,24574,1,2
160,96,24791,1,2
176,88,25009,1,2
192,80,25226,2,0,B|276:52|344:104,1,160,2|0
416,140,25878,1,8
320,268,26313,6,0,B|276:268|256:228,2,80,0|0|8
384,220,26965,2,0,B|340:204|324:168,1,80
188,168,27617,2,0,B|236:212|204:284|140:272,1,160,8|0
16,168,28487,5,8
4,128,28595,1,8
12,88,28704,1,0
32,56,28813,1,0
68,36,28922,2,0,B|104:60|108:104,1,80,4|0
184,72,29356,1,8
256,108,29574,1,0
328,72,29791,2,0,B|352:148,1,80
404,88,30226,2,0,B|428:164,1,80,8|0
452,240,30661,5,0
428,164,30878,1,0
372,220,31095,1,8
320,280,31313,2,0,B|256:276|212:236,1,120
180,212,31748,2,0,B|152:180|108:192,1,80,0|8
32,224,32182,1,0
60,300,32400,22,0,B|128:260,1,80
124,340,32835,2,0,B|192:300,1,80,8|0
256,248,33269,1,0
316,192,33487,1,0
396,192,33704,1,8
352,124,33922,1,0
352,44,34139,2,0,B|288:80|288:80|256:160,1,160,0|8
256,160,34791,2,0,B|224:80|224:80|160:44,1,160
80,48,35443,5,8
40,116,35661,1,8
120,116,35878,1,4
80,184,36095,1,0
160,184,36313,1,8
120,252,36530,1,0
200,252,36748,2,0,B|228:224,2,40
240,184,37182,2,0,B|276:168,2,40,8|0|0
256,104,37617,6,0,B|332:76|412:104,1,160,0|8
408,184,38269,1,0
476,140,38487,2,0,B|496:100|472:64,2,80,0|0|8
476,220,39139,1,0
408,264,39356,1,0
256,312,39791,6,0,B|320:264|324:172,2,160,8|0|8
256,152,41095,1,0
100,192,41530,1,8
188,328,41965,2,0,B|108:328,2,80,0|0|8
228,324,42509,1,2
268,316,42617,1,2
304,300,42726,1,2
332,288,42835,6,0,B|436:232,1,119.999996423721,4|2
436,152,43487,2,0,B|332:208,1,119.999996423721
256,228,44139,1,2
180,228,44356,1,0
100,228,44574,1,0
136,160,44791,1,0
180,96,45009,1,2
220,160,45226,2,0,B|268:140|308:172,1,89.9999973177911,0|0
312,180,45661,1,2
392,312,46095,5,0
392,312,46204,1,0
392,311,46313,2,0,B|392:263|360:228,2,89.9999973177911,2|0|2
380,156,47400,1,0
132,156,47835,1,2
132,156,47943,1,0
132,156,48052,1,0
76,208,48269,2,2,B|92:240|128:236,2,59.9999982118607,2|0|2
256,104,49139,5,2
256,144,49356,1,10
256,184,49574,2,0,B|260:232|304:240,1,80,2|4
440,328,50226,2,0,B|336:328|336:328|304:328|304:292,2,160,8|0|8
304,240,51530,2,0,B|304:180|352:156|352:156|404:180,2,160,0|8|0
256,332,52617,5,0
208,240,52835,1,8
208,240,53052,2,0,B|208:180|160:156|160:156|108:180,1,160
36,212,53704,2,0,B|20:160|56:128|56:128|120:96,1,160,8|0
188,60,54356,2,0,B|228:56|228:56|256:28,2,80,0|8|0
236,124,55009,2,0,B|256:160|256:160|256:200,2,80,0|0|8
256,344,56313,6,0,B|256:312|360:328|360:296,1,119.999996423721,0|4
476,192,57182,5,8
428,256,57400,1,0
280,192,57835,1,0
328,256,58052,2,0,B|368:200|352:144|304:120,2,160,8|0|8
256,76,59356,2,0,B|232:40|184:52,2,80,0|0|8
208,228,60226,6,0,B|168:228|136:172|168:116|208:116,1,160,0|8
268,168,60878,1,0
208,316,61313,1,0
208,228,61530,1,8
336,132,61965,2,0,B|328:92|280:72|236:80|208:116,2,160,0|8|0
336,212,63052,5,0
292,280,63269,1,8
252,212,63487,1,0
168,76,63922,5,0
252,76,64139,1,8
212,144,64357,1,0
372,140,64791,5,0
332,72,65009,1,8
416,72,65226,1,0
336,212,65661,5,0
292,144,65878,1,8
212,144,66095,2,0,B|160:216|212:292,1,160
292,292,66748,1,8
372,284,66965,1,0
336,212,67182,6,0,B|408:192|496:192,1,160,0|8
448,128,67835,2,0,B|360:128|292:100,1,160
212,100,68487,2,0,B|172:100|132:116,1,80,8|0
64,156,68922,1,0
64,164,69030,1,2
64,172,69139,1,2
64,180,69248,1,2
64,188,69356,2,0,B|64:252|64:252|64:308|128:308,1,160,10|0
208,308,70009,2,0,B|252:308|284:328,2,80,0|8|2
192,272,70552,1,2
160,244,70661,6,0,B|256:244|304:188,1,160,6|8
344,116,71313,2,0,B|312:28|224:28,1,160
144,44,71965,2,0,B|100:52|80:88,2,80,8|0|0
256,160,72835,1,8
296,228,73052,1,0
368,264,73269,2,0,B|448:264,2,80,0|0|8
300,308,73922,5,0
216,308,74139,2,0,B|136:276|116:192,1,160,0|8
124,112,74791,1,0
180,56,75009,1,0
256,32,75226,1,0
332,56,75443,2,0,B|412:96|384:192,1,160,8|0
332,252,76095,2,0,B|296:276|256:276,2,80,0|8|0
444,136,76965,5,0
436,176,77183,1,8
424,212,77400,1,0
344,196,77835,5,0
336,236,78053,1,8
324,272,78270,1,0
256,232,78704,5,0
248,192,78922,1,8
236,156,79139,1,0
156,172,79574,5,0
148,132,79792,1,8
136,96,80009,1,0
256,84,80661,6,0,B|264:44|264:44|304:36,2,80,8|0|0
256,300,81530,2,0,B|248:340|248:340|208:348,2,80,8|0|0
140,192,82400,6,0,B|108:200|92:184|60:192,2,80,8|0|8
380,192,83269,1,8
220,192,83704,1,8
300,192,84139,5,10
300,176,84248,1,2
304,160,84356,1,2
312,144,84465,1,2
320,132,84574,1,6
256,192,84682,12,0,88052
