osu file format v9

[General]
AudioFilename: Anohana.mp3
AudioLeadIn: 2000
PreviewTime: 55554
Countdown: 0
SampleSet: Soft
StackLeniency: 0.5
Mode: 0
LetterboxInBreaks: 0

[Editor]
Bookmarks: 7372,21918,36463,54645
DistanceSpacing: 0.8
BeatDivisor: 4
GridSize: 4

[Metadata]
Title:Aoi Shiori(TV size)
Artist:Galileo Galilei
Creator:xykbear
Version:Easy
Source:Ano Hi Mita Hana no Namae wo Bokutachi wa Mada Shiranai
Tags:A-1 opening Jameskong1

[Difficulty]
HPDrainRate:2
CircleSize:4
OverallDifficulty:2
ApproachRate:3
SliderMultiplier:0.9
SliderTickRate:1

[Events]
//Background and Video events
Video,0,"Anohana.flv"
0,0,"wp_01d.jpg"
//Break Periods
//Storyboard Layer 0 (Background)
//Storyboard Layer 1 (Fail)
//Storyboard Layer 2 (Pass)
//Storyboard Layer 3 (Foreground)
//Storyboard Sound Samples
//Background Colour Transformations
3,100,0,128,255

[TimingPoints]
113,454.545454545455,4,2,1,30,1,0
7385,-100,4,2,1,50,0,0
55567,-100,4,2,1,70,0,1
73749,-133.333333333333,4,2,1,70,0,1
77385,-133.333333333333,4,2,1,50,0,1
84658,-100,4,2,1,30,0,0

[Colours]
Combo1 : 255,255,128
Combo2 : 128,255,128
Combo3 : 128,255,255
Combo4 : 255,128,192

[HitObjects]
168,80,113,2,0,B|256:48|344:80,2,180,8|0|0
168,224,2840,2,0,B|168:179,2,45,2|0|2
168,296,3749,6,0,B|256:328|344:296,2,180,8|0|0
256,184,6476,2,0,B|300:184,2,45,2|0|2
184,184,7385,6,0,B|96:184,1,90,4|8
64,252,8294,2,0,B|152:252,1,90,0|8
184,316,9203,2,0,B|216:356,2,45,0|0|8
328,316,10567,6,0,B|280:316,2,45,8|0|0
372,260,11476,2,0,B|420:260,2,45,8|0|0
328,204,12385,2,0,B|280:204,2,45,8|0|0
372,148,13294,2,0,B|410:125|458:149,2,90,8|0|8
312,108,14658,6,0,B|224:108,1,90,2|8
200,176,15567,2,0,B|288:176,1,90,0|8
312,244,16476,2,0,B|224:244,2,90,2|8|0
284,312,17840,5,8
284,312,18294,2,0,B|194:312,1,90
124,300,19203,1,8
148,368,19658,1,0
124,300,20113,2,0,B|68:212|124:132,1,180,2|0
256,80,21931,6,0,B|256:176,1,90,4|8
324,144,22840,2,0,B|324:232,1,90,0|8
392,208,23749,2,0,B|392:296,1,90,0|8
324,324,24658,2,0,B|324:276,2,45,0|0|8
252,320,25567,6,4,B|180:264|180:160,1,180,4|0
256,40,27385,2,0,B|328:96|328:200,1,180
184,200,29203,1,4
188,344,30113,6,0,B|276:344,1,90,0|8
276,272,31022,2,0,B|180:272,2,90
340,308,32385,1,0
412,308,32840,2,0,B|472:236|460:140,1,180,4|0
404,96,34203,5,8
404,96,34658,2,0,B|340:160,1,90,0|10
284,116,35567,2,0,B|220:180,1,90,8|10
220,248,36476,6,0,B|280:296|348:248|416:200|476:248,1,270,4|8
488,176,38294,6,0,B|448:96,1,90,0|8
400,152,39203,2,0,B|340:84,1,90,0|8
304,148,40113,6,0,B|216:136|124:152,1,180,4|4
256,216,41931,2,0,B|344:228|436:216,1,180,4|0
344,104,43749,6,0,B|256:64|169:104,1,180,4|2
172,248,45567,2,0,B|256:288|346:247,1,180,2|2
344,104,47385,6,0,B|432:104,3,90,4|8|2|8
432,176,49203,2,0,B|336:176,3,90,2|8|2|8
288,128,51022,6,0,B|200:144,1,90,4|8
128,128,51931,2,0,B|144:216,1,90,4|8
128,288,52840,2,0,B|216:272,1,90,4|8
288,288,53749,2,0,B|272:192,1,90,4|8
456,144,55567,6,0,B|472:192|456:240,3,90,4|8|0|8
416,288,57385,2,0,B|368:304|320:288,3,90,0|8|0|8
264,328,59203,6,0,B|250:287|266:239,3,90,4|8|0|8
320,192,61022,2,0,B|376:192|400:160,3,90,0|8|0|8
344,120,62840,5,0
344,120,63294,2,0,B|256:88|168:120,1,180,8|8
168,192,64658,2,0,B|96:192|96:240|96:296|168:296,1,180
308,296,66476,6,0,B|308:160,1,135,0|8
200,160,67840,1,8
200,231,68294,2,0,B|336:231,1,135,0|8
332,120,69658,1,8
404,120,70113,6,0,B|404:208,3,90,4|8|0|8
472,184,71931,2,0,B|472:272,3,90,4|8|0|8
404,276,73749,6,0,B|260:276,1,134.999995976687,4|2
364,180,75567,2,0,B|228:180,1,134.999995976687,4|2
324,84,77385,6,0,B|188:84,1,134.999995976687,4|2
92,180,79203,2,0,B|228:180,1,134.999995976687,2|2
322,275,81022,6,0,B|187:275,1,134.999995976687,4|2
92,180,82840,2,0,B|228:180,1,134.999995976687,2|2
296,180,84203,2,0,B|332:176|356:148,1,67.4999979883433,0|4
432,100,85112,5,0
432,280,86022,1,0
256,252,86931,2,0,B|224:260|196:252|168:264,2,90
