osu file format v11

[General]
AudioFilename: Galileo Galilei - Aoi Shiori.mp3
AudioLeadIn: 2500
PreviewTime: 44203
Countdown: 0
SampleSet: Normal
StackLeniency: 0.7
Mode: 1
LetterboxInBreaks: 0

[Editor]
DistanceSpacing: 1.2
BeatDivisor: 4
GridSize: 16

[Metadata]
Title:Aoi Shiori (TV Size)
TitleUnicode:青い栞 (TV Size)
Artist:Galileo Galilei
ArtistUnicode:Galileo Galilei
Creator:Kurai
Version:Taiko Fuutsu
Source:Ano Hi Mita Hana no Namae wo Bokutachi wa Mada Shiranai
Tags:Ano Hana opening Slanox Kurosanyan Kazey
BeatmapID:188481
BeatmapSetID:63753

[Difficulty]
HPDrainRate:3
CircleSize:4
OverallDifficulty:3
ApproachRate:5
SliderMultiplier:1.4
SliderTickRate:1

[Events]
//Background and Video events
0,0,"kuraiko.jpg"
//Break Periods
//Storyboard Layer 0 (Background)
//Storyboard Layer 1 (Fail)
//Storyboard Layer 2 (Pass)
//Storyboard Layer 3 (Foreground)
//Storyboard Sound Samples
//Background Colour Transformations
3,100,163,162,255

[TimingPoints]
113,454.545454545455,4,1,0,50,1,0
55567,454.545454545455,4,1,0,50,1,1
84657,-100,4,1,0,50,0,0

[Colours]
Combo1 : 255,128,0
Combo2 : 255,0,128

[HitObjects]
256,208,113,1,4,0:0:0
256,208,567,1,8,0:0:0
256,208,1476,1,8,0:0:0
256,208,2385,1,8,0:0:0
256,208,2840,1,0,0:0:0
256,208,3294,1,8,0:0:0
256,208,3749,1,4,0:0:0
256,208,4203,1,8,0:0:0
256,208,5112,1,8,0:0:0
256,208,6021,1,8,0:0:0
256,208,6476,1,0,0:0:0
256,208,6930,1,8,0:0:0
256,208,7385,1,4,0:0:0
256,208,7840,1,8,0:0:0
256,208,8749,1,8,0:0:0
256,208,9203,1,0,0:0:0
256,208,9658,1,8,0:0:0
256,208,10113,1,0,0:0:0
256,208,10340,1,0,0:0:0
256,208,10567,1,8,0:0:0
256,208,11022,1,0,0:0:0
256,208,11476,1,8,0:0:0
256,208,12385,1,8,0:0:0
256,208,12840,1,0,0:0:0
256,208,13294,1,8,0:0:0
256,208,13749,1,0,0:0:0
256,208,13976,1,0,0:0:0
256,208,14203,1,8,0:0:0
256,208,14658,1,0,0:0:0
256,208,15113,1,8,0:0:0
256,208,16022,1,8,0:0:0
256,208,16476,1,0,0:0:0
256,208,16931,1,8,0:0:0
256,208,17385,1,0,0:0:0
256,208,17613,1,0,0:0:0
256,208,17840,1,8,0:0:0
256,208,18294,1,0,0:0:0
256,208,18749,1,8,0:0:0
256,208,18976,1,0,0:0:0
256,208,19431,1,0,0:0:0
256,208,19658,1,8,0:0:0
256,208,20113,1,0,0:0:0
256,208,20567,1,8,0:0:0
256,208,21022,1,0,0:0:0
256,208,21249,1,0,0:0:0
256,208,21476,1,8,0:0:0
256,208,21931,1,4,0:0:0
256,208,22385,1,8,0:0:0
256,208,23294,1,8,0:0:0
256,208,23749,1,0,0:0:0
256,208,24203,1,8,0:0:0
256,208,25113,1,8,0:0:0
256,208,25567,1,0,0:0:0
256,208,26022,1,8,0:0:0
256,208,26476,1,0,0:0:0
256,208,26703,1,0,0:0:0
256,208,26931,1,8,0:0:0
256,208,27385,1,0,0:0:0
256,208,27840,1,8,0:0:0
256,208,28294,1,0,0:0:0
256,208,28522,1,0,0:0:0
256,208,28749,1,8,0:0:0
256,208,28976,1,0,0:0:0
256,208,29203,1,0,0:0:0
256,208,29658,1,8,0:0:0
256,208,30567,1,8,0:0:0
256,208,31022,1,0,0:0:0
256,208,31476,1,8,0:0:0
256,208,31703,1,0,0:0:0
256,208,32158,1,0,0:0:0
256,208,32385,1,8,0:0:0
256,208,32840,1,0,0:0:0
256,208,33294,1,8,0:0:0
256,208,34203,1,8,0:0:0
256,208,34658,1,0,0:0:0
256,208,35113,1,8,0:0:0
256,208,35567,1,8,0:0:0
256,208,36022,1,8,0:0:0
256,208,36476,1,4,0:0:0
256,208,37385,1,0,0:0:0
256,208,37840,1,0,0:0:0
256,208,38294,1,8,0:0:0
256,208,38749,1,0,0:0:0
256,208,38976,1,8,0:0:0
256,208,39431,1,0,0:0:0
256,208,39658,1,8,0:0:0
256,208,40113,1,4,0:0:0
256,208,41022,1,4,0:0:0
256,208,41931,1,4,0:0:0
256,208,43067,1,0,0:0:0
256,208,43294,1,8,0:0:0
256,208,43749,1,4,0:0:0
256,208,44431,1,0,0:0:0
256,208,44658,1,8,0:0:0
256,208,45340,1,8,0:0:0
256,208,45567,1,0,0:0:0
256,208,46022,1,8,0:0:0
256,208,46476,1,0,0:0:0
256,208,46703,1,0,0:0:0
256,208,46931,1,8,0:0:0
256,208,47385,1,4,0:0:0
256,208,47840,1,8,0:0:0
256,208,48749,1,8,0:0:0
256,208,49203,1,0,0:0:0
256,208,49658,1,8,0:0:0
256,208,49885,1,0,0:0:0
256,208,50340,1,0,0:0:0
256,208,50567,1,8,0:0:0
256,208,51022,1,4,0:0:0
256,208,51931,1,4,0:0:0
256,208,52840,1,4,0:0:0
256,208,53294,1,8,0:0:0
256,208,53749,1,4,0:0:0
256,208,54203,1,0,0:0:0
256,208,54431,1,0,0:0:0
256,208,54658,1,8,0:0:0
256,208,55567,1,4,0:0:0
256,208,56022,1,8,0:0:0
256,208,56476,1,0,0:0:0
256,208,56931,1,8,0:0:0
256,208,57385,1,0,0:0:0
256,208,57840,1,8,0:0:0
256,208,58067,1,0,0:0:0
256,208,58522,1,0,0:0:0
256,208,58749,1,8,0:0:0
256,208,59203,1,0,0:0:0
112,96,59658,1,8,0:0:0
256,208,60113,1,0,0:0:0
256,208,60567,1,8,0:0:0
256,208,60794,1,0,0:0:0
256,208,61022,1,0,0:0:0
256,208,61476,1,8,0:0:0
256,208,61703,1,0,0:0:0
256,208,62158,1,8,0:0:0
256,208,62613,1,8,0:0:0
256,208,62840,1,0,0:0:0
256,208,63294,1,8,0:0:0
256,208,64203,1,8,0:0:0
256,208,64658,1,0,0:0:0
256,208,65113,1,8,0:0:0
256,208,65340,1,0,0:0:0
256,208,65794,1,0,0:0:0
256,208,66022,1,8,0:0:0
256,208,66476,1,0,0:0:0
256,208,67385,1,0,0:0:0
256,208,68294,1,8,0:0:0
256,208,69203,1,0,0:0:0
256,208,70113,1,8,0:0:0
256,208,70567,1,8,0:0:0
256,208,71022,1,0,0:0:0
256,208,71476,1,8,0:0:0
256,208,71931,1,8,0:0:0
256,208,72385,1,0,0:0:0
256,208,72613,1,8,0:0:0
256,208,73067,1,8,0:0:0
256,208,73522,1,0,0:0:0
256,208,73749,1,8,0:0:0
256,208,74658,1,0,0:0:0
256,208,75567,1,8,0:0:0
256,208,76476,1,0,0:0:0
256,208,76931,1,8,0:0:0
256,208,77385,1,0,0:0:0
256,208,77840,1,8,0:0:0
256,208,78294,1,8,0:0:0
256,208,78749,1,8,0:0:0
256,208,79203,1,0,0:0:0
256,208,79658,1,8,0:0:0
256,208,80113,1,8,0:0:0
256,208,80567,1,8,0:0:0
256,208,81022,1,0,0:0:0
256,208,81476,1,8,0:0:0
256,208,81931,1,8,0:0:0
256,208,82385,1,8,0:0:0
256,208,82840,1,0,0:0:0
256,208,83294,1,8,0:0:0
256,208,83749,1,8,0:0:0
256,208,84203,1,0,0:0:0
256,208,84431,1,0,0:0:0
256,208,84658,1,8,0:0:0
256,192,85113,12,0,87157,0:0:0
