osu file format v11

[General]
AudioFilename: Galileo Galilei - Aoi Shiori.mp3
AudioLeadIn: 2500
PreviewTime: 44203
Countdown: 0
SampleSet: Soft
StackLeniency: 0.7
Mode: 0
LetterboxInBreaks: 0

[Editor]
DistanceSpacing: 1.2
BeatDivisor: 4
GridSize: 16

[Metadata]
Title:Aoi Shiori (TV Size)
TitleUnicode:青い栞 (TV Size)
Artist:Galileo Galilei
ArtistUnicode:Galileo Galilei
Creator:Kurai
Version:Normal
Source:Ano Hi Mita Hana no Namae wo Bokutachi wa Mada Shiranai
Tags:Ano Hana opening Slanox Kurosanyan Kazey
BeatmapID:188120
BeatmapSetID:63753

[Difficulty]
HPDrainRate:4
CircleSize:4
OverallDifficulty:4
ApproachRate:5
SliderMultiplier:1.4
SliderTickRate:1

[Events]
//Background and Video events
0,0,"BG.jpg"
Video,0,"AnoHana Opening.flv"
//Break Periods
//Storyboard Layer 0 (Background)
//Storyboard Layer 1 (Fail)
//Storyboard Layer 2 (Pass)
//Storyboard Layer 3 (Foreground)
//Storyboard Sound Samples
//Background Colour Transformations
3,100,163,162,255

[TimingPoints]
113,454.545454545455,4,2,0,50,1,0
55567,454.545454545455,4,1,0,50,1,1
84657,-100,4,1,0,50,0,0
87157,-100,4,2,0,5,0,0

[Colours]
Combo1 : 255,128,0
Combo2 : 255,0,128

[HitObjects]
64,48,113,2,0,B|112:32|168:48|184:104,1,140,8|8,3:0|0:0,0:0:0
168,176,794,2,0,B|168:224|208:256,1,70
360,224,1476,2,0,B|440:240,2,70,8|0|0,0:0|0:0|0:0,0:0:0
256,352,2385,1,8,0:0:0
176,320,2613,6,0,B|136:296|120:248,2,70
240,272,3294,1,2,0:0:0
192,112,3749,5,10,3:0:0
360,80,4203,2,0,B|336:128|360:176,1,70,8|0,0:0|0:0,0:0:0
416,200,4658,2,0,B|440:248|424:296|392:320|352:312,1,140,0|8,0:0|0:0,0:0:0
344,240,5340,1,0,0:0:0
272,280,5567,1,0,0:0:0
112,328,6022,1,8,0:0:0
152,256,6249,6,0,B|128:176,2,70
224,208,6931,1,2,0:0:0
256,40,7385,6,0,B|304:104|384:112,2,140,4|8|0,0:0|0:0|0:0,0:0:0
88,96,8749,1,8,0:0:0
112,176,8976,1,0,0:0:0
112,256,9203,2,0,B|120:304|160:336|192:336|224:328,1,140,0|8,0:0|0:0,0:0:0
384,320,10113,1,0,0:0:0
312,280,10340,1,0,0:0:0
384,240,10567,1,8,0:0:0
392,72,11022,6,0,B|328:72|328:72|280:72|256:104,1,140,2|8,0:0|0:0,0:0:0
184,56,11703,2,0,B|146:139|232:192,1,140,2|2,0:0|0:0,0:0:0
128,320,12613,1,2,0:0:0
48,352,12840,2,0,B|32:288|56:248|112:216|152:232|192:264,1,210,0|2,0:0|0:0,0:0:0
256,272,13749,2,0,B|312:280|392:256|392:248,1,140,0|8,0:0|0:0,0:0:0
312,104,14658,5,4,0:0:0
144,80,15113,2,0,B|160:120|144:160,1,70,8|2,0:0|0:0,0:0:0
80,200,15567,2,0,B|48:232|40:296|104:336,1,140,0|8,0:0|0:0,0:0:0
256,336,16476,1,0,0:0:0
424,320,16931,1,8,0:0:0
456,184,17385,2,0,B|424:112,2,70,2|0|8,0:0|0:0|0:0,0:0:0
288,192,18294,5,2,0:0:0
120,200,18749,2,0,B|152:272,1,70,8|0,0:0|0:0,0:0:0
56,128,19431,1,2,0:0:0
136,104,19658,2,0,B|160:72|160:16,2,70,8|0|0,0:0|0:0|0:0,0:0:0
280,184,20567,1,8,0:0:0
296,96,20794,1,2,0:0:0
384,88,21022,1,0,0:0:0
456,240,21476,1,8,0:0:0
304,296,21931,6,2,B|248:240|160:232,1,140,4|10,0:0|0:0,0:0:0
104,264,22613,1,0,0:0:0
112,184,22840,2,0,B|104:112|51:59,1,140,2|10,0:0|0:0,0:0:0
200,136,23749,1,0,0:0:0
360,88,24203,1,8,0:0:0
448,320,25340,5,2,0:0:0
368,288,25567,2,0,B|312:272|256:288|232:320,1,140,4|8,0:0|0:0,0:0:0
88,232,26476,2,0,B|63:257|71:297,2,70,2|0|8,0:0|0:0|0:0,0:0:0
161,182,27158,1,0,0:3:0
113,110,27385,5,2,0:3:0
272,48,27840,1,8,0:0:0
408,144,28294,2,0,B|352:200,1,70,8|0,0:0|0:0,0:0:0
432,232,28749,2,0,B|424:304,1,70,8|0,0:0|0:0,0:0:0
344,320,29203,1,4,0:0:0
32,192,30113,5,2,0:0:0
120,336,30567,1,8,0:0:0
136,256,30794,1,2,0:0:0
184,192,31022,2,0,B|248:136|224:56,1,140,0|8,0:0|0:0,0:0:0
304,32,31703,2,0,B|376:152,1,140,2|0,0:0|0:0,0:0:0
456,168,32385,1,8,0:0:0
328,280,32840,1,4,0:0:0
48,336,33976,5,2,0:0:0
120,288,34203,1,2,0:0:0
144,208,34431,1,0,0:0:0
112,128,34658,2,0,B|96:80|112:40|144:16,2,105,4|0|0,0:0|0:0|0:0,0:0:0
184,88,35567,2,0,B|296:88,2,105,4|2|0,0:0|0:0|0:0,0:0:0
232,160,36476,6,0,B|336:160|336:160|360:160|392:160|416:184|416:216|416:240|416:240|416:296,1,280,4|2,0:0|0:0,0:0:0
248,272,37840,1,2,0:0:0
96,344,38294,6,0,B|48:288|48:200,1,140,0|8,0:0|0:0,0:0:0
64,136,38976,1,0,0:0:0
224,72,39431,2,0,B|320:96,2,70,2|8|0,0:0|0:0|0:0,0:0:0
232,160,40113,6,0,B|280:208|296:248|304:288,1,140,4|8,0:0|0:0,0:0:0
464,320,41022,2,0,B|488:216,2,105,4|0|0,0:0|0:0|0:0,0:0:0
384,296,41931,5,4,0:0:0
304,144,42385,1,0,0:0:0
136,136,42840,1,0,0:0:0
216,280,43294,1,0,0:0:0
384,296,43749,5,4,0:0:0
376,64,44431,1,0,0:0:0
448,112,44658,1,4,0:0:0
200,120,45340,2,0,B|136:152,1,70,2|0,0:0|0:0,0:0:0
168,232,45794,2,0,B|96:232,1,70,0|8,0:0|0:0,0:0:0
96,320,46249,2,0,B|24:288,2,70,0|0|2,0:0|0:0|0:0,0:0:0
264,344,47158,1,2,0:0:0
344,328,47385,5,4,0:0:0
424,184,47840,1,8,0:0:0
256,184,48294,1,0,0:0:0
176,328,48749,1,8,0:0:0
112,272,48976,6,0,B|104:232|112:200,1,70,2|0,0:0|0:0,0:0:0
72,128,49431,2,0,B|112:48,1,70,0|8,0:0|0:0,0:0:0
176,104,49885,2,0,B|256:120|312:80,1,140,0|2,0:0|0:0,0:0:0
384,48,50567,5,8,0:0:0
424,120,50794,1,0,0:0:0
464,192,51022,1,4,0:0:0
256,352,51931,1,4,0:0:0
48,192,52840,5,4,0:0:0
112,40,53294,1,8,0:0:0
256,128,53749,1,4,0:0:0
400,40,54203,1,2,0:0:0
432,116,54431,1,2,0:0:0
464,192,54658,1,4,0:0:0
184,160,55567,5,4,0:0:0
160,288,56022,2,0,B|128:320|80:328,1,70,8|0,0:0|0:0,0:0:0
48,256,56476,1,0,0:0:0
120,104,56931,1,8,0:0:0
192,64,57157,1,0,0:0:0
272,80,57385,2,0,B|312:120|312:200,2,105
224,240,58522,1,0,0:0:0
48,144,59203,6,0,B|24:96|40:32,2,105,0|8|0,0:0|0:0|0:0,0:0:0
128,192,60112,2,0,B|248:168,2,105,0|8|0,0:0|0:0|0:0,0:0:0
56,232,61022,5,0,0:0:0
200,312,61476,1,8,0:0:0
280,288,61703,1,0,0:0:0
440,336,62157,2,0,B|400:312|384:272,1,70,0|8,0:0|0:0,0:0:0
448,128,62840,5,4,0:0:0
112,88,63748,2,0,B|192:72|256:96,1,140,0|8,0:0|0:0,0:0:0
296,168,64430,1,0,0:0:0
232,224,64657,6,0,B|192:248|184:288|192:328|224:352|248:352,1,140,0|8,0:0|0:0,0:0:0
288,288,65340,1,0,0:0:0
432,192,65794,1,0,0:0:0
432,112,66021,1,8,0:0:0
376,48,66248,1,0,0:0:0
288,48,66476,6,0,B|200:56|135:102|106:164,2,210,0|2|8,0:0|2:0|0:0,0:0:0
208,192,68294,2,0,B|126:157|79:93|70:25,2,210,0|2|8,0:0|2:0|0:0,0:0:0
312,320,70112,6,0,B|472:320,2,140,4|8|0,0:0|0:0|0:0,0:0:0
200,256,71362,2,0,B|96:256,1,105,0|0,0:0|0:0,0:0:0
64,176,71930,6,0,B|128:136|128:40,1,140,4|8,0:0|0:0,0:0:0
208,40,72613,1,0,0:0:0
344,136,73067,1,8,0:0:0
264,152,73294,1,0,0:0:0
208,216,73521,6,0,B|232:288,1,70,0|4,0:0|0:0,0:0:0
456,48,74658,1,8,0:0:0
424,296,75340,1,0,0:0:0
408,216,75567,6,0,B|352:232|304:232|248:200,1,140,8|8,0:0|0:0,0:0:0
232,48,76476,2,0,B|152:32|88:88,1,140,0|8,0:0|0:0,0:0:0
128,248,77385,6,0,P|320:192|344:232,2,280,4|0|0,0:0|0:0|0:0,0:0:0
288,288,79657,1,8,0:0:0
464,48,80567,1,8,0:0:0
296,48,81021,6,0,P|80:88|160:368,2,560,4|0|4,0:0|0:0|0:0,0:0:0
256,192,84771,12,2,87157,0:0:0
