osu file format v9

[General]
AudioFilename: Toki wo kakeru Shoujo.mp3
AudioLeadIn: 1500
PreviewTime: 55759
Countdown: 0
SampleSet: Soft
StackLeniency: 0.7
Mode: 0
LetterboxInBreaks: 1

[Editor]
DistanceSpacing: 0.9
BeatDivisor: 4
GridSize: 8

[Metadata]
Title:Aoi Shiori (TV Size)
Artist:Galileo Galilei
Creator:Disoy
Version:Dis
Source:Ano Hi Mita Hana no Namae wo Bokutachi wa Mada Shiranai
Tags:lkp aabc271

[Difficulty]
HPDrainRate:7
CircleSize:4
OverallDifficulty:7
ApproachRate:8
SliderMultiplier:1.8
SliderTickRate:1

[Events]
//Background and Video events
Video,0,"OP.flv"
0,0,"BG.jpg"
//Break Periods
//Storyboard Layer 0 (Background)
//Storyboard Layer 1 (Fail)
//Storyboard Layer 2 (Pass)
//Storyboard Layer 3 (Foreground)
//Storyboard Sound Samples
//Background Colour Transformations
3,100,255,187,255

[TimingPoints]
310,454.545454545455,4,2,2,30,1,0
537,-100,4,2,1,50,0,0
3946,-100,4,2,2,30,0,0
4173,-100,4,2,1,50,0,0
7128,-100,4,2,2,30,0,0
7185,-100,4,2,2,5,0,0
7355,-100,4,2,1,5,0,0
7582,-100,4,2,1,20,0,0
7810,-100,4,2,1,30,0,0
8491,-100,4,1,1,30,0,0
8946,-100,4,2,1,30,0,0
10310,-100,4,1,1,30,0,0
10764,-100,4,2,1,30,0,0
12128,-100,4,1,1,30,0,0
12582,-100,4,2,1,30,0,0
13946,-100,4,1,1,30,0,0
14400,-100,4,2,1,30,0,0
14628,-100,4,2,2,20,0,0
14855,-100,4,2,1,30,0,0
15764,-100,4,1,1,30,0,0
16219,-100,4,2,1,30,0,0
17582,-100,4,1,1,30,0,0
18037,-100,4,2,1,30,0,0
19400,-100,4,1,1,30,0,0
19855,-100,4,2,1,30,0,0
21332,-100,4,1,2,30,0,0
21673,-100,4,2,1,30,0,0
21900,-100,4,2,2,20,0,0
22128,-100,4,2,1,30,0,0
23037,-100,4,1,1,30,0,0
23491,-100,4,2,1,30,0,0
24855,-100,4,1,1,30,0,0
25310,-100,4,2,1,30,0,0
25764,-100,4,1,1,30,0,0
25991,-100,4,2,1,30,0,0
26105,-100,4,1,1,30,0,0
26219,-100,4,2,1,30,0,0
26446,-100,4,2,1,30,0,0
26560,-100,4,1,1,30,0,0
26787,-100,4,1,2,30,0,0
27128,-100,4,2,1,30,0,0
27355,-100,4,1,1,30,0,0
27810,-100,4,2,1,30,0,0
28491,-100,4,1,1,30,0,0
28946,-100,4,2,1,30,0,0
29173,-100,4,2,2,30,0,0
29400,-100,4,2,1,30,0,0
30310,-100,4,1,1,30,0,0
30764,-100,4,2,1,30,0,0
31219,-100,4,1,1,30,0,0
31446,-100,4,2,1,30,0,0
31787,-100,4,1,1,30,0,0
32014,-100,4,1,2,30,0,0
32355,-100,4,1,1,30,0,0
32582,-100,4,2,1,30,0,0
32810,-100,4,1,1,30,0,0
33264,-100,4,1,2,30,0,0
33491,-100,4,2,1,30,0,0
33946,-100,4,1,1,30,0,0
34400,-100,4,2,1,30,0,0
35082,-100,4,1,1,30,0,0
35310,-100,4,2,1,30,0,0
35537,-100,4,1,1,30,0,0
35764,-100,4,2,1,30,0,0
36446,-100,4,1,2,30,0,0
36673,-133.333333333333,4,2,1,10,0,0
37128,-133.333333333333,4,2,1,30,0,0
37355,-133.333333333333,4,1,1,30,0,0
37923,-133.333333333333,4,2,1,30,0,0
38491,-100,4,1,1,30,0,0
38719,-100,4,2,1,30,0,0
39400,-100,4,1,1,30,0,0
39855,-100,4,2,1,30,0,0
40310,-100,4,2,1,10,0,0
40537,-100,4,2,1,30,0,0
41219,-100,4,1,1,30,0,0
41560,-100,4,2,1,30,0,0
41900,-100,4,2,1,30,0,0
42014,-100,4,1,2,30,0,0
42128,-100,4,2,1,30,0,0
42469,-100,4,1,1,30,0,0
42810,-100,4,2,1,30,0,0
43037,-100,4,1,1,30,0,0
43264,-100,4,2,1,30,0,0
43946,-100,4,2,1,20,0,0
44173,-100,4,2,1,30,0,0
45196,-100,4,1,1,30,0,0
45537,-100,4,2,1,30,0,0
46673,-100,4,1,1,30,0,0
47128,-100,4,2,1,30,0,0
47582,-100,4,2,1,20,0,0
47810,-100,4,2,1,30,0,0
48491,-100,4,1,1,30,0,0
48946,-100,4,2,1,30,0,0
49060,-100,4,1,2,30,0,0
49173,-100,4,1,1,30,0,0
49400,-100,4,2,1,30,0,0
50310,-100,4,1,1,30,0,0
50537,-100,4,2,1,30,0,0
50650,-100,4,1,1,30,0,0
50878,-100,4,1,2,30,0,0
51219,-100,4,2,1,20,0,0
51446,-100,4,2,1,30,0,0
52128,-100,4,1,1,30,0,0
52582,-100,4,2,1,30,0,0
53150,-100,4,1,2,30,0,0
53491,-100,4,2,1,30,0,0
53605,-100,4,1,2,30,0,0
53946,-100,4,1,1,30,0,0
54173,-100,4,2,1,30,0,0
54855,-200,4,2,1,10,0,0
55310,-200,4,2,1,5,0,0
55764,454.545454545455,4,2,1,20,1,1
55991,-100,4,1,1,40,0,1
56219,-100,4,2,1,40,0,1
56446,-100,4,1,1,30,0,1
57128,-100,4,2,1,40,0,1
57355,-100,4,2,2,20,0,1
57582,-100,4,1,1,30,0,1
58037,-100,4,2,1,40,0,1
58264,-100,4,1,1,30,0,1
58946,-100,4,2,1,40,0,1
59400,-100,4,1,1,40,0,1
59855,-100,4,2,1,40,0,1
60082,-100,4,1,1,30,0,1
60764,-100,4,2,1,40,0,1
60991,-100,4,2,2,20,0,1
61219,-100,4,1,1,30,0,1
61673,-100,4,2,1,40,0,1
62355,-100,4,1,2,30,0,1
62582,-100,4,2,1,40,0,1
62810,-100,4,1,1,30,0,1
63037,-100,4,2,1,20,0,1
63264,-100,4,1,1,30,0,1
63491,-100,4,2,1,40,0,1
63946,-100,4,1,1,30,0,1
64400,-100,4,2,1,40,0,1
64855,-100,4,1,1,30,0,1
65310,-100,4,2,1,40,0,1
65764,-100,4,1,1,30,0,1
66219,-100,4,2,1,40,0,1
66673,-100,4,1,1,30,0,1
67128,-100,4,2,1,40,0,1
67241,-100,4,1,2,30,0,1
67469,-100,4,1,1,30,0,1
68037,-100,4,2,1,40,0,1
68264,-100,4,1,1,30,0,1
68491,-100,4,2,1,40,0,1
68605,-100,4,1,2,30,0,1
68946,-100,4,2,1,40,0,1
69287,-100,4,1,1,30,0,1
69855,-100,4,2,1,40,0,1
70537,-100,4,1,1,30,0,1
70991,-100,4,1,2,30,0,1
71673,-100,4,2,2,10,0,1
72128,-100,4,2,1,20,0,1
72355,-100,4,2,1,40,0,1
72469,-100,4,1,1,30,0,1
72810,-100,4,2,1,40,0,1
72923,-100,4,1,2,30,0,1
73719,-100,4,2,1,40,0,1
73946,-100,4,2,1,20,0,0
74173,-100,4,1,1,30,0,0
74400,-100,4,2,1,40,0,0
74855,-100,4,1,1,30,0,0
75310,-100,4,2,1,40,0,0
75764,-100,4,1,1,30,0,0
75991,-100,4,2,1,40,0,0
76673,-100,4,1,1,30,0,0
77128,-100,4,2,1,40,0,0
77355,-100,4,2,2,20,0,0
77582,-100,4,1,1,30,0,0
77810,-100,4,2,1,40,0,0
78491,-100,4,1,1,30,0,0
78946,-100,4,2,1,40,0,0
79400,-100,4,1,1,30,0,0
79628,-100,4,2,1,40,0,0
80310,-100,4,1,1,30,0,0
80764,-100,4,2,1,40,0,0
84400,-100,4,1,1,30,0,0
84628,-100,4,1,2,30,0,0
84855,-100,4,2,1,30,0,0
87355,-133.333333333333,4,2,1,20,0,0
87582,-133.333333333333,4,2,1,5,0,0
88037,-133.333333333333,4,1,2,5,0,0

[Colours]
Combo1 : 255,150,0
Combo2 : 227,227,227
Combo3 : 0,113,225
Combo4 : 255,128,255

[HitObjects]
184,160,310,6,0,B|240:168|264:216,1,90,4|0
192,248,764,1,0
400,304,991,5,2
400,224,1219,2,0,B|344:232|320:280,1,90
256,328,1673,6,0,B|152:328,1,90,0|2
24,184,2128,2,0,B|128:184,1,90
184,128,2582,5,0
384,112,2810,1,2
360,80,2923,1,0
320,72,3037,2,0,B|264:144,1,90
280,232,3491,6,0,B|360:184|472:240,1,180,0|4
392,296,4173,2,0,B|375:313|375:313|347:330|347:330|325:353,2,90,0|0|2
144,216,4855,5,0
80,168,5082,1,0
144,216,5310,2,0,B|160:233|160:233|188:250|188:250|210:273,1,90,0|2
384,120,5764,5,0
448,72,5991,1,0
384,120,6219,2,0,B|367:137|367:137|339:154|339:154|317:177,1,90,0|2
256,64,6673,5,0
256,144,6900,1,0
256,224,7128,2,0,B|256:320,1,90,4|0
160,304,7582,6,0,B|120:288|64:296,1,90,4|0
104,208,8037,2,0,B|48:208|16:192,1,90,8|0
72,120,8491,5,0
168,72,8719,1,0
272,48,8946,1,8
376,40,9173,1,0
392,40,9287,1,0
408,40,9400,2,0,B|456:32|504:40,1,90
424,208,9855,6,0,B|376:216|328:208,1,90,8|0
224,176,10310,1,0
304,288,10537,1,0
144,256,10764,1,8
224,360,10991,1,0
224,360,11219,6,0,B|128:336|24:360,1,180,0|8
48,208,11900,2,0,B|64:264|120:272,1,90
224,184,12355,2,0,B|170:161|128:199,1,90,0|8
152,336,12810,2,0,B|198:300|185:245,1,90
88,120,13264,5,0
160,80,13491,2,0,B|240:40|336:72,1,180,8|0
456,112,14173,1,0
360,200,14400,1,8
384,128,14628,5,4
456,216,14855,6,0,B|440:264|448:328,1,90
272,352,15310,2,0,B|288:304|280:240,1,90,8|0
208,240,15764,5,0
128,216,15991,1,0
48,224,16219,1,8
112,176,16446,5,0
128,160,16560,1,0
144,144,16673,2,0,B|184:120|208:48,1,90
120,56,17128,5,8
264,128,17355,2,0,B|264:192|304:216,1,90
392,200,17810,2,0,B|392:264|352:288,1,90,0|8
288,304,18264,1,0
232,360,18491,6,0,B|144:320|32:368,1,180,0|8
32,280,19173,2,0,B|72:192,1,90
136,248,19628,2,0,B|168:160,1,90,0|8
424,256,20082,5,0
408,224,20196,1,0
392,184,20310,2,0,B|352:96,1,90
288,152,20764,2,0,B|256:64,1,90,8|0
200,128,21219,5,0
168,152,21332,1,2
128,160,21446,1,2
176,224,21673,5,8
408,272,21900,1,4
296,232,22128,6,0,B|336:152,1,90
424,136,22582,2,0,B|384:56,1,90,8|0
296,48,23037,6,0,B|224:64|176:32,1,90
120,32,23491,1,8
176,96,23719,2,0,B|208:152|192:208,1,90
168,216,24060,1,0
128,232,24173,1,0
40,248,24400,5,8
184,304,24628,1,0
40,328,24855,1,0
128,232,25082,1,0
128,360,25310,1,8
264,296,25537,5,0
304,280,25650,1,0
344,264,25764,2,0,B|408:280|456:240,1,90
472,200,26105,2,0,B|416:192,1,45,0|8
384,80,26446,2,0,B|448:64,2,45,8|0|0
344,104,26787,5,2
296,112,26900,2,0,B|200:88,1,90,2|0
104,104,27355,5,0
224,224,27582,1,0
120,200,27810,6,0,B|64:240|8:232,1,90,0|8
8,200,28150,1,0
48,216,28264,2,0,B|96:256|88:304,1,90
80,336,28605,1,0
120,320,28719,2,0,B|168:296|216:304,1,90,0|8
360,344,29173,5,4
296,280,29400,2,0,B|368:232|480:240,1,180,0|8
456,152,30082,2,0,B|368:120,1,90
280,96,30537,2,0,B|392:72,2,90,0|8|0
192,88,31219,5,0
152,80,31332,1,0
112,72,31446,1,0
112,160,31673,5,8
56,176,31787,1,0
24,224,31900,1,0
24,280,32014,1,2
56,320,32128,2,0,B|176:344,1,90,2|0
416,224,32582,6,0,B|296:200,1,90,8|0
280,208,32923,2,0,B|224:224,1,45,0|0
256,344,33264,6,0,B|328:320,1,45,2|2
344,320,33491,2,0,B|400:304|456:328,1,90,8|0
488,248,33946,2,0,B|448:184,1,45
400,224,34173,2,0,B|424:160,1,45
464,144,34400,6,0,B|392:104|288:128,1,180,8|0
128,104,35082,1,0
256,208,35310,1,8
216,48,35537,1,0
152,200,35764,2,0,B|104:240,2,45,8|8|8
208,128,36219,5,8
272,144,36332,1,8
328,184,36446,1,2
360,240,36559,1,2
368,304,36673,2,0,B|424:288|504:304,1,134.999995976687,4|8
248,248,37355,5,0
248,248,37809,1,0
216,264,37923,1,8
184,280,38037,2,0,B|104:296,1,67.4999979883433
64,224,38491,6,0,B|112:192|128:136,1,90
80,80,38946,2,0,B|128:144|200:128,1,135,8|8
240,120,39400,2,0,B|288:96|288:48,1,90
200,40,39855,1,8
328,144,40082,5,0
416,120,40309,2,0,B|448:160|496:168,1,90,4|0
392,208,40764,2,0,B|360:248|312:256,1,90,8|0
224,256,41219,6,0,B|152:240|80:272,2,135,0|8|0
264,280,42014,1,2
256,232,42128,2,0,B|320:200|400:216,2,135,0|0|8
184,288,43037,5,0
112,336,43264,1,8
64,344,43378,1,8
24,328,43491,1,8
72,256,43719,5,0
24,176,43946,2,0,B|48:88,1,90,4|0
104,184,44400,2,0,B|192:120,1,90,8|0
160,240,44855,2,0,B|280:248,1,90,0|8
288,272,45196,1,0
320,296,45309,6,0,B|432:248,1,90,0|8
336,160,45764,2,0,B|440:184,1,90
416,48,46219,2,0,B|488:128,2,90,8|0|0
328,64,46900,5,0
248,112,47128,2,0,B|192:136|144:120,1,90,8|0
72,104,47582,2,0,B|120:144|128:192,1,90,4|0
264,272,48037,6,0,B|320:248|368:264,1,90,8|0
440,280,48491,2,0,B|392:240|384:192,1,90
376,120,48946,1,8
392,80,49059,1,2
424,56,49173,1,0
288,128,49400,6,0,B|240:176|144:160,1,135
120,144,49855,2,0,B|48:224,1,90,8|0
112,288,50309,2,0,B|144:248,1,45,0|0
208,256,50537,2,0,B|176:304,1,45,8|0
200,360,50764,2,0,B|232:320,1,45,0|2
272,320,50991,6,0,B|320:304|392:336,1,90,2|4
440,368,51446,1,0
392,288,51673,5,8
384,192,51900,1,0
408,88,52128,1,0
344,184,52355,5,0
224,232,52582,1,8
88,224,52809,1,0
224,232,53037,6,0,B|272:192,1,45,8|2
192,192,53264,2,0,B|227:140,1,45,2|2
152,160,53491,2,0,B|169:99,1,45,8|2
104,144,53719,2,0,B|112:56,2,90,2|0|8
40,176,54287,5,8
104,168,54400,1,8
168,184,54514,1,8
224,216,54628,1,8
256,272,54741,1,8
264,336,54855,6,0,B|336:312|400:352|448:320,1,180,0|4
456,232,55991,6,0,B|384:224|368:288,1,90,0|8
328,336,56446,1,0
288,352,56559,1,0
240,360,56673,2,0,B|176:368|128:344,1,90
32,304,57128,6,0,B|80:272|144:280,1,90,8|4
208,280,57582,1,0
296,296,57809,1,0
232,240,58037,1,8
184,168,58264,5,0
208,112,58378,1,0
264,88,58491,2,0,B|312:96|360:80,1,90
424,24,58946,2,0,B|336:72|360:184,1,180,8|0
464,328,59628,6,0,B|496:288|472:224,1,90,0|8
392,272,60082,1,0
352,288,60196,1,0
312,304,60309,2,0,B|224:264,1,90
48,280,60764,6,0,B|144:328,1,90,8|4
288,192,61219,1,0
200,184,61446,6,0,B|171:98,1,90,0|8
248,48,61900,2,0,B|328:96|448:56,1,180,0|2
464,40,62469,1,2
440,80,62582,2,0,B|400:144|432:200,1,90,8|0
488,224,63037,2,0,B|464:320,1,90,4|0
272,328,63491,6,0,B|312:232,1,90,8|0
192,144,63946,2,0,B|224:232,2,90,0|0|8
392,328,64628,1,0
312,344,64855,6,0,B|224:312|128:352,1,180,0|8
40,232,65537,2,0,B|136:280,1,90
248,152,65991,2,0,B|152:208,2,90,0|8|0
312,216,66673,6,0,B|360:240|408:224,1,90
360,144,67128,1,8
400,136,67241,1,2
440,144,67355,2,0,B|480:168,2,45,2|0|0
312,64,67809,6,0,B|264:40|200:56,1,90,0|8
80,120,68264,1,0
168,152,68491,1,8
216,152,68605,1,2
256,136,68719,1,2
328,72,68946,6,0,B|392:48|480:64,1,135,8|0
504,72,69400,1,0
392,136,69628,1,0
456,184,69855,6,0,B|472:232|440:256|472:296,1,90,8|0
376,312,70309,1,8
296,272,70537,1,0
192,264,70764,1,0
72,288,70991,1,2
184,224,71219,5,2
264,152,71446,1,2
296,72,71673,2,0,B|368:104|424:64|424:64|496:80,1,180,0|4
464,168,72355,6,0,B|512:216,2,45,8|0|0
384,216,72809,2,0,B|408:288,2,45,8|2|2
192,240,73264,6,0,B|144:288,2,45,2|2|2
272,288,73719,2,8,B|248:360,1,45
216,336,73946,2,0,B|152:320|104:344,1,90,4|0
40,368,74400,5,8
312,272,74628,2,0,B|376:256|424:280,2,90
488,304,75309,5,8
192,200,75537,2,0,B|128:184|80:208,2,90
16,232,76219,5,8
104,216,76446,1,0
168,160,76673,1,0
184,120,76787,1,0
184,72,76900,1,0
104,104,77128,5,8
272,72,77355,1,4
352,104,77582,6,0,B|312:200,1,90
344,272,78037,2,0,B|248:232|152:280,1,180,8|0
112,336,78719,1,0
424,240,78946,6,0,B|464:224|512:224,2,90,8|0|0
352,184,79628,5,0
264,216,79855,2,0,B|168:256|72:208,1,180,8|0
40,144,80537,1,0
104,80,80764,1,8
184,112,80991,1,0
176,200,81219,6,0,B|264:184,1,90
248,272,81673,2,0,B|336:256,1,90,8|0
512,120,82128,6,0,B|424:104,1,90
440,192,82582,2,0,B|352:176,1,90,8|0
280,120,83037,5,0
192,88,83264,1,0
50,188,83491,2,0,B|136:160,1,90,8|0
216,208,83946,1,8
144,264,84173,5,8
176,296,84287,1,8
216,312,84400,1,0
264,312,84514,1,0
304,296,84628,1,2
336,264,84741,1,2
344,224,84855,5,0
280,160,85082,1,0
184,144,85309,1,0
80,160,85537,1,2
144,224,85764,5,0
240,248,85991,1,0
352,248,86219,1,0
456,216,86446,1,2
376,144,86673,5,0
320,72,86900,1,0
256,120,87128,1,0
256,192,87355,22,0,B|264:208|264:208|248:208|248:208|256:216|256:216|264:224|264:224|248:224|248:224|256:232|256:232|264:240|264:240|248:240|248:240|256:248|256:248|256:336,1,202.49999396503,2|0
