osu file format v9

[General]
AudioFilename: 36_Almagest_Galdeira.mp3
AudioLeadIn: 0
PreviewTime: 16506
Countdown: 1
SampleSet: Soft
StackLeniency: 0.7
Mode: 2
LetterboxInBreaks: 1

[Editor]
DistanceSpacing: 0.8
BeatDivisor: 4
GridSize: 8

[Metadata]
Title:Almagest(for ctb)
Artist:Galdeira
Creator:MountainBrother
Version:ctb
Source:IIDX
Tags:DJMAX

[Difficulty]
HPDrainRate:5
CircleSize:4
OverallDifficulty:9
ApproachRate:9
SliderMultiplier:3
SliderTickRate:1

[Events]
//Background and Video events
0,0,"BG.png"
//Break Periods
//Storyboard Layer 0 (Background)
Sprite,Background,Centre,"BG2.jpg",300,300 F,0,327,3024,0,1 M,0,3024,16506,320,240 F,0,12462,13768,1,0.25 F,0,38079,,0.25,1 F,0,62349,,1,0 F,0,85270,,0,1 F,0,94709,96057,1,0
Sprite,Background,Centre,"BG.png",300,300 F,0,16085,16506,0,1 M,0,16506,38079,320,240 F,0,38080,38081,1,0 F,0,38542,,0,1 M,0,38543,39091,320,240 F,0,39091,,1,0 F,0,62349,63697,0,1 F,0,83922,85270,1,0.5
Sprite,Background,Centre,"BG3.jpg",300,300 M,0,13768,16085,300,250 F,0,16085,16506,1,0 F,0,39428,,0,1 M,0,39428,62349,300,250 F,0,48866,50214,1,0 F,0,50214,,0,1 F,0,61001,,1,0 F,0,61675,,0,1 F,0,62349,63697,1,0
//Storyboard Layer 1 (Fail)
//Storyboard Layer 2 (Pass)
//Storyboard Layer 3 (Foreground)
//Storyboard Sound Samples
//Background Colour Transformations
3,100,0,0,0

[TimingPoints]
3024,674.157303370787,4,2,0,100,1,0
12462,337.078651685393,4,2,0,100,1,0
18192,-50,4,2,0,100,0,0
18360,-100,4,2,0,100,0,0
18866,-50,4,2,0,100,0,0
19035,-100,4,2,0,100,0,0
48866,-200,4,2,0,100,0,0
50130,-100,4,2,0,100,0,0

[HitObjects]
256,192,327,8,0,2686
48,120,3024,6,0,B|184:240,1,150
352,96,3529,2,0,B|216:168,1,150
344,184,4035,1,0
256,248,4203,1,0
464,120,4372,6,0,B|328:240,1,150
160,96,4877,2,0,B|296:168,1,150
168,184,5383,1,0
256,248,5551,1,0
96,128,5720,5,0
296,128,5889,2,0,B|221:128,2,75
416,128,6394,5,0
224,128,6563,2,0,B|299:128,2,75
56,176,7068,5,0
216,176,7237,1,0
136,176,7406,1,0
296,176,7574,1,0
456,256,7743,5,0
296,256,7911,1,0
376,256,8081,1,0
216,256,8249,1,0
400,64,8417,5,0
234,64,8585,2,0,B|272:64,2,37.5
400,168,8922,1,0
248,160,9091,5,0
96,160,9259,2,0,B|133:160,2,37.5
248,256,9597,1,0
408,256,9765,6,0,B|446:256,4,37.5
248,328,10271,1,0
304,256,10439,5,0
192,256,10608,1,0
360,176,10776,1,0
136,176,10945,1,0
344,88,11113,6,0,B|306:88,1,37.5
176,88,11282,2,0,B|213:88,1,37.5
352,160,11450,2,0,B|390:160,1,37.5
248,160,11619,2,0,B|211:160,1,37.5
352,240,11788,6,0,B|304:240,3,37.5
176,240,12125,2,0,B|213:240,3,37.5
320,64,12462,6,0,B|248:64,30,37.5,0|0|0|0|0|0|0|0|0|0|0|0|0|0|0|0|0|0|0|0|0|0|0|0|0|0|0|0|0|0|0
288,184,13810,5,0
224,184,13894,1,0
160,184,13978,1,0
96,184,14063,1,0
224,248,14147,5,0
288,248,14231,1,0
352,248,14315,1,0
416,248,14400,1,0
296,112,14484,5,0
216,112,14568,1,0
296,112,14652,1,0
216,112,14737,1,0
296,112,14821,5,0
216,112,14905,1,0
296,112,14989,1,0
216,112,15074,1,0
320,48,15158,5,0
248,48,15242,1,0
184,48,15327,1,0
128,48,15411,1,0
184,48,15495,5,0
248,48,15579,1,0
320,48,15664,1,0
384,48,15748,1,0
448,48,15832,5,0
448,88,15917,1,0
16,120,16085,5,0
352,144,16254,5,0
512,192,16506,6,0,B|448:128,1,75
400,200,16675,2,0,B|336:136,1,75
280,200,16844,2,0,B|216:136,1,75
160,200,17012,2,0,B|88:136,1,75
32,192,17181,6,0,B|96:128,1,75
144,200,17350,2,0,B|208:136,1,75
264,200,17518,2,0,B|328:136,1,75
384,200,17687,2,0,B|456:136,1,75
504,128,17855,6,0,B|448:184,3,75
504,128,18192,2,0,B|384:240|264:360,1,300
136,120,18529,6,0,B|192:176,3,75
136,120,18866,2,0,B|368:336,1,300
512,72,19203,6,0,B|416:72,1,75
368,72,19371,2,0,B|293:72,1,75
216,72,19540,2,0,B|288:112,1,75
352,152,19708,2,0,B|296:208,1,75
400,152,19877,6,0,B|325:152,1,75
280,216,20046,2,0,B|216:280,1,75
176,216,20214,2,0,B|240:280,1,75
136,216,20383,2,0,B|211:216,1,75
306,172,20551,6,0,B|248:219,3,75
192,168,20888,2,0,B|248:219,3,75
170,226,21226,2,0,B|120:171,3,75
288,272,21563,5,0
120,272,21731,1,0
512,272,21900,6,0,B|280:272,1,225
216,208,22237,2,0,B|392:208,1,150
240,144,22574,6,0,B|304:208,2,75
392,144,22911,2,0,B|242:144,1,150
248,192,23248,2,0,B|312:136,3,75
232,192,23585,2,0,B|176:136,3,75
248,144,23922,6,0,B|98:144,3,150
344,248,24596,5,0
176,248,24765,2,0,B|112:312,2,75
344,176,25102,5,0
248,176,25270,2,0,B|192:232,1,75
248,176,25439,2,0,B|328:256,2,75
416,176,25776,1,0
256,80,25945,5,0
416,176,26113,2,0,B|240:176,1,150
112,176,26450,2,0,B|272:176,1,150
408,88,26787,5,0
200,80,26956,1,0
416,88,27124,1,0
8,88,27293,6,0,B|72:168,1,75
104,200,27461,2,0,B|154:145,1,75
208,96,27630,2,0,B|280:168,3,75
304,88,27967,6,0,B|360:152,1,75
440,88,28136,2,0,B|376:160,1,75
288,224,28304,2,0,B|208:304,1,75
360,224,28473,2,0,B|432:296,1,75
504,88,28641,6,0,B|440:168,1,75
408,200,28809,2,0,B|358:145,1,75
304,96,28978,2,0,B|232:168,3,75
208,88,29315,6,0,B|152:152,1,75
72,88,29484,2,0,B|136:160,1,75
208,232,29652,2,0,B|288:312,1,75
160,224,29821,2,0,B|88:296,1,75
16,272,29990,6,0,B|91:272,1,75
168,272,30158,2,0,B|248:272,1,75
328,192,30327,2,0,B|232:192,1,75
176,192,30495,2,0,B|56:192,1,75
176,120,30664,6,0,B|240:184,3,75
176,120,31001,2,0,B|80:120,1,75
24,120,31169,2,0,B|184:120,1,150
400,120,31506,6,0,B|224:120,1,150
56,200,31844,2,0,B|240:200,1,150
400,208,32181,5,0
224,184,32349,2,0,B|151:163,1,75
73,134,32518,2,0,B|144:160,1,75
24,56,32686,5,0
80,56,32771,1,0
144,56,32855,1,0
208,56,32939,1,0
272,56,33024,5,0
328,56,33108,1,0
392,56,33192,1,0
456,56,33276,1,0
512,56,33360,6,0,B|440:128,3,75
392,160,33697,6,0,B|448:232,1,75
336,96,33865,2,0,B|304:168,1,75
496,200,34035,5,0
440,200,34120,1,0
376,200,34204,1,0
312,200,34288,1,0
248,200,34373,5,0
192,200,34457,1,0
128,200,34541,1,0
64,200,34625,1,0
0,264,34709,6,0,B|64:200,3,75
126,151,35046,6,0,B|56:208,1,75
176,208,35214,2,0,B|216:288,1,75
0,104,35383,6,0,B|104:104,1,75
160,112,35551,2,0,B|200:176,2,75
232,160,35804,2,0,B|264:248,2,75
496,104,36057,6,0,B|392:104,1,75
344,104,36225,2,0,B|280:184,2,75
280,176,36478,2,0,B|256:264,2,75
96,184,36731,5,0
240,184,36900,1,0
96,184,37068,2,0,B|176:264,3,75
96,184,37405,6,0,B|248:184,1,150
408,184,37742,2,0,B|258:184,1,150
157,184,38079,6,0,B|120:184,10,37.5
186,184,38543,6,0,B|224:184,8,37.5
0,136,39091,5,0
120,64,39428,5,0
392,64,39596,1,0
120,176,39765,6,0,B|288:256,1,150
392,176,40102,2,0,B|232:256,3,150
16,184,40776,5,0
184,184,40945,1,0
24,248,41113,2,0,B|72:304,3,75
24,248,41450,6,0,B|128:128,1,150
304,248,41787,2,0,B|176:112,1,150
120,64,42124,1,0
392,64,42292,1,0
192,64,42461,6,0,B|256:144,2,75
328,64,42799,2,0,B|176:64,1,150
0,64,43136,2,0,B|152:64,1,150
336,104,43473,6,0,B|272:160,3,75,0|0|0|0
408,144,43810,2,0,B|160:320,1,300
56,264,44231,5,0
144,264,44315,1,0
224,240,44400,1,0
120,200,44484,2,0,B|272:72,1,150
48,80,44821,6,0,B|208:80,1,150
341,80,45158,6,0,B|408:160,3,75
488,80,45495,2,0,B|304:80,1,150
171,80,45832,6,0,B|104:128,3,75
24,80,46169,2,0,B|208:80,1,150
56,160,46506,5,0
120,224,46591,1,0
208,248,46675,1,0
312,272,46759,1,0
416,256,46844,6,0,B|240:136,1,150
96,256,47181,2,0,B|272:136,1,150
280,136,47518,5,0
112,128,47686,2,0,B|232:128,1,75
256,200,47855,2,0,B|104:200,1,150
160,136,48108,5,0
232,112,48192,1,0
304,104,48276,1,0
248,160,48360,1,0
112,280,48529,5,0
40,248,48613,1,0
112,280,48697,1,0
184,296,48782,1,0
240,304,48866,6,0,B|336:160,1,150,0|0
496,312,49540,6,0,B|400:168,1,150
272,64,50214,5,0
384,64,50383,1,0
162,58,50551,2,0,B|216:112,3,75
296,168,50888,6,0,B|192:168,1,75
152,168,51057,2,0,B|40:168,1,75
0,232,51226,2,0,B|56:296,1,75
112,224,51394,1,0
163,288,51478,1,0
53,234,51563,6,0,B|0:288,3,75
88,288,51900,2,0,B|192:288,1,75
240,288,52068,2,0,B|344:288,1,75
392,288,52237,6,0,B|304:288,1,75
232,216,52405,2,0,B|128:216,1,75
64,208,52574,6,0,B|136:136,1,75
176,152,52742,2,0,B|230:206,1,75
272,64,52911,5,0
144,64,53080,1,0
350,58,53248,2,0,B|296:112,3,75
216,168,53585,6,0,B|304:112,1,75
360,168,53754,2,0,B|440:248,1,75
480,240,53923,2,0,B|408:312,3,75
296,232,54260,6,0,B|368:304,3,75
424,288,54596,2,0,B|320:288,1,75
272,288,54765,2,0,B|168:288,1,75
120,288,54934,6,0,B|208:288,1,75
280,216,55102,2,0,B|384:216,1,75
440,216,55271,2,0,B|368:144,3,75
512,80,55608,5,0
352,80,55776,1,0
280,184,55945,2,0,B|226:130,3,75
368,256,56282,6,0,B|296:184,3,75
176,264,56619,2,0,B|248:192,3,75
88,80,56956,1,0
176,80,57124,1,0
232,184,57293,2,0,B|286:130,3,75
160,256,57630,6,0,B|240:192,3,75
344,264,57967,2,0,B|272:192,3,75
424,96,58304,5,0
216,96,58473,2,0,B|304:96,4,75
88,96,58978,5,0
296,192,59147,2,0,B|208:192,4,75
424,192,59653,1,0
296,248,59821,2,0,B|221:248,1,75
104,248,59990,5,0
229,320,60158,2,0,B|304:320,1,75
440,336,60327,6,0,B|368:264,1,75
256,328,60495,2,0,B|328:280,1,75
384,240,60664,5,0
280,192,60748,1,0
352,128,60833,1,0
224,88,60917,1,0
104,32,61001,5,0
224,88,61169,1,0
80,160,61338,1,0
192,240,61506,1,0
191,240,61675,2,0,B|154:240,7,37.5
136,240,62012,2,0,B|99:240,7,37.5
32,216,62349,6,0,B|104:136,1,75
120,232,62518,2,0,B|192:152,1,75,0|0
216,240,62686,2,0,B|288:160,1,75
320,248,62855,2,0,B|392:168,1,75
434,194,63023,2,0,B|488:248,3,75
488,248,63360,2,0,B|488:136,3,75
424,152,63697,5,0
352,144,63782,1,0
280,128,63866,1,0
216,104,63950,1,0
272,208,64035,5,0
200,200,64120,1,0
128,184,64204,1,0
64,160,64288,1,0
208,264,64372,5,0
280,256,64457,1,0
352,240,64541,1,0
416,216,64625,1,0
352,160,64708,5,0
280,152,64793,1,0
352,160,64877,1,0
432,152,64961,1,0
512,88,65046,5,0
440,80,65131,1,0
368,64,65215,1,0
304,40,65299,1,0
344,160,65383,5,0
280,152,65468,1,0
216,136,65552,1,0
152,112,65636,1,0
184,216,65720,5,0
120,208,65805,1,0
56,192,65889,1,0
0,168,65973,1,0
128,160,66057,5,0
56,152,66142,1,0
112,104,66226,1,0
176,72,66310,1,0
88,288,66394,5,0
160,280,66479,1,0
232,264,66563,1,0
152,224,66647,1,0
88,184,66731,5,0
160,176,66816,1,0
232,160,66900,1,0
296,136,66984,1,0
440,96,67068,5,0
368,88,67153,1,0
296,72,67237,1,0
232,48,67321,1,0
368,176,67405,5,0
296,168,67490,1,0
224,152,67574,1,0
160,128,67658,1,0
16,152,67742,5,0
88,144,67827,1,0
160,128,67911,1,0
224,104,67995,1,0
360,224,68079,5,0
288,216,68164,1,0
216,200,68248,1,0
152,176,68332,1,0
248,264,68416,5,0
176,256,68501,1,0
256,192,68585,1,0
320,168,68669,1,0
400,184,68754,5,0
472,176,68839,1,0
392,112,68923,1,0
328,88,69007,1,0
448,120,69091,5,0
376,112,69176,1,0
304,96,69260,1,0
240,72,69344,1,0
328,152,69428,5,0
256,144,69513,1,0
184,128,69597,1,0
120,104,69681,1,0
184,224,69765,5,0
256,216,69850,1,0
328,200,69934,1,0
392,176,70018,1,0
272,232,70102,5,0
200,224,70187,1,0
128,208,70270,1,0
64,184,70355,1,0
208,296,70439,5,0
136,288,70524,1,0
64,272,70608,1,0
0,248,70692,1,0
136,200,70776,5,0
208,192,70861,1,0
280,176,70945,1,0
344,152,71029,1,0
248,88,71113,5,0
320,80,71198,1,0
392,64,71282,1,0
456,40,71366,1,0
392,168,71450,5,0
320,160,71535,1,0
392,96,71619,1,0
456,56,71703,1,0
392,168,71787,5,0
320,160,71872,1,0
248,144,71956,1,0
320,88,72040,1,0
456,296,72124,5,0
384,288,72209,1,0
312,272,72293,1,0
240,248,72377,1,0
120,200,72461,5,0
192,192,72546,1,0
264,176,72630,1,0
328,152,72714,1,0
464,120,72799,5,0
392,112,72884,1,0
320,96,72968,1,0
256,72,73052,1,0
136,64,73136,6,0,B|211:64,1,75
352,64,73304,2,0,B|277:64,1,75
208,128,73473,1,0
136,128,73557,1,0
0,128,73641,2,0,B|96:128,1,75
144,208,73810,1,0
216,208,73894,1,0
352,208,73978,2,0,B|256:208,1,75
208,280,74147,1,0
136,280,74231,1,0
56,280,74315,2,0,B|152:280,1,75
88,216,74484,5,0
160,208,74569,1,0
232,192,74653,1,0
296,168,74737,1,0
224,96,74821,5,0
312,136,74905,1,0
248,128,74990,1,0
176,112,75074,1,0
256,200,75158,5,0
344,240,75243,1,0
280,232,75327,1,0
208,216,75411,1,0
88,152,75495,5,0
168,144,75580,1,0
248,128,75664,1,0
328,104,75748,1,0
432,104,75832,5,0
320,104,75917,1,0
432,208,76001,1,0
320,208,76085,1,0
384,296,76169,5,0
296,288,76254,1,0
208,272,76338,1,0
120,248,76422,1,0
0,168,76506,5,0
88,160,76591,1,0
176,144,76675,1,0
264,120,76759,1,0
368,208,76843,5,0
296,200,76928,1,0
224,184,77012,1,0
160,152,77096,1,0
72,96,77181,5,0
144,88,77266,1,0
216,72,77350,1,0
160,160,77434,1,0
88,248,77518,5,0
160,240,77603,1,0
232,224,77687,1,0
296,200,77771,1,0
392,128,77855,5,0
312,120,77939,1,0
232,104,78024,1,0
152,80,78108,1,0
8,184,78192,5,0
96,176,78277,1,0
184,160,78361,1,0
272,136,78445,1,0
336,264,78529,5,0
264,256,78614,1,0
192,240,78698,1,0
240,320,78782,1,0
352,216,78866,5,0
280,192,78951,1,0
216,168,79035,1,0
160,136,79119,1,0
56,72,79203,5,0
152,72,79288,1,0
56,72,79372,1,0
152,72,79456,1,0
56,72,79540,5,0
152,72,79625,1,0
56,72,79709,1,0
152,72,79793,1,0
40,240,79877,5,0
112,216,79962,1,0
176,192,80046,1,0
232,160,80130,1,0
296,120,80214,6,0,B|360:208,3,75
432,144,80551,6,0,B|352:224,3,75
512,296,80888,5,0
432,272,80973,1,0
360,248,81057,1,0
288,216,81141,1,0
216,160,81226,6,0,B|96:160,3,75
256,280,81563,5,0
176,256,81648,1,0
104,232,81732,1,0
32,200,81816,1,0
144,112,81900,6,0,B|264:112,3,75
296,152,82237,5,0
336,128,82322,1,0
384,104,82406,1,0
432,72,82490,1,0
504,232,82574,5,0
464,208,82659,1,0
416,184,82743,1,0
368,152,82827,1,0
408,280,82911,5,0
336,256,82996,1,0
256,232,83080,1,0
184,200,83164,1,0
56,224,83247,5,0
136,200,83332,1,0
216,176,83416,1,0
288,144,83501,1,0
152,120,83585,5,0
240,96,83670,1,0
328,72,83754,1,0
408,40,83838,1,0
512,280,83921,5,0
424,256,84006,1,0
336,232,84090,1,0
256,200,84174,1,0
384,320,84259,5,0
312,296,84344,1,0
240,272,84428,1,0
176,240,84512,1,0
288,208,84596,5,0
224,184,84681,1,0
160,160,84765,1,0
104,128,84849,1,0
56,72,84933,5,0
120,72,85018,1,0
56,72,85102,1,0
120,72,85186,1,0
80,216,85270,5,0
232,200,85439,2,0,B|136:192,1,75
72,144,85608,2,0,B|240:96,1,150
352,112,85945,6,0,B|232:104,1,75
416,208,86197,2,0,B|328:200,2,75
496,296,86450,2,0,B|392:288,1,75
352,112,86619,6,0,B|472:104,1,75
288,208,86871,2,0,B|376:200,2,75
208,296,87124,2,0,B|312:288,1,75
160,232,87293,6,0,B|112:176,2,75
48,112,87630,1,0
232,112,87799,1,0
432,216,87967,5,0
280,200,88136,2,0,B|376:192,1,75
440,144,88305,2,0,B|272:96,1,150
160,112,88642,6,0,B|280:104,1,75
96,208,88894,2,0,B|184:200,2,75
16,296,89147,2,0,B|120:288,1,75
160,112,89316,6,0,B|40:104,1,75
224,208,89568,2,0,B|136:200,2,75
304,296,89821,2,0,B|200:288,1,75
352,232,89990,6,0,B|400:176,2,75
464,112,90327,1,0
368,88,90411,1,0
272,112,90496,1,0
192,80,90579,1,0
112,88,90664,6,0,B|0:88|104:216,1,150
168,184,90917,1,0
272,96,91001,2,0,B|384:96|280:224,1,150
176,256,91338,6,0,B|288:256|264:184,1,75
328,240,91591,1,0
400,232,91675,2,0,B|344:112|272:112,2,150
472,232,92096,5,0
352,232,92265,1,0
320,200,92349,2,0,B|260:155,1,75
208,136,92518,2,0,B|136:80,1,75
219,88,92686,6,0,B|128:112,1,75
280,152,92939,1,0
333,88,93023,2,0,B|392:176,3,75
288,88,93360,6,0,B|448:88,3,150
392,216,94034,6,0,B|264:216,1,75
184,224,94287,1,0
104,224,94372,2,0,B|48:144,3,75
256,192,94709,8,0,95888
280,112,96057,5,0
