osu file format v5

[General]
AudioFilename: Angel Loop.mp3
AudioLeadIn: 0
PreviewTime: 58501
Countdown: 1
SampleSet: Soft
StackLeniency: 0.5
Mode: 0
LetterboxInBreaks: 0

[Editor]
Bookmarks: 15740,30068,37680,58501
DistanceSpacing: 1
BeatDivisor: 8
GridSize: 16

[Metadata]
Title:Dotabata Angel Loop
Artist:Galaxy Angel Cast
Creator:JarJarJacob
Version:Normal
Source:Galaxy Angel AA
Tags:

[Difficulty]
HPDrainRate:6
CircleSize:3
OverallDifficulty:4
SliderMultiplier:1.6
SliderTickRate:2

[Events]
//Background and Video events
0,0,"galaxy_angel_3_800.jpg"
Video,0,"galaxyloopvid.avi"
//Break Periods
2,30268,36780
//Storyboard Layer 0 (Background)
//Storyboard Layer 1 (Fail)
//Storyboard Layer 2 (Pass)
//Storyboard Layer 3 (Foreground)
//Storyboard Sound Samples
//Background Colour Transformations
3,100,163,162,255

[TimingPoints]
1412,447.761194029851,4,2,0,100,1,0
58487,-100,4,2,0,100,0,1
87381,-100,4,2,0,100,0,0
87382,-100,4,2,0,100,0,1

[Colours]
Combo1 : 0,213,213
Combo2 : 255,128,255
Combo3 : 255,255,0
Combo4 : 181,4,4
Combo5 : 74,74,255

[HitObjects]
96,112,15740,1,4
96,272,16188,1,2
256,272,16635,1,0
256,112,17083,1,2
256,192,17307,1,0
336,192,17531,2,0,B|432:192,1,80,0|0
256,192,18203,2,0,B|128:192|48:272,1,160,0|2
256,96,19322,5,4
336,224,19770,1,2
176,224,20217,1,0
256,352,20665,1,2
256,272,20889,1,4
192,128,21337,2,2,B|192:80|320:80|320:128,2,160,2|2|2
256,352,22904,5,4
96,304,23352,1,2
256,256,23800,1,0
416,304,24247,1,2
416,144,24695,2,0,B|528:144,2,80,0|0|2
416,144,25367,2,0,B|336:192|288:96|176:176,1,240
96,304,26486,5,4
256,304,26934,1,2
256,224,27158,2,2,B|480:224,1,160
416,64,28053,2,0,B|160:64,1,240,4|2
176,224,29173,1,0
176,224,29397,1,0
176,224,29620,1,2
336,224,30068,1,4
144,272,37680,5,0
256,160,38128,2,0,B|288:144|360:152,1,80,0|2
416,272,38800,2,0,B|416:368|240:368|240:272,1,240,0|2
176,144,39919,1,2
336,144,40367,1,2
336,304,40814,5,4
336,304,41038,1,0
336,304,41262,1,2
176,304,41710,2,0,B|160:272|128:352|96:288,3,80,0|2|0|2
32,208,42829,5,0
32,208,43053,1,2
176,112,43501,1,0
336,112,43949,1,2
480,208,44397,1,4
336,288,44844,5,0
176,288,45292,1,2
256,288,45516,2,0,B|272:240|208:176|288:128,1,160
80,128,46635,2,0,B|0:192|80:272,2,160,0|2|2
256,48,47979,5,4
256,48,48426,1,2
256,208,48874,1,0
256,368,49322,1,0
256,368,49546,2,0,B|352:304|432:416|544:320,1,240,2|0
336,208,50665,1,2
416,80,51113,1,0
336,48,51337,1,2
256,16,51561,5,4
144,192,52232,1,2
368,192,52904,1,4
256,368,53576,1,2
256,192,54247,12,0,56934
256,144,58501,5,4
256,304,58949,1,0
176,304,59173,1,10
336,304,59620,1,0
256,144,60068,1,10
416,144,60516,1,0
416,304,60964,1,10
416,304,61188,2,8,B|320:256|240:352|176:272,1,240,0|8
144,208,62083,5,4
176,48,62531,1,0
176,48,62755,1,10
336,48,63203,1,0
176,136,63650,1,10
176,216,63874,2,0,B|176:320|336:320|336:208,1,240,0|10
256,32,65217,2,0,B|256:176,2,80,0|8|4
176,256,66337,5,10
256,256,66561,1,0
336,256,66785,1,0
336,96,67232,2,8,B|96:96,1,160,10|0
256,192,68128,1,10
336,192,68352,2,0,B|496:288|336:368,1,240,0|8
288,288,69247,5,4
128,288,69695,1,0
48,288,69919,1,10
48,128,70367,1,0
48,288,70814,1,8
32,208,71038,5,12
192,208,71486,1,10
352,208,71934,1,8
496,208,72382,2,0,B|496:352,2,80,0|8|4
256,144,73501,5,10
256,144,73725,1,0
256,144,73949,1,0
256,304,74397,1,10
96,304,74844,1,0
256,304,75292,1,10
336,304,75516,2,0,B|400:224|320:144|384:64,1,240,0|8
376,74,76411,5,4
256,192,76859,1,0
176,192,77083,1,10
176,352,77531,1,0
336,352,77979,1,10
416,352,78203,2,0,B|560:256|400:160,1,240,0|10
176,192,79546,2,0,B|80:192,2,80,0|8|4
256,320,80441,5,0
256,320,80665,1,10
416,320,81113,1,0
256,320,81561,1,10
96,320,82009,1,0
256,320,82456,1,10
256,240,82680,2,0,B|336:192|384:288|496:224,1,240,0|8
496,144,83576,5,4
336,144,84023,1,0
256,144,84247,1,10
96,144,84695,1,0
96,144,84919,1,0
96,144,85143,1,8
96,144,85367,6,4,B|80:160|80:160|96:176|96:176|80:192|80:192|96:208|96:208|80:224|80:224|96:240|96:240|80:256|80:256|96:272|96:272,1,160,4|0
80,336,86038,1,10
176,208,86486,1,10
176,304,86710,1,0
256,256,86934,1,8
336,208,87158,1,0
336,304,87382,1,4
256,192,87438,12,4,88725
