osu file format v5

[General]
AudioFilename: Angel Loop.mp3
AudioLeadIn: 0
PreviewTime: 58501
Countdown: 1
SampleSet: Soft
StackLeniency: 0.7
Mode: 0
LetterboxInBreaks: 0

[Editor]
Bookmarks: 15740,30068,58501
DistanceSpacing: 1
BeatDivisor: 8
GridSize: 8

[Metadata]
Title:Dotabata Angel Loop
Artist:Galaxy Angel Cast
Creator:JarJarJacob
Version:Insane
Source:Galaxy Angel AA
Tags:

[Difficulty]
HPDrainRate:7
CircleSize:4
OverallDifficulty:7
SliderMultiplier:2.2
SliderTickRate:2

[Events]
//Background and Video events
0,0,"galaxy_angel_3_800.jpg"
Video,0,"galaxyloopvid.avi"
//Break Periods
//Storyboard Layer 0 (Background)
//Storyboard Layer 1 (Fail)
//Storyboard Layer 2 (Pass)
//Storyboard Layer 3 (Foreground)
Sprite,Foreground,Centre,"LOVE.png",320,240 F,0,53352,53576,0,1 M,0,53576,,320,102 F,0,56934,57382,0.9821429,0
//Storyboard Sound Samples
//Background Colour Transformations
3,100,163,162,255

[TimingPoints]
1412,447.761194029851,4,2,0,100,1,0
58487,-100,4,2,0,100,0,1
87381,-100,4,2,0,100,0,0
87382,-100,4,2,0,100,0,1

[Colours]
Combo1 : 0,213,213
Combo2 : 255,128,255
Combo3 : 255,255,0
Combo4 : 181,4,4
Combo5 : 74,74,255

[HitObjects]
256,64,15740,1,4
192,128,15964,1,0
128,64,16188,1,2
192,128,16412,1,0
256,64,16635,1,0
320,128,16859,1,0
384,64,17083,1,2
320,128,17307,1,0
256,192,17531,2,0,B|112:192,2,110,0|0|2
256,192,18203,2,0,B|384:192|464:272,2,220,0|2|2
256,96,19322,5,4
176,128,19546,1,0
256,96,19770,1,2
336,128,19994,1,0
256,176,20217,1,0
176,208,20441,1,0
256,256,20665,1,2
336,208,20889,1,4
192,112,21337,2,2,B|192:16|328:16|328:112,1,220,2|2
256,272,22232,1,2
256,272,22456,1,2
256,272,22680,1,0
256,176,22904,5,4
256,80,23128,1,0
336,128,23352,1,2
256,80,23576,1,0
256,176,23800,1,0
176,128,24023,1,0
176,224,24247,1,2
256,256,24471,1,0
256,176,24695,2,0,B|368:176,2,110,0|0|2
256,176,25367,2,0,B|176:224|128:128|16:208,2,220,0|2|2
256,176,26486,5,4
304,256,26710,1,0
208,256,26934,1,2
256,176,27158,2,2,B|480:176,1,220,2|2
472,80,27829,1,2
376,80,28053,2,0,B|104:80,1,220,4|0
72,80,28725,1,2
8,144,28949,1,0
72,208,29173,1,0
8,272,29397,1,0
72,336,29620,1,2
432,336,30068,5,4
336,336,30292,1,0
240,336,30516,1,8
384,240,30964,1,2
288,240,31188,1,0
240,240,31300,1,2
192,240,31412,1,8
336,144,31859,1,0
240,144,32083,1,0
144,144,32307,1,8
288,48,32755,1,2
192,48,32979,1,0
144,48,33091,1,2
96,48,33203,1,8
96,336,33650,5,4
192,336,33874,1,0
288,336,34098,1,8
144,240,34546,1,2
240,240,34770,1,0
288,240,34882,1,2
336,240,34994,1,8
192,144,35441,1,0
288,144,35665,1,0
384,144,35889,1,8
240,48,36337,1,2
288,48,36449,1,2
336,48,36561,1,2
432,48,36785,1,10
432,48,37232,1,4
304,256,37680,5,0
208,256,37904,1,0
208,160,38128,1,2
304,160,38352,2,0,B|336:184|376:112|408:152,1,110,2|0
416,256,38800,2,0,B|416:336|256:336|256:256,1,220,0|2
256,144,39471,2,0,B|256:64|96:64|96:144,2,220,2|2|2
256,144,40591,1,2
304,240,40814,5,4
304,336,41038,1,0
208,336,41262,1,2
208,240,41486,1,0
208,240,41710,2,0,B|176:208|144:288|112:224,1,110,0|2
304,240,42158,2,0,B|336:208|368:288|400:224,1,110,0|2
32,208,42829,5,0
32,208,43053,1,2
96,144,43277,1,0
176,112,43501,1,2
256,96,43725,1,0
336,112,43949,1,2
416,144,44173,1,2
480,208,44397,1,4
320,288,44844,5,0
256,352,45068,1,0
192,288,45292,1,2
256,224,45516,2,0,B|272:176|224:144|288:96,1,110
208,48,45964,2,0,B|272:64|240:16|336:48,1,110,0|2
160,256,46635,2,0,B|256:352|368:240,2,220,0|2|2
208,64,47979,5,4
208,64,48203,1,0
304,64,48426,1,2
304,64,48650,1,0
256,144,48874,1,0
320,208,49098,1,0
384,272,49322,1,2
448,336,49546,2,0,B|512:272|416:192|496:128,2,220,0|2|2
336,208,50665,1,2
256,288,50889,1,2
176,208,51113,1,0
256,128,51337,1,2
256,16,51561,5,4
32,192,52009,1,0
144,192,52232,1,2
480,192,52680,1,0
368,192,52904,1,4
256,368,53352,1,0
256,256,53576,1,2
256,192,54247,12,0,56934
256,192,56990,12,0,58053
256,144,58501,5,4
256,368,58949,1,0
144,368,59173,1,10
256,368,59397,1,0
368,368,59620,1,0
256,144,60068,1,10
464,80,60516,1,0
464,192,60740,1,0
464,304,60964,1,10
368,256,61188,2,8,B|272:208|192:304|128:224,1,220,0|10
153,246,61859,1,8
48,240,62083,5,4
176,64,62531,1,0
256,144,62755,1,10
336,64,62979,1,0
256,144,63203,1,0
256,368,63650,1,10
144,336,63874,2,0,B|144:208|368:208|368:352,1,330,0|10
256,32,65217,1,10
256,32,65441,1,8
256,144,65665,5,4
88,288,66113,1,0
200,288,66337,1,10
312,288,66561,1,0
424,288,66785,1,0
368,80,67232,2,8,B|112:80,1,220,10|0
144,192,67904,1,0
256,192,68128,1,10
352,192,68352,2,0,B|480:256|368:368,1,220,0|10
369,366,69023,1,8
288,288,69247,5,4
64,288,69695,1,0
128,208,69919,1,10
192,288,70143,1,0
256,208,70367,1,0
192,128,70591,1,10
192,128,70814,1,8
80,128,71038,5,12
416,208,71486,1,10
80,272,71934,1,8
416,368,72382,1,10
416,368,72606,1,8
304,368,72829,5,4
336,128,73277,1,0
256,224,73501,1,10
176,128,73725,1,0
256,224,73949,1,0
256,224,74397,1,10
64,320,74844,1,0
160,352,75068,1,0
256,320,75292,1,10
352,352,75516,2,0,B|416:272|336:192|400:112,1,220,0|10
383,139,76188,1,8
400,32,76411,5,4
256,192,76859,1,0
144,176,77083,1,10
32,160,77307,1,0
32,272,77531,1,0
144,288,77755,1,0
256,304,77979,1,10
368,320,78203,2,0,B|560:192|352:48,1,330,0|10
48,192,79546,1,10
48,192,79770,1,8
144,128,79994,5,4
368,128,80441,1,0
256,128,80665,1,10
144,128,80889,1,0
256,128,81113,1,0
48,304,81561,1,10
256,304,82009,1,0
464,304,82456,1,10
464,304,82680,2,0,B|496:160|352:112,1,220,0|10
379,122,83352,1,8
256,48,83576,5,4
312,352,84023,1,0
200,352,84247,1,10
360,288,84471,1,0
152,288,84695,1,0
312,224,84919,1,10
200,224,85143,1,8
96,176,85367,6,4,B|80:160|80:160|64:176|64:176|48:160|48:160|32:176|32:176|16:160|16:160|0:176|0:176|-16:160,1,110,4|0
32,272,85814,1,0
112,336,86038,1,10
208,272,86262,1,0
288,336,86486,1,10
336,304,86598,1,0
384,272,86710,1,8
384,160,86934,1,10
336,128,87046,1,0
288,96,87158,1,8
208,192,87382,1,4
256,192,87438,12,4,88725
