osu file format v3

[General]
AudioFilename: Galaxy Angel - Galaxy Bang! Bang!.mp3
AudioLeadIn: 0
AudioHash: c4b4f0481cf955100fdc2ef7fc224f20
PreviewTime: -1
SampleSet: Normal
EditorBookmarks: 0,14040

[Metadata]
Title:Galaxy Bang! Bang!
Artist:Galaxy Angel
Creator:Homestarrunner
Version:Hard

[Difficulty]
HPDrainRate:5
CircleSize:6
OverallDifficulty:7
SliderMultiplier: 0.999999999999999
SliderTickRate: 2

[Events]
1,0,"Galaxy Bang! Bang! Video.avi"
3,0,163,162,255

[TimingPoints]
6750,368.098159509202

[HitObjects]
184,216,17056,2,0,B|184:216|216:120|112:112|120:192|264:152,2,200
192,272,19265,1,0,
232,320,19449,1,0,
264,272,19633,1,0,
360,192,20001,6,0,C|360:192|320:152|280:160|320:216|344:160,2,196
384,264,22210,1,0,
432,248,22394,1,0,
424,200,22578,1,0,
368,112,22946,1,0,
368,112,23130,1,2,
368,112,23314,1,0,
368,112,23498,1,2,
368,56,23682,1,2,
360,8,23866,1,2,
304,8,24050,5,2,
304,56,24418,2,0,B|304:56|304:240,1,147
360,192,25154,5,0,
360,192,25338,6,0,B|360:192|304:192,3,49
248,128,26259,1,0,
248,184,26443,1,0,
248,232,26627,1,0,
192,232,26811,1,0,
224,272,26995,1,0,
256,312,27179,1,0,
208,320,27363,6,0,B|208:320|152:320,4,50
296,320,28467,1,0,
368,240,28835,5,0,
368,168,29203,1,0,
288,120,29572,1,0,
232,120,29756,1,0,
176,120,29940,1,0,
232,176,30124,1,0,
232,280,31044,2,0,B|232:280|232:392,1,99.9999999999999
160,360,31780,5,0,
200,184,32516,5,0,
256,184,32700,1,0,
304,184,32884,1,0,
304,240,33069,1,0,
200,272,33989,6,0,B|200:272|256:272,3,49
304,224,34725,1,0,
264,184,34909,1,0,
296,136,35093,1,0,
352,152,35277,1,0,
360,208,35461,1,0,
304,224,35645,1,0,
264,184,35829,1,0,
296,136,36013,1,0,
272,344,36934,6,0,C|272:344|144:304,1,98
112,248,37670,5,0,
264,248,38038,1,0,
216,224,38222,1,0,
264,192,38406,1,0,
272,136,38590,1,0,
216,160,38774,1,0,
168,200,38958,1,0,
136,248,39142,1,0,
208,320,39510,2,0,C|208:320|296:264,1,98
408,152,40246,6,0,B|408:152|216:64,1,200
192,72,41167,1,0,
192,128,41351,1,0,
192,184,41535,1,0,
144,248,41903,1,0,
144,248,42271,1,0,
80,200,42823,5,0,
104,144,43191,1,0,
192,80,43559,2,0,B|192:80|304:80|192:176|136:144|160:216|208:272|304:152,2,300
248,32,46136,1,0,
328,64,46504,2,0,B|328:64|424:136,6,99.9999999999999
472,152,49081,1,0,
424,320,49449,5,2,
408,192,50001,1,2,
352,192,50185,1,2,
344,80,50553,1,2,
264,136,50921,1,2,
216,88,51289,1,2,
216,88,51473,1,2,
128,128,51842,1,0,
128,128,52026,1,0,
184,192,52394,6,0,C|184:192|240:280,1,98
248,272,53130,2,0,C|248:272|304:176,1,98
296,176,53866,2,0,C|296:176|248:88,1,98
248,88,54602,2,0,C|248:88|184:192,1,98
144,192,55338,2,0,C|144:192|352:192,1,196
256,40,56811,5,0,
168,104,57363,1,0,
168,160,57547,1,0,
408,72,58099,1,0,
408,136,58283,1,0,
408,192,58467,1,0,
408,264,58651,1,0,
408,336,58835,1,0,
336,336,59019,1,0,
256,352,59710,5,0,
248,288,60078,1,0,
248,288,60308,1,0,
248,288,60492,1,0,
248,232,60676,6,0,C|248:232|208:208|256:104|296:248,1,294
328,328,62148,5,0,
312,272,62332,5,0,
352,240,62516,1,0,
392,208,62700,2,0,C|392:208|376:104|312:176|248:184|264:304,1,392
320,192,64909,5,0,
256,192,65185,5,0,
192,192,65461,5,2,
256,192,65707,12,2,70001
224,256,70430,1,0,
280,256,70799,5,0,
384,152,71351,5,0,
336,216,71719,1,0,
376,256,71903,1,0,
328,288,72087,1,0,
280,256,72271,1,0,
280,192,72455,1,0,
328,144,72639,2,0,B|328:144|392:152,4,49
456,240,73743,1,0,
304,192,74480,5,0,
248,192,74664,1,0,
192,192,74848,1,0,
192,248,75032,1,0,
192,304,75216,1,0,
248,304,75400,1,0,
304,304,75584,1,0,
304,248,75768,1,0,
248,248,75952,1,0,
256,72,76688,1,0,
256,72,77056,1,0,
336,152,77424,6,0,C|336:152|360:184,3,49
400,240,78161,1,0,
344,232,78345,1,0,
328,280,78529,1,0,
280,256,78713,1,2,
240,296,78897,1,0,
200,256,79081,1,2,
136,256,79265,1,0,
128,200,79449,1,2,
144,152,79633,1,0,
200,136,79817,2,0,B|200:136|200:72,4,49
256,144,80737,1,0,
256,144,80921,2,0,B|256:144|416:144,1,150
376,184,81842,5,0,
304,184,82210,1,0,
216,184,82578,1,0,
136,184,82946,1,0,
256,192,83314,12,0,85891
