osu file format v14

[General]
AudioFilename: Friend Shitai.mp3
AudioLeadIn: 0
PreviewTime: 8420
Countdown: 0
SampleSet: Soft
StackLeniency: 0.7
Mode: 3
LetterboxInBreaks: 1
SpecialStyle: 0
WidescreenStoryboard: 1

[Editor]
DistanceSpacing: 1
BeatDivisor: 4
GridSize: 8
TimelineZoom: 3.6

[Metadata]
Title:Friend Shitai
TitleUnicode:Friend Shitai
Artist:Gakuen Seikatsu Bu
ArtistUnicode:Gakuen Seikatsu Bu
Creator:leqek
Version:5K MX
Source:がっこうぐらし!
Tags:Gakkou Gurashi,_FrEsH_ChICkEn_,Shirou
BeatmapID:798825
BeatmapSetID:363282

[Difficulty]
HPDrainRate:7
CircleSize:5
OverallDifficulty:4
ApproachRate:5
SliderMultiplier:1.4
SliderTickRate:1

[Events]
//Background and Video events
0,0,"BG.jpg",0,0
//Break Periods
//Storyboard Layer 0 (Background)
//Storyboard Layer 1 (Fail)
//Storyboard Layer 2 (Pass)
//Storyboard Layer 3 (Foreground)
//Storyboard Sound Samples

[TimingPoints]
515,405.405405405405,4,2,0,22,1,0
7204,-1000,4,2,0,22,0,0
8014,-66.6666666666667,4,2,0,22,0,0
8319,-100,4,2,0,22,0,0
8623,-100,4,2,0,22,0,1
21596,-100,4,2,0,22,0,0
60717,-1000,4,2,0,22,0,0
61528,-66.6666666666667,4,2,0,22,0,0
61832,-100,4,2,0,22,0,0
62136,-100,4,2,0,22,0,1
75008,-100,4,2,0,22,0,0
75109,-100,4,2,0,22,0,1
87271,-100,4,2,0,22,0,0

[HitObjects]
51,192,515,128,0,920:0:0:0:0:
256,192,515,1,0,0:0:0:0:
358,192,616,1,0,0:0:0:0:
460,192,717,1,0,0:0:0:0:
256,192,819,1,0,0:0:0:0:
358,192,920,1,0,0:0:0:0:
153,192,920,1,0,0:0:0:0:
153,192,1325,128,0,1731:0:0:0:0:
358,192,1325,1,0,0:0:0:0:
460,192,1427,1,0,0:0:0:0:
51,192,1528,1,0,0:0:0:0:
358,192,1629,1,0,0:0:0:0:
256,192,1731,1,0,0:0:0:0:
460,192,1731,1,0,0:0:0:0:
358,192,2136,128,0,2542:0:0:0:0:
51,192,2136,1,0,0:0:0:0:
153,192,2237,1,0,0:0:0:0:
256,192,2339,1,0,0:0:0:0:
51,192,2440,1,0,0:0:0:0:
153,192,2542,1,0,0:0:0:0:
460,192,2542,1,0,0:0:0:0:
460,192,2947,128,0,3352:0:0:0:0:
256,192,2947,1,0,0:0:0:0:
153,192,3048,1,0,0:0:0:0:
51,192,3150,1,0,0:0:0:0:
256,192,3251,1,0,0:0:0:0:
153,192,3352,1,0,0:0:0:0:
358,192,3352,1,0,0:0:0:0:
51,192,3758,128,0,4569:0:0:0:0:
460,192,3758,1,0,0:0:0:0:
153,192,3758,128,0,3859:0:0:0:0:
256,192,3859,128,0,3960:0:0:0:0:
358,192,3960,128,0,4062:0:0:0:0:
460,192,4062,128,0,4163:0:0:0:0:
358,192,4163,128,0,4264:0:0:0:0:
256,192,4264,128,0,4366:0:0:0:0:
358,192,4366,128,0,4467:0:0:0:0:
460,192,4467,128,0,4569:0:0:0:0:
153,192,4569,128,0,5379:0:0:0:0:
358,192,4569,1,0,0:0:0:0:
256,192,4569,128,0,4670:0:0:0:0:
51,192,4670,128,0,4771:0:0:0:0:
358,192,4771,128,0,4873:0:0:0:0:
256,192,4873,128,0,4974:0:0:0:0:
460,192,4974,128,0,5075:0:0:0:0:
358,192,5075,128,0,5177:0:0:0:0:
51,192,5177,128,0,5278:0:0:0:0:
358,192,5278,128,0,5379:0:0:0:0:
256,192,5379,128,0,6190:0:0:0:0:
51,192,5379,1,0,0:0:0:0:
460,192,5379,128,0,5481:0:0:0:0:
153,192,5481,128,0,5582:0:0:0:0:
358,192,5582,128,0,5683:0:0:0:0:
153,192,5683,128,0,5785:0:0:0:0:
51,192,5785,128,0,5886:0:0:0:0:
358,192,5886,128,0,5987:0:0:0:0:
460,192,5987,128,0,6089:0:0:0:0:
153,192,6089,128,0,6190:0:0:0:0:
460,192,6190,128,0,7001:0:0:0:0:
358,192,6190,1,0,0:0:0:0:
51,192,6190,128,0,6292:0:0:0:0:
153,192,6292,128,0,6393:0:0:0:0:
256,192,6393,128,0,6494:0:0:0:0:
153,192,6494,128,0,6596:0:0:0:0:
51,192,6596,128,0,6697:0:0:0:0:
153,192,6697,128,0,6798:0:0:0:0:
256,192,6798,128,0,6900:0:0:0:0:
358,192,6900,128,0,7001:0:0:0:0:
51,192,8217,1,0,0:0:0:0:
153,192,8217,1,0,0:0:0:0:
358,192,8217,1,0,0:0:0:0:
460,192,8217,1,0,0:0:0:0:
51,192,8623,1,0,0:0:0:0:
358,192,8623,1,0,0:0:0:0:
460,192,8623,1,0,0:0:0:0:
153,192,8825,1,0,0:0:0:0:
256,192,9028,1,0,0:0:0:0:
460,192,9028,1,0,0:0:0:0:
51,192,9028,1,0,0:0:0:0:
358,192,9231,1,0,0:0:0:0:
460,192,9332,1,0,0:0:0:0:
153,192,9433,1,0,0:0:0:0:
256,192,9433,1,0,0:0:0:0:
51,192,9636,1,0,0:0:0:0:
358,192,9636,1,0,0:0:0:0:
256,192,9839,1,0,0:0:0:0:
460,192,9839,1,0,0:0:0:0:
358,192,9839,1,0,0:0:0:0:
153,192,10042,1,0,0:0:0:0:
358,192,10244,1,0,0:0:0:0:
51,192,10244,1,0,0:0:0:0:
256,192,10447,1,0,0:0:0:0:
460,192,10447,1,0,0:0:0:0:
153,192,10650,1,0,0:0:0:0:
358,192,10650,1,0,0:0:0:0:
51,192,10650,1,0,0:0:0:0:
460,192,10852,1,0,0:0:0:0:
153,192,10852,1,0,0:0:0:0:
256,192,11055,1,0,0:0:0:0:
51,192,11055,1,0,0:0:0:0:
358,192,11258,1,0,0:0:0:0:
153,192,11258,1,0,0:0:0:0:
460,192,11460,1,0,0:0:0:0:
51,192,11460,1,0,0:0:0:0:
153,192,11460,1,0,0:0:0:0:
358,192,11663,1,0,0:0:0:0:
51,192,11866,1,0,0:0:0:0:
460,192,11866,1,0,0:0:0:0:
256,192,12069,1,0,0:0:0:0:
358,192,12069,1,0,0:0:0:0:
153,192,12271,1,0,0:0:0:0:
358,192,12271,1,0,0:0:0:0:
460,192,12271,1,0,0:0:0:0:
256,192,12474,1,0,0:0:0:0:
51,192,12677,1,0,0:0:0:0:
153,192,12677,1,0,0:0:0:0:
256,192,12879,1,0,0:0:0:0:
460,192,12879,1,0,0:0:0:0:
460,192,13082,1,0,0:0:0:0:
358,192,13082,1,0,0:0:0:0:
51,192,13082,1,0,0:0:0:0:
153,192,13285,1,0,0:0:0:0:
256,192,13487,1,0,0:0:0:0:
460,192,13487,1,0,0:0:0:0:
51,192,13487,1,0,0:0:0:0:
153,192,13690,1,0,0:0:0:0:
358,192,13690,1,0,0:0:0:0:
460,192,13893,1,0,0:0:0:0:
51,192,13893,1,0,0:0:0:0:
256,192,13893,1,0,0:0:0:0:
358,192,14096,1,0,0:0:0:0:
256,192,14096,1,0,0:0:0:0:
153,192,14096,128,0,14704:0:0:0:0:
460,192,14501,1,0,0:0:0:0:
51,192,14501,1,0,0:0:0:0:
256,192,14602,1,0,0:0:0:0:
51,192,14704,1,0,0:0:0:0:
358,192,14704,1,0,0:0:0:0:
153,192,14906,1,0,0:0:0:0:
256,192,15008,1,0,0:0:0:0:
358,192,15109,1,0,0:0:0:0:
51,192,15109,1,0,0:0:0:0:
460,192,15312,1,0,0:0:0:0:
256,192,15312,1,0,0:0:0:0:
358,192,15514,1,0,0:0:0:0:
153,192,15514,1,0,0:0:0:0:
51,192,15514,1,0,0:0:0:0:
256,192,15717,1,0,0:0:0:0:
358,192,15819,1,0,0:0:0:0:
51,192,15920,1,0,0:0:0:0:
153,192,15920,1,0,0:0:0:0:
358,192,16123,1,0,0:0:0:0:
460,192,16123,1,0,0:0:0:0:
51,192,16325,1,0,0:0:0:0:
153,192,16325,1,0,0:0:0:0:
256,192,16325,1,0,0:0:0:0:
358,192,16528,1,0,0:0:0:0:
153,192,16731,1,0,0:0:0:0:
460,192,16731,1,0,0:0:0:0:
358,192,16933,1,0,0:0:0:0:
51,192,16933,1,0,0:0:0:0:
256,192,17136,1,0,0:0:0:0:
460,192,17136,1,0,0:0:0:0:
153,192,17136,1,0,0:0:0:0:
51,192,17339,1,0,0:0:0:0:
256,192,17339,1,0,0:0:0:0:
153,192,17542,1,0,0:0:0:0:
358,192,17542,1,0,0:0:0:0:
256,192,17744,1,0,0:0:0:0:
460,192,17744,1,0,0:0:0:0:
256,192,17947,1,0,0:0:0:0:
51,192,17947,1,0,0:0:0:0:
358,192,17947,1,0,0:0:0:0:
460,192,18150,1,0,0:0:0:0:
153,192,18352,128,0,18758:0:0:0:0:
51,192,18352,1,0,0:0:0:0:
358,192,18352,1,0,0:0:0:0:
256,192,18555,1,0,0:0:0:0:
358,192,18758,1,0,0:0:0:0:
460,192,18758,1,0,0:0:0:0:
51,192,18960,128,0,19569:0:0:0:0:
256,192,18960,1,0,0:0:0:0:
460,192,18960,1,0,0:0:0:0:
153,192,19366,1,0,0:0:0:0:
358,192,19366,1,0,0:0:0:0:
256,192,19569,1,0,0:0:0:0:
460,192,19569,1,0,0:0:0:0:
358,192,19771,128,0,20582:0:0:0:0:
153,192,19771,1,0,0:0:0:0:
51,192,19771,1,0,0:0:0:0:
51,192,20177,1,0,0:0:0:0:
256,192,20177,1,0,0:0:0:0:
51,192,20379,1,0,0:0:0:0:
153,192,20379,1,0,0:0:0:0:
460,192,20582,1,0,0:0:0:0:
256,192,20582,1,0,0:0:0:0:
51,192,20785,1,0,0:0:0:0:
358,192,20785,1,0,0:0:0:0:
153,192,20785,1,0,0:0:0:0:
256,192,21190,128,0,21596:0:0:0:0:
153,192,21596,1,0,0:0:0:0:
460,192,21596,1,0,0:0:0:0:
358,192,21697,1,0,0:0:0:0:
256,192,21798,1,0,0:0:0:0:
358,192,21900,1,0,0:0:0:0:
460,192,22001,1,0,0:0:0:0:
153,192,22001,1,0,0:0:0:0:
51,192,22001,1,0,0:0:0:0:
256,192,22102,1,0,0:0:0:0:
358,192,22204,1,0,0:0:0:0:
256,192,22305,1,0,0:0:0:0:
153,192,22406,1,0,0:0:0:0:
460,192,22406,1,0,0:0:0:0:
256,192,22508,1,0,0:0:0:0:
51,192,22609,1,0,0:0:0:0:
358,192,22609,1,0,0:0:0:0:
153,192,22710,1,0,0:0:0:0:
256,192,22812,1,0,0:0:0:0:
460,192,22812,1,0,0:0:0:0:
51,192,22812,1,0,0:0:0:0:
358,192,22913,1,0,0:0:0:0:
256,192,23014,1,0,0:0:0:0:
153,192,23116,1,0,0:0:0:0:
51,192,23217,1,0,0:0:0:0:
358,192,23217,1,0,0:0:0:0:
460,192,23319,1,0,0:0:0:0:
256,192,23420,1,0,0:0:0:0:
153,192,23521,1,0,0:0:0:0:
460,192,23623,1,0,0:0:0:0:
51,192,23623,1,0,0:0:0:0:
358,192,23623,1,0,0:0:0:0:
256,192,23724,1,0,0:0:0:0:
153,192,23825,1,0,0:0:0:0:
256,192,23927,1,0,0:0:0:0:
358,192,24028,1,0,0:0:0:0:
51,192,24028,1,0,0:0:0:0:
256,192,24129,1,0,0:0:0:0:
153,192,24231,1,0,0:0:0:0:
460,192,24231,1,0,0:0:0:0:
358,192,24332,1,0,0:0:0:0:
460,192,24433,1,0,0:0:0:0:
256,192,24433,1,0,0:0:0:0:
51,192,24433,1,0,0:0:0:0:
153,192,24535,1,0,0:0:0:0:
256,192,24636,1,0,0:0:0:0:
358,192,24737,1,0,0:0:0:0:
153,192,24839,1,0,0:0:0:0:
460,192,24839,1,0,0:0:0:0:
51,192,24940,1,0,0:0:0:0:
256,192,25042,1,0,0:0:0:0:
153,192,25143,1,0,0:0:0:0:
358,192,25244,1,0,0:0:0:0:
51,192,25244,1,0,0:0:0:0:
460,192,25244,1,0,0:0:0:0:
256,192,25346,1,0,0:0:0:0:
460,192,25447,1,0,0:0:0:0:
358,192,25548,1,0,0:0:0:0:
153,192,25650,1,0,0:0:0:0:
460,192,25650,1,0,0:0:0:0:
256,192,25751,1,0,0:0:0:0:
51,192,25852,1,0,0:0:0:0:
358,192,25852,1,0,0:0:0:0:
256,192,25954,1,0,0:0:0:0:
153,192,26055,1,0,0:0:0:0:
51,192,26055,1,0,0:0:0:0:
460,192,26055,1,0,0:0:0:0:
358,192,26156,1,0,0:0:0:0:
153,192,26258,1,0,0:0:0:0:
256,192,26359,1,0,0:0:0:0:
358,192,26460,1,0,0:0:0:0:
51,192,26460,1,0,0:0:0:0:
460,192,26460,1,0,0:0:0:0:
153,192,26663,1,0,0:0:0:0:
256,192,26663,1,0,0:0:0:0:
51,192,26866,1,0,0:0:0:0:
358,192,26866,1,0,0:0:0:0:
153,192,27069,1,0,0:0:0:0:
460,192,27069,1,0,0:0:0:0:
256,192,27170,1,0,0:0:0:0:
51,192,27271,1,0,0:0:0:0:
153,192,27271,1,0,0:0:0:0:
358,192,27271,1,0,0:0:0:0:
460,192,27474,1,0,0:0:0:0:
358,192,27575,1,0,0:0:0:0:
256,192,27677,1,0,0:0:0:0:
51,192,27677,1,0,0:0:0:0:
358,192,27879,1,0,0:0:0:0:
460,192,27879,1,0,0:0:0:0:
153,192,27981,1,0,0:0:0:0:
51,192,28082,1,0,0:0:0:0:
256,192,28082,1,0,0:0:0:0:
460,192,28082,1,0,0:0:0:0:
153,192,28183,1,0,0:0:0:0:
358,192,28285,1,0,0:0:0:0:
256,192,28386,1,0,0:0:0:0:
460,192,28487,1,0,0:0:0:0:
153,192,28487,1,0,0:0:0:0:
51,192,28487,1,0,0:0:0:0:
256,192,28589,1,0,0:0:0:0:
51,192,28690,1,0,0:0:0:0:
153,192,28792,1,0,0:0:0:0:
256,192,28893,1,0,0:0:0:0:
460,192,28893,1,0,0:0:0:0:
153,192,28994,1,0,0:0:0:0:
51,192,29096,1,0,0:0:0:0:
358,192,29096,1,0,0:0:0:0:
256,192,29197,1,0,0:0:0:0:
51,192,29298,1,0,0:0:0:0:
153,192,29298,1,0,0:0:0:0:
460,192,29298,1,0,0:0:0:0:
358,192,29400,1,0,0:0:0:0:
256,192,29501,1,0,0:0:0:0:
153,192,29602,1,0,0:0:0:0:
51,192,29704,1,0,0:0:0:0:
358,192,29704,1,0,0:0:0:0:
256,192,29805,1,0,0:0:0:0:
153,192,29906,1,0,0:0:0:0:
256,192,30008,1,0,0:0:0:0:
460,192,30109,1,0,0:0:0:0:
51,192,30109,1,0,0:0:0:0:
358,192,30109,1,0,0:0:0:0:
153,192,30210,1,0,0:0:0:0:
256,192,30312,1,0,0:0:0:0:
51,192,30413,1,0,0:0:0:0:
153,192,30514,1,0,0:0:0:0:
358,192,30514,1,0,0:0:0:0:
51,192,30616,1,0,0:0:0:0:
153,192,30717,1,0,0:0:0:0:
460,192,30717,1,0,0:0:0:0:
358,192,30819,1,0,0:0:0:0:
153,192,30920,1,0,0:0:0:0:
460,192,30920,1,0,0:0:0:0:
256,192,30920,1,0,0:0:0:0:
51,192,31021,1,0,0:0:0:0:
256,192,31123,1,0,0:0:0:0:
153,192,31224,1,0,0:0:0:0:
358,192,31325,1,0,0:0:0:0:
460,192,31325,1,0,0:0:0:0:
51,192,31325,1,0,0:0:0:0:
153,192,31528,1,0,0:0:0:0:
256,192,31528,1,0,0:0:0:0:
256,192,31731,1,0,0:0:0:0:
358,192,31731,1,0,0:0:0:0:
51,192,31731,1,0,0:0:0:0:
460,192,31933,1,0,0:0:0:0:
153,192,31933,128,0,32136:0:0:0:0:
51,192,31933,1,0,0:0:0:0:
256,192,32136,1,0,0:0:0:0:
358,192,32339,1,0,0:0:0:0:
51,192,32339,1,0,0:0:0:0:
460,192,32542,1,0,0:0:0:0:
153,192,32542,1,0,0:0:0:0:
51,192,32744,1,0,0:0:0:0:
256,192,32744,1,0,0:0:0:0:
51,192,32947,1,0,0:0:0:0:
358,192,32947,1,0,0:0:0:0:
153,192,32947,1,0,0:0:0:0:
460,192,32947,1,0,0:0:0:0:
153,192,33352,1,0,0:0:0:0:
256,192,33352,1,0,0:0:0:0:
460,192,33352,1,0,0:0:0:0:
51,192,33352,1,0,0:0:0:0:
460,192,33758,1,0,0:0:0:0:
153,192,33758,128,0,34366:0:0:0:0:
358,192,33758,128,0,34366:0:0:0:0:
460,192,34569,1,0,0:0:0:0:
51,192,34569,1,0,0:0:0:0:
153,192,34569,1,0,0:0:0:0:
358,192,34771,1,0,0:0:0:0:
256,192,34974,1,0,0:0:0:0:
51,192,34974,1,0,0:0:0:0:
153,192,35177,1,0,0:0:0:0:
358,192,35177,1,0,0:0:0:0:
460,192,35278,1,0,0:0:0:0:
256,192,35379,1,0,0:0:0:0:
51,192,35582,1,0,0:0:0:0:
358,192,35582,1,0,0:0:0:0:
153,192,35785,1,0,0:0:0:0:
256,192,35785,1,0,0:0:0:0:
358,192,35987,1,0,0:0:0:0:
51,192,36190,1,0,0:0:0:0:
256,192,36190,1,0,0:0:0:0:
153,192,36393,1,0,0:0:0:0:
460,192,36596,1,0,0:0:0:0:
358,192,36596,1,0,0:0:0:0:
256,192,36798,1,0,0:0:0:0:
51,192,36798,1,0,0:0:0:0:
153,192,36900,1,0,0:0:0:0:
358,192,37001,1,0,0:0:0:0:
256,192,37204,1,0,0:0:0:0:
460,192,37204,1,0,0:0:0:0:
51,192,37406,1,0,0:0:0:0:
358,192,37406,1,0,0:0:0:0:
460,192,37609,1,0,0:0:0:0:
51,192,37812,1,0,0:0:0:0:
153,192,37812,1,0,0:0:0:0:
256,192,38014,1,0,0:0:0:0:
51,192,38217,1,0,0:0:0:0:
358,192,38217,1,0,0:0:0:0:
256,192,38420,1,0,0:0:0:0:
358,192,38521,1,0,0:0:0:0:
51,192,38623,1,0,0:0:0:0:
460,192,38623,1,0,0:0:0:0:
153,192,38825,1,0,0:0:0:0:
358,192,38825,1,0,0:0:0:0:
51,192,39028,1,0,0:0:0:0:
460,192,39028,1,0,0:0:0:0:
358,192,39231,1,0,0:0:0:0:
51,192,39433,128,0,39535:0:0:0:0:
256,192,39433,1,0,0:0:0:0:
153,192,39535,128,0,39636:0:0:0:0:
358,192,39636,128,0,39737:0:0:0:0:
460,192,39636,1,0,0:0:0:0:
256,192,39737,128,0,39839:0:0:0:0:
153,192,39839,128,0,39940:0:0:0:0:
460,192,39839,1,0,0:0:0:0:
256,192,39940,128,0,40042:0:0:0:0:
460,192,40042,128,0,40143:0:0:0:0:
51,192,40042,1,0,0:0:0:0:
358,192,40143,128,0,40244:0:0:0:0:
460,192,40244,128,0,40346:0:0:0:0:
153,192,40244,1,0,0:0:0:0:
358,192,40346,128,0,40447:0:0:0:0:
256,192,40447,128,0,40548:0:0:0:0:
51,192,40447,1,0,0:0:0:0:
153,192,40548,128,0,40650:0:0:0:0:
358,192,40650,128,0,40751:0:0:0:0:
460,192,40650,1,0,0:0:0:0:
256,192,40751,128,0,40852:0:0:0:0:
153,192,40852,128,0,40954:0:0:0:0:
358,192,40852,1,0,0:0:0:0:
51,192,40954,128,0,41055:0:0:0:0:
256,192,41055,1,0,0:0:0:0:
460,192,41055,1,0,0:0:0:0:
358,192,41055,1,0,0:0:0:0:
153,192,41258,1,0,0:0:0:0:
51,192,41460,1,0,0:0:0:0:
256,192,41460,1,0,0:0:0:0:
460,192,41460,1,0,0:0:0:0:
358,192,41663,1,0,0:0:0:0:
153,192,41764,1,0,0:0:0:0:
256,192,41866,1,0,0:0:0:0:
460,192,41866,1,0,0:0:0:0:
358,192,42069,1,0,0:0:0:0:
51,192,42069,1,0,0:0:0:0:
153,192,42271,1,0,0:0:0:0:
256,192,42271,1,0,0:0:0:0:
460,192,42271,1,0,0:0:0:0:
358,192,42474,1,0,0:0:0:0:
51,192,42677,1,0,0:0:0:0:
256,192,42677,1,0,0:0:0:0:
153,192,42879,1,0,0:0:0:0:
460,192,42879,1,0,0:0:0:0:
51,192,43082,1,0,0:0:0:0:
358,192,43082,1,0,0:0:0:0:
460,192,43082,1,0,0:0:0:0:
153,192,43285,1,0,0:0:0:0:
358,192,43386,1,0,0:0:0:0:
51,192,43487,1,0,0:0:0:0:
256,192,43487,1,0,0:0:0:0:
256,192,43690,1,0,0:0:0:0:
460,192,43690,1,0,0:0:0:0:
153,192,43893,1,0,0:0:0:0:
51,192,43893,1,0,0:0:0:0:
358,192,43893,1,0,0:0:0:0:
256,192,44096,1,0,0:0:0:0:
51,192,44096,1,0,0:0:0:0:
153,192,44197,1,0,0:0:0:0:
51,192,44298,1,0,0:0:0:0:
460,192,44298,1,0,0:0:0:0:
358,192,44298,128,0,45109:0:0:0:0:
256,192,44501,1,0,0:0:0:0:
153,192,44704,1,0,0:0:0:0:
460,192,44704,1,0,0:0:0:0:
256,192,44906,1,0,0:0:0:0:
153,192,45109,128,0,45920:0:0:0:0:
51,192,45109,1,0,0:0:0:0:
460,192,45109,1,0,0:0:0:0:
358,192,45312,1,0,0:0:0:0:
256,192,45514,1,0,0:0:0:0:
51,192,45514,1,0,0:0:0:0:
358,192,45717,1,0,0:0:0:0:
256,192,45920,1,0,0:0:0:0:
460,192,45920,1,0,0:0:0:0:
51,192,45920,1,0,0:0:0:0:
358,192,45920,1,0,0:0:0:0:
153,192,46123,1,0,0:0:0:0:
358,192,46325,1,0,0:0:0:0:
51,192,46528,1,0,0:0:0:0:
460,192,46528,1,0,0:0:0:0:
153,192,46528,1,0,0:0:0:0:
256,192,46528,1,0,0:0:0:0:
256,192,47542,128,0,47947:0:0:0:0:
358,192,47542,1,0,0:0:0:0:
153,192,47542,1,0,0:0:0:0:
51,192,47947,1,0,0:0:0:0:
460,192,47947,1,0,0:0:0:0:
153,192,48150,128,0,48758:0:0:0:0:
358,192,48352,128,0,48758:0:0:0:0:
256,192,48352,1,0,0:0:0:0:
51,192,48758,1,0,0:0:0:0:
460,192,48758,1,0,0:0:0:0:
358,192,49163,128,0,49569:0:0:0:0:
51,192,49163,1,0,0:0:0:0:
153,192,49569,1,0,0:0:0:0:
51,192,49771,128,0,50379:0:0:0:0:
460,192,49974,128,0,50379:0:0:0:0:
256,192,49974,1,0,0:0:0:0:
358,192,50379,1,0,0:0:0:0:
153,192,50379,1,0,0:0:0:0:
153,192,50785,128,0,51190:0:0:0:0:
460,192,50785,1,0,0:0:0:0:
358,192,51190,1,0,0:0:0:0:
256,192,51393,128,0,52001:0:0:0:0:
460,192,51596,128,0,52001:0:0:0:0:
153,192,51596,1,0,0:0:0:0:
51,192,52001,1,0,0:0:0:0:
358,192,52001,1,0,0:0:0:0:
460,192,52406,128,0,52812:0:0:0:0:
153,192,52406,1,0,0:0:0:0:
358,192,52812,1,0,0:0:0:0:
256,192,53014,128,0,53623:0:0:0:0:
51,192,53217,128,0,53623:0:0:0:0:
153,192,53217,1,0,0:0:0:0:
460,192,53623,1,0,0:0:0:0:
358,192,53623,1,0,0:0:0:0:
153,192,54028,128,0,54839:0:0:0:0:
256,192,54028,128,0,54433:0:0:0:0:
51,192,54028,1,0,0:0:0:0:
358,192,54028,1,0,0:0:0:0:
460,192,54231,1,0,0:0:0:0:
358,192,54433,1,0,0:0:0:0:
51,192,54636,1,0,0:0:0:0:
460,192,54636,1,0,0:0:0:0:
358,192,54839,1,0,0:0:0:0:
256,192,54839,1,0,0:0:0:0:
51,192,55244,128,0,56055:0:0:0:0:
358,192,55244,128,0,55650:0:0:0:0:
256,192,55244,1,0,0:0:0:0:
460,192,55244,1,0,0:0:0:0:
153,192,55447,1,0,0:0:0:0:
460,192,55650,1,0,0:0:0:0:
358,192,55852,1,0,0:0:0:0:
153,192,55852,1,0,0:0:0:0:
256,192,56055,1,0,0:0:0:0:
460,192,56055,1,0,0:0:0:0:
153,192,56258,1,0,0:0:0:0:
256,192,56460,128,0,56866:0:0:0:0:
460,192,56460,128,0,57271:0:0:0:0:
51,192,56460,1,0,0:0:0:0:
358,192,56460,1,0,0:0:0:0:
153,192,56866,1,0,0:0:0:0:
256,192,57069,1,0,0:0:0:0:
51,192,57271,1,0,0:0:0:0:
153,192,57271,1,0,0:0:0:0:
358,192,57271,128,0,57373:0:0:0:0:
256,192,57373,128,0,57474:0:0:0:0:
460,192,57474,1,0,0:0:0:0:
153,192,57474,128,0,57575:0:0:0:0:
358,192,57575,128,0,57677:0:0:0:0:
51,192,57677,1,0,0:0:0:0:
256,192,57677,128,0,57778:0:0:0:0:
153,192,57778,128,0,57879:0:0:0:0:
460,192,57879,1,0,0:0:0:0:
51,192,57879,128,0,57981:0:0:0:0:
153,192,57981,128,0,58082:0:0:0:0:
51,192,58082,1,0,0:0:0:0:
460,192,58082,1,0,0:0:0:0:
358,192,58082,128,0,58183:0:0:0:0:
256,192,58183,128,0,58285:0:0:0:0:
460,192,58285,1,0,0:0:0:0:
153,192,58285,128,0,58386:0:0:0:0:
256,192,58386,128,0,58487:0:0:0:0:
51,192,58487,1,0,0:0:0:0:
358,192,58487,128,0,58589:0:0:0:0:
256,192,58589,128,0,58690:0:0:0:0:
460,192,58690,1,0,0:0:0:0:
153,192,58690,128,0,58792:0:0:0:0:
256,192,58792,128,0,58893:0:0:0:0:
51,192,58893,1,0,0:0:0:0:
460,192,58893,128,0,58994:0:0:0:0:
153,192,58893,1,0,0:0:0:0:
358,192,58994,128,0,59096:0:0:0:0:
51,192,59096,1,0,0:0:0:0:
256,192,59096,128,0,59197:0:0:0:0:
358,192,59197,128,0,59298:0:0:0:0:
153,192,59298,1,0,0:0:0:0:
460,192,59298,128,0,59400:0:0:0:0:
358,192,59400,128,0,59501:0:0:0:0:
51,192,59501,1,0,0:0:0:0:
256,192,59501,128,0,59602:0:0:0:0:
153,192,59602,128,0,59704:0:0:0:0:
51,192,59704,1,0,0:0:0:0:
460,192,59704,1,0,0:0:0:0:
358,192,59704,128,0,59805:0:0:0:0:
256,192,59805,128,0,59906:0:0:0:0:
51,192,59906,128,0,60008:0:0:0:0:
153,192,59906,1,0,0:0:0:0:
256,192,60008,128,0,60109:0:0:0:0:
460,192,60109,1,0,0:0:0:0:
153,192,60109,128,0,60210:0:0:0:0:
256,192,60210,128,0,60312:0:0:0:0:
51,192,60312,1,0,0:0:0:0:
358,192,60312,128,0,60413:0:0:0:0:
460,192,60413,128,0,60514:0:0:0:0:
460,192,61731,1,0,0:0:0:0:
51,192,61731,1,0,0:0:0:0:
153,192,61731,1,0,0:0:0:0:
358,192,61731,1,0,0:0:0:0:
256,192,62136,1,0,0:0:0:0:
153,192,62136,1,0,0:0:0:0:
460,192,62136,1,0,0:0:0:0:
51,192,62339,1,0,0:0:0:0:
358,192,62339,1,0,0:0:0:0:
153,192,62542,1,0,0:0:0:0:
358,192,62542,1,0,0:0:0:0:
460,192,62542,1,0,0:0:0:0:
256,192,62744,1,0,0:0:0:0:
51,192,62744,1,0,0:0:0:0:
358,192,62846,1,0,0:0:0:0:
153,192,62947,1,0,0:0:0:0:
460,192,62947,1,0,0:0:0:0:
51,192,63150,1,0,0:0:0:0:
51,192,63352,1,0,0:0:0:0:
358,192,63352,1,0,0:0:0:0:
256,192,63352,1,0,0:0:0:0:
153,192,63555,1,0,0:0:0:0:
460,192,63555,1,0,0:0:0:0:
51,192,63758,1,0,0:0:0:0:
358,192,63758,1,0,0:0:0:0:
256,192,63960,1,0,0:0:0:0:
153,192,63960,1,0,0:0:0:0:
153,192,64163,1,0,0:0:0:0:
358,192,64163,1,0,0:0:0:0:
460,192,64163,1,0,0:0:0:0:
51,192,64366,1,0,0:0:0:0:
256,192,64569,1,0,0:0:0:0:
460,192,64569,1,0,0:0:0:0:
153,192,64771,1,0,0:0:0:0:
358,192,64771,1,0,0:0:0:0:
153,192,64974,1,0,0:0:0:0:
51,192,64974,1,0,0:0:0:0:
256,192,64974,1,0,0:0:0:0:
358,192,65177,1,0,0:0:0:0:
153,192,65379,1,0,0:0:0:0:
460,192,65379,1,0,0:0:0:0:
256,192,65582,1,0,0:0:0:0:
358,192,65582,1,0,0:0:0:0:
460,192,65785,1,0,0:0:0:0:
51,192,65785,1,0,0:0:0:0:
153,192,65785,1,0,0:0:0:0:
358,192,65987,1,0,0:0:0:0:
256,192,66190,1,0,0:0:0:0:
153,192,66190,1,0,0:0:0:0:
358,192,66393,1,0,0:0:0:0:
153,192,66393,1,0,0:0:0:0:
460,192,66596,1,0,0:0:0:0:
51,192,66596,1,0,0:0:0:0:
256,192,66596,1,0,0:0:0:0:
153,192,66798,1,0,0:0:0:0:
153,192,67001,1,0,0:0:0:0:
460,192,67001,1,0,0:0:0:0:
358,192,67001,128,0,67204:0:0:0:0:
256,192,67204,128,0,67406:0:0:0:0:
51,192,67204,1,0,0:0:0:0:
460,192,67204,1,0,0:0:0:0:
153,192,67406,128,0,67609:0:0:0:0:
358,192,67406,1,0,0:0:0:0:
51,192,67406,1,0,0:0:0:0:
460,192,67609,128,0,68217:0:0:0:0:
256,192,67609,1,0,0:0:0:0:
51,192,68014,1,0,0:0:0:0:
256,192,68014,1,0,0:0:0:0:
153,192,68217,1,0,0:0:0:0:
358,192,68217,1,0,0:0:0:0:
51,192,68420,1,0,0:0:0:0:
460,192,68420,1,0,0:0:0:0:
358,192,68521,1,0,0:0:0:0:
153,192,68623,1,0,0:0:0:0:
256,192,68623,1,0,0:0:0:0:
358,192,68825,1,0,0:0:0:0:
460,192,69028,1,0,0:0:0:0:
153,192,69028,1,0,0:0:0:0:
51,192,69028,1,0,0:0:0:0:
256,192,69028,1,0,0:0:0:0:
51,192,69231,1,0,0:0:0:0:
358,192,69231,1,0,0:0:0:0:
256,192,69332,1,0,0:0:0:0:
153,192,69433,1,0,0:0:0:0:
358,192,69433,1,0,0:0:0:0:
460,192,69636,1,0,0:0:0:0:
256,192,69636,1,0,0:0:0:0:
460,192,69839,1,0,0:0:0:0:
153,192,69839,1,0,0:0:0:0:
51,192,69839,1,0,0:0:0:0:
358,192,70042,1,0,0:0:0:0:
460,192,70244,1,0,0:0:0:0:
153,192,70244,1,0,0:0:0:0:
256,192,70447,1,0,0:0:0:0:
358,192,70447,1,0,0:0:0:0:
153,192,70650,1,0,0:0:0:0:
460,192,70650,1,0,0:0:0:0:
51,192,70650,1,0,0:0:0:0:
256,192,70852,1,0,0:0:0:0:
358,192,71055,1,0,0:0:0:0:
153,192,71055,1,0,0:0:0:0:
256,192,71258,1,0,0:0:0:0:
460,192,71258,1,0,0:0:0:0:
358,192,71460,1,0,0:0:0:0:
153,192,71460,1,0,0:0:0:0:
51,192,71460,1,0,0:0:0:0:
256,192,71663,1,0,0:0:0:0:
153,192,71866,1,0,0:0:0:0:
358,192,71866,1,0,0:0:0:0:
51,192,72069,1,0,0:0:0:0:
256,192,72069,1,0,0:0:0:0:
358,192,72271,1,0,0:0:0:0:
460,192,72271,1,0,0:0:0:0:
153,192,72271,1,0,0:0:0:0:
51,192,72474,1,0,0:0:0:0:
256,192,72474,1,0,0:0:0:0:
153,192,72677,1,0,0:0:0:0:
358,192,72677,1,0,0:0:0:0:
51,192,72879,1,0,0:0:0:0:
460,192,72879,1,0,0:0:0:0:
256,192,73082,1,0,0:0:0:0:
153,192,73082,1,0,0:0:0:0:
358,192,73082,1,0,0:0:0:0:
51,192,73285,1,0,0:0:0:0:
460,192,73285,1,0,0:0:0:0:
256,192,73285,128,0,73690:0:0:0:0:
358,192,73690,1,0,0:0:0:0:
460,192,73690,1,0,0:0:0:0:
153,192,73792,1,0,0:0:0:0:
51,192,73792,1,0,0:0:0:0:
358,192,73893,1,0,0:0:0:0:
256,192,73893,1,0,0:0:0:0:
153,192,74096,1,0,0:0:0:0:
51,192,74096,1,0,0:0:0:0:
358,192,74197,1,0,0:0:0:0:
460,192,74197,1,0,0:0:0:0:
51,192,74298,1,0,0:0:0:0:
153,192,74298,1,0,0:0:0:0:
256,192,74298,1,0,0:0:0:0:
153,192,74501,1,0,0:0:0:0:
256,192,74501,1,0,0:0:0:0:
358,192,74501,1,0,0:0:0:0:
460,192,74704,1,0,0:0:0:0:
358,192,74704,1,0,0:0:0:0:
256,192,74704,1,0,0:0:0:0:
153,192,74805,1,0,0:0:0:0:
51,192,74906,1,0,0:0:0:0:
153,192,75008,1,0,0:0:0:0:
460,192,75109,1,0,0:0:0:0:
358,192,75109,1,0,0:0:0:0:
51,192,75109,1,0,0:0:0:0:
256,192,75312,1,0,0:0:0:0:
153,192,75312,1,0,0:0:0:0:
51,192,75514,1,0,0:0:0:0:
256,192,75514,1,0,0:0:0:0:
358,192,75514,1,0,0:0:0:0:
358,192,75717,1,0,0:0:0:0:
460,192,75717,1,0,0:0:0:0:
153,192,75819,1,0,0:0:0:0:
256,192,75920,1,0,0:0:0:0:
51,192,75920,1,0,0:0:0:0:
51,192,76123,1,0,0:0:0:0:
358,192,76123,1,0,0:0:0:0:
153,192,76325,1,0,0:0:0:0:
460,192,76325,1,0,0:0:0:0:
256,192,76325,1,0,0:0:0:0:
51,192,76528,1,0,0:0:0:0:
358,192,76528,1,0,0:0:0:0:
256,192,76629,1,0,0:0:0:0:
51,192,76731,1,0,0:0:0:0:
460,192,76731,1,0,0:0:0:0:
358,192,76933,1,0,0:0:0:0:
153,192,76933,1,0,0:0:0:0:
256,192,77136,1,0,0:0:0:0:
153,192,77136,1,0,0:0:0:0:
460,192,77136,1,0,0:0:0:0:
51,192,77339,1,0,0:0:0:0:
358,192,77339,1,0,0:0:0:0:
256,192,77440,1,0,0:0:0:0:
153,192,77542,1,0,0:0:0:0:
358,192,77542,1,0,0:0:0:0:
256,192,77744,1,0,0:0:0:0:
460,192,77744,1,0,0:0:0:0:
51,192,77947,1,0,0:0:0:0:
358,192,77947,1,0,0:0:0:0:
153,192,77947,1,0,0:0:0:0:
256,192,78150,1,0,0:0:0:0:
51,192,78150,1,0,0:0:0:0:
460,192,78251,1,0,0:0:0:0:
358,192,78352,1,0,0:0:0:0:
153,192,78352,1,0,0:0:0:0:
256,192,78555,1,0,0:0:0:0:
153,192,78555,1,0,0:0:0:0:
358,192,78758,1,0,0:0:0:0:
460,192,78758,1,0,0:0:0:0:
51,192,78758,1,0,0:0:0:0:
460,192,78960,1,0,0:0:0:0:
256,192,78960,1,0,0:0:0:0:
153,192,79062,1,0,0:0:0:0:
51,192,79163,1,0,0:0:0:0:
256,192,79163,1,0,0:0:0:0:
358,192,79366,1,0,0:0:0:0:
460,192,79366,1,0,0:0:0:0:
256,192,79569,1,0,0:0:0:0:
460,192,79569,1,0,0:0:0:0:
153,192,79569,1,0,0:0:0:0:
51,192,79771,1,0,0:0:0:0:
358,192,79771,1,0,0:0:0:0:
256,192,79873,1,0,0:0:0:0:
153,192,79974,128,0,80177:0:0:0:0:
460,192,79974,1,0,0:0:0:0:
358,192,79974,1,0,0:0:0:0:
358,192,80177,128,0,80379:0:0:0:0:
51,192,80177,1,0,0:0:0:0:
256,192,80177,1,0,0:0:0:0:
460,192,80379,128,0,80582:0:0:0:0:
153,192,80379,1,0,0:0:0:0:
51,192,80379,1,0,0:0:0:0:
51,192,80582,128,0,81190:0:0:0:0:
256,192,80582,1,0,0:0:0:0:
358,192,80582,1,0,0:0:0:0:
153,192,80987,1,0,0:0:0:0:
460,192,80987,1,0,0:0:0:0:
256,192,81089,1,0,0:0:0:0:
358,192,81089,1,0,0:0:0:0:
460,192,81190,1,0,0:0:0:0:
153,192,81190,1,0,0:0:0:0:
358,192,81393,1,0,0:0:0:0:
51,192,81393,1,0,0:0:0:0:
256,192,81494,1,0,0:0:0:0:
153,192,81596,1,0,0:0:0:0:
460,192,81596,1,0,0:0:0:0:
256,192,81798,1,0,0:0:0:0:
51,192,81798,1,0,0:0:0:0:
153,192,82001,1,0,0:0:0:0:
51,192,82001,1,0,0:0:0:0:
358,192,82001,1,0,0:0:0:0:
460,192,82001,1,0,0:0:0:0:
153,192,82204,1,0,0:0:0:0:
358,192,82204,1,0,0:0:0:0:
256,192,82305,1,0,0:0:0:0:
51,192,82406,1,0,0:0:0:0:
460,192,82406,1,0,0:0:0:0:
256,192,82609,1,0,0:0:0:0:
358,192,82609,1,0,0:0:0:0:
460,192,82812,1,0,0:0:0:0:
153,192,82812,1,0,0:0:0:0:
51,192,82812,1,0,0:0:0:0:
256,192,83014,1,0,0:0:0:0:
460,192,83014,1,0,0:0:0:0:
51,192,83116,1,0,0:0:0:0:
153,192,83217,1,0,0:0:0:0:
358,192,83217,1,0,0:0:0:0:
256,192,83420,1,0,0:0:0:0:
460,192,83420,1,0,0:0:0:0:
358,192,83623,1,0,0:0:0:0:
153,192,83623,1,0,0:0:0:0:
51,192,83623,1,0,0:0:0:0:
51,192,83825,1,0,0:0:0:0:
256,192,83825,1,0,0:0:0:0:
460,192,83927,1,0,0:0:0:0:
153,192,84028,1,0,0:0:0:0:
358,192,84028,1,0,0:0:0:0:
256,192,84231,1,0,0:0:0:0:
460,192,84231,1,0,0:0:0:0:
460,192,84433,1,0,0:0:0:0:
358,192,84433,1,0,0:0:0:0:
153,192,84433,1,0,0:0:0:0:
358,192,84636,1,0,0:0:0:0:
256,192,84636,1,0,0:0:0:0:
51,192,84737,1,0,0:0:0:0:
153,192,84839,1,0,0:0:0:0:
256,192,84839,128,0,85244:0:0:0:0:
460,192,84839,1,0,0:0:0:0:
358,192,85042,1,0,0:0:0:0:
51,192,85042,1,0,0:0:0:0:
153,192,85244,1,0,0:0:0:0:
460,192,85244,1,0,0:0:0:0:
153,192,85447,128,0,86055:0:0:0:0:
51,192,85447,1,0,0:0:0:0:
358,192,85447,1,0,0:0:0:0:
256,192,85852,1,0,0:0:0:0:
460,192,85852,1,0,0:0:0:0:
358,192,86055,1,0,0:0:0:0:
51,192,86055,1,0,0:0:0:0:
460,192,86055,1,0,0:0:0:0:
460,192,86258,1,0,0:0:0:0:
153,192,86258,1,0,0:0:0:0:
256,192,86258,1,0,0:0:0:0:
51,192,86258,128,0,86866:0:0:0:0:
460,192,86663,1,0,0:0:0:0:
358,192,86663,1,0,0:0:0:0:
256,192,86866,1,0,0:0:0:0:
153,192,86866,1,0,0:0:0:0:
51,192,87069,1,0,0:0:0:0:
358,192,87069,1,0,0:0:0:0:
153,192,87271,1,0,0:0:0:0:
460,192,87271,1,0,0:0:0:0:
