osu file format v14

[General]
AudioFilename: Friend Shitai.mp3
AudioLeadIn: 0
PreviewTime: 8420
Countdown: 0
SampleSet: Soft
StackLeniency: 0.7
Mode: 3
LetterboxInBreaks: 1
SpecialStyle: 0
WidescreenStoryboard: 0

[Editor]
DistanceSpacing: 1
BeatDivisor: 4
GridSize: 8
TimelineZoom: 3.000001

[Metadata]
Title:Friend Shitai
TitleUnicode:Friend Shitai
Artist:Gakuen Seikatsu Bu
ArtistUnicode:Gakuen Seikatsu Bu
Creator:leqek
Version:4K HD
Source:がっこうぐらし!
Tags:Gakkou Gurashi,_FrEsH_ChICkEn_,Shirou
BeatmapID:797703
BeatmapSetID:363282

[Difficulty]
HPDrainRate:7
CircleSize:4
OverallDifficulty:4
ApproachRate:5
SliderMultiplier:1.4
SliderTickRate:1

[Events]
//Background and Video events
0,0,"BG.jpg",0,0
//Break Periods
//Storyboard Layer 0 (Background)
//Storyboard Layer 1 (Fail)
//Storyboard Layer 2 (Pass)
//Storyboard Layer 3 (Foreground)
//Storyboard Sound Samples

[TimingPoints]
515,405.405405405405,4,2,0,22,1,0
7204,-1000,4,2,0,22,0,0
8014,-66.6666666666667,4,2,0,22,0,0
8319,-100,4,2,0,22,0,0
8623,-100,4,2,0,22,0,1
21596,-100,4,2,0,22,0,0
60717,-1000,4,2,0,22,0,0
61528,-66.6666666666667,4,2,0,22,0,0
61832,-100,4,2,0,22,0,0
62136,-100,4,2,0,22,0,1
75008,-100,4,2,0,22,0,0
75109,-100,4,2,0,22,0,1
87271,-100,4,2,0,22,0,0

[HitObjects]
64,192,515,5,0,0:0:0:0:
192,192,616,1,0,0:0:0:0:
320,192,717,1,0,0:0:0:0:
448,192,819,1,0,0:0:0:0:
64,192,920,1,0,0:0:0:0:
192,192,920,1,0,0:0:0:0:
448,192,1325,1,0,0:0:0:0:
320,192,1427,1,0,0:0:0:0:
192,192,1528,1,0,0:0:0:0:
64,192,1629,1,0,0:0:0:0:
448,192,1731,1,0,0:0:0:0:
320,192,1731,1,0,0:0:0:0:
192,192,2136,1,0,0:0:0:0:
448,192,2237,1,0,0:0:0:0:
64,192,2339,1,0,0:0:0:0:
320,192,2440,1,0,0:0:0:0:
192,192,2542,1,0,0:0:0:0:
448,192,2542,1,0,0:0:0:0:
320,192,2947,1,0,0:0:0:0:
64,192,3048,1,0,0:0:0:0:
448,192,3150,1,0,0:0:0:0:
192,192,3251,1,0,0:0:0:0:
320,192,3352,1,0,0:0:0:0:
64,192,3352,1,0,0:0:0:0:
64,192,3758,1,0,0:0:0:0:
448,192,3758,1,0,0:0:0:0:
192,192,3859,1,0,0:0:0:0:
320,192,3960,1,0,0:0:0:0:
448,192,4062,1,0,0:0:0:0:
320,192,4163,1,0,0:0:0:0:
192,192,4264,1,0,0:0:0:0:
320,192,4366,1,0,0:0:0:0:
192,192,4467,1,0,0:0:0:0:
448,192,4569,1,0,0:0:0:0:
64,192,4569,1,0,0:0:0:0:
320,192,4670,1,0,0:0:0:0:
192,192,4771,1,0,0:0:0:0:
64,192,4873,1,0,0:0:0:0:
192,192,4974,1,0,0:0:0:0:
320,192,5075,1,0,0:0:0:0:
448,192,5177,1,0,0:0:0:0:
192,192,5278,1,0,0:0:0:0:
320,192,5379,1,0,0:0:0:0:
64,192,5379,1,0,0:0:0:0:
448,192,5481,1,0,0:0:0:0:
192,192,5582,1,0,0:0:0:0:
64,192,5683,1,0,0:0:0:0:
448,192,5785,1,0,0:0:0:0:
320,192,5886,1,0,0:0:0:0:
192,192,5987,1,0,0:0:0:0:
64,192,6089,1,0,0:0:0:0:
192,192,6190,1,0,0:0:0:0:
448,192,6190,1,0,0:0:0:0:
64,192,6292,1,0,0:0:0:0:
320,192,6393,1,0,0:0:0:0:
448,192,6494,1,0,0:0:0:0:
64,192,6596,1,0,0:0:0:0:
192,192,6697,1,0,0:0:0:0:
320,192,6798,1,0,0:0:0:0:
448,192,6900,1,0,0:0:0:0:
448,192,8217,1,0,0:0:0:0:
64,192,8217,1,0,0:0:0:0:
192,192,8623,1,0,0:0:0:0:
448,192,8623,1,0,0:0:0:0:
320,192,8825,1,0,0:0:0:0:
64,192,9028,1,0,0:0:0:0:
448,192,9028,1,0,0:0:0:0:
320,192,9231,1,0,0:0:0:0:
192,192,9433,1,0,0:0:0:0:
320,192,9636,1,0,0:0:0:0:
64,192,9839,1,0,0:0:0:0:
448,192,9839,1,0,0:0:0:0:
192,192,10042,1,0,0:0:0:0:
320,192,10244,1,0,0:0:0:0:
64,192,10447,1,0,0:0:0:0:
192,192,10650,1,0,0:0:0:0:
448,192,10650,1,0,0:0:0:0:
320,192,10852,1,0,0:0:0:0:
192,192,11055,1,0,0:0:0:0:
64,192,11258,1,0,0:0:0:0:
448,192,11258,1,0,0:0:0:0:
320,192,11460,1,0,0:0:0:0:
192,192,11460,1,0,0:0:0:0:
448,192,11663,1,0,0:0:0:0:
64,192,11866,1,0,0:0:0:0:
320,192,12069,1,0,0:0:0:0:
192,192,12271,1,0,0:0:0:0:
64,192,12271,1,0,0:0:0:0:
448,192,12474,1,0,0:0:0:0:
320,192,12677,1,0,0:0:0:0:
192,192,12879,1,0,0:0:0:0:
64,192,13082,1,0,0:0:0:0:
320,192,13082,1,0,0:0:0:0:
192,192,13285,1,0,0:0:0:0:
320,192,13487,1,0,0:0:0:0:
448,192,13487,1,0,0:0:0:0:
64,192,13690,1,0,0:0:0:0:
192,192,13893,1,0,0:0:0:0:
448,192,13893,128,0,14096:0:0:0:0:
320,192,14096,1,0,0:0:0:0:
64,192,14096,128,0,14501:0:0:0:0:
192,192,14501,1,0,0:0:0:0:
320,192,14602,1,0,0:0:0:0:
448,192,14704,1,0,0:0:0:0:
320,192,14906,1,0,0:0:0:0:
192,192,15008,1,0,0:0:0:0:
64,192,15109,1,0,0:0:0:0:
448,192,15109,1,0,0:0:0:0:
320,192,15312,1,0,0:0:0:0:
192,192,15514,1,0,0:0:0:0:
64,192,15514,1,0,0:0:0:0:
448,192,15514,1,0,0:0:0:0:
320,192,15717,1,0,0:0:0:0:
448,192,15920,1,0,0:0:0:0:
192,192,16123,1,0,0:0:0:0:
320,192,16325,1,0,0:0:0:0:
448,192,16325,1,0,0:0:0:0:
64,192,16528,1,0,0:0:0:0:
192,192,16731,1,0,0:0:0:0:
448,192,16933,1,0,0:0:0:0:
320,192,17136,1,0,0:0:0:0:
192,192,17136,1,0,0:0:0:0:
64,192,17339,1,0,0:0:0:0:
192,192,17542,1,0,0:0:0:0:
448,192,17744,1,0,0:0:0:0:
320,192,17947,1,0,0:0:0:0:
448,192,17947,1,0,0:0:0:0:
192,192,18150,1,0,0:0:0:0:
448,192,18352,1,0,0:0:0:0:
64,192,18352,128,0,18555:0:0:0:0:
320,192,18555,1,0,0:0:0:0:
320,192,18758,1,0,0:0:0:0:
192,192,18758,1,0,0:0:0:0:
448,192,18960,1,0,0:0:0:0:
192,192,19366,1,0,0:0:0:0:
448,192,19569,1,0,0:0:0:0:
320,192,19771,1,0,0:0:0:0:
64,192,19771,128,0,20582:0:0:0:0:
448,192,20177,1,0,0:0:0:0:
320,192,20379,1,0,0:0:0:0:
192,192,20582,1,0,0:0:0:0:
64,192,20785,1,0,0:0:0:0:
320,192,20785,1,0,0:0:0:0:
448,192,20785,1,0,0:0:0:0:
192,192,21190,128,0,21596:0:0:0:0:
64,192,21596,1,0,0:0:0:0:
448,192,21596,1,0,0:0:0:0:
320,192,21697,1,0,0:0:0:0:
192,192,21798,1,0,0:0:0:0:
320,192,21900,1,0,0:0:0:0:
64,192,22001,1,0,0:0:0:0:
192,192,22102,1,0,0:0:0:0:
320,192,22204,1,0,0:0:0:0:
192,192,22305,1,0,0:0:0:0:
448,192,22406,1,0,0:0:0:0:
320,192,22508,1,0,0:0:0:0:
192,192,22609,1,0,0:0:0:0:
64,192,22710,1,0,0:0:0:0:
448,192,22812,1,0,0:0:0:0:
192,192,22913,1,0,0:0:0:0:
320,192,23014,1,0,0:0:0:0:
192,192,23116,1,0,0:0:0:0:
64,192,23217,1,0,0:0:0:0:
192,192,23319,1,0,0:0:0:0:
320,192,23420,1,0,0:0:0:0:
192,192,23521,1,0,0:0:0:0:
448,192,23623,1,0,0:0:0:0:
320,192,23724,1,0,0:0:0:0:
64,192,23825,1,0,0:0:0:0:
320,192,23927,1,0,0:0:0:0:
192,192,24028,1,0,0:0:0:0:
64,192,24129,1,0,0:0:0:0:
192,192,24231,1,0,0:0:0:0:
320,192,24332,1,0,0:0:0:0:
448,192,24433,1,0,0:0:0:0:
192,192,24535,1,0,0:0:0:0:
320,192,24636,1,0,0:0:0:0:
64,192,24737,1,0,0:0:0:0:
320,192,24839,1,0,0:0:0:0:
192,192,24940,1,0,0:0:0:0:
64,192,25042,1,0,0:0:0:0:
320,192,25143,1,0,0:0:0:0:
192,192,25244,1,0,0:0:0:0:
448,192,25346,1,0,0:0:0:0:
320,192,25447,1,0,0:0:0:0:
192,192,25548,1,0,0:0:0:0:
320,192,25650,1,0,0:0:0:0:
64,192,25751,1,0,0:0:0:0:
192,192,25852,1,0,0:0:0:0:
320,192,25954,1,0,0:0:0:0:
448,192,26055,1,0,0:0:0:0:
192,192,26156,1,0,0:0:0:0:
320,192,26258,1,0,0:0:0:0:
448,192,26359,1,0,0:0:0:0:
192,192,26460,1,0,0:0:0:0:
64,192,26460,1,0,0:0:0:0:
320,192,26663,1,0,0:0:0:0:
448,192,26663,1,0,0:0:0:0:
64,192,26866,1,0,0:0:0:0:
192,192,26866,1,0,0:0:0:0:
320,192,27069,1,0,0:0:0:0:
192,192,27170,1,0,0:0:0:0:
320,192,27271,1,0,0:0:0:0:
448,192,27271,1,0,0:0:0:0:
64,192,27474,1,0,0:0:0:0:
192,192,27575,1,0,0:0:0:0:
320,192,27677,1,0,0:0:0:0:
448,192,27677,1,0,0:0:0:0:
192,192,27879,1,0,0:0:0:0:
320,192,27981,1,0,0:0:0:0:
448,192,28082,1,0,0:0:0:0:
64,192,28082,1,0,0:0:0:0:
192,192,28183,1,0,0:0:0:0:
320,192,28285,1,0,0:0:0:0:
64,192,28386,1,0,0:0:0:0:
192,192,28487,1,0,0:0:0:0:
320,192,28589,1,0,0:0:0:0:
448,192,28690,1,0,0:0:0:0:
192,192,28792,1,0,0:0:0:0:
320,192,28893,1,0,0:0:0:0:
64,192,28994,1,0,0:0:0:0:
320,192,29096,1,0,0:0:0:0:
192,192,29197,1,0,0:0:0:0:
448,192,29298,1,0,0:0:0:0:
192,192,29400,1,0,0:0:0:0:
320,192,29501,1,0,0:0:0:0:
192,192,29602,1,0,0:0:0:0:
64,192,29704,1,0,0:0:0:0:
320,192,29805,1,0,0:0:0:0:
192,192,29906,1,0,0:0:0:0:
320,192,30008,1,0,0:0:0:0:
448,192,30109,1,0,0:0:0:0:
320,192,30210,1,0,0:0:0:0:
192,192,30312,1,0,0:0:0:0:
320,192,30413,1,0,0:0:0:0:
64,192,30514,1,0,0:0:0:0:
192,192,30616,1,0,0:0:0:0:
320,192,30717,1,0,0:0:0:0:
448,192,30819,1,0,0:0:0:0:
320,192,30920,1,0,0:0:0:0:
192,192,31021,1,0,0:0:0:0:
64,192,31123,1,0,0:0:0:0:
192,192,31224,1,0,0:0:0:0:
448,192,31325,1,0,0:0:0:0:
320,192,31325,1,0,0:0:0:0:
64,192,31528,1,0,0:0:0:0:
192,192,31528,1,0,0:0:0:0:
192,192,31731,1,0,0:0:0:0:
448,192,31731,1,0,0:0:0:0:
320,192,31933,1,0,0:0:0:0:
64,192,31933,1,0,0:0:0:0:
192,192,32339,1,0,0:0:0:0:
320,192,32339,1,0,0:0:0:0:
448,192,32542,1,0,0:0:0:0:
64,192,32542,1,0,0:0:0:0:
320,192,32744,1,0,0:0:0:0:
192,192,32744,1,0,0:0:0:0:
192,192,32947,1,0,0:0:0:0:
448,192,32947,1,0,0:0:0:0:
64,192,32947,1,0,0:0:0:0:
320,192,33352,1,0,0:0:0:0:
192,192,33352,1,0,0:0:0:0:
448,192,33758,1,0,0:0:0:0:
320,192,33758,1,0,0:0:0:0:
64,192,34569,1,0,0:0:0:0:
448,192,34569,1,0,0:0:0:0:
320,192,34771,1,0,0:0:0:0:
192,192,34974,1,0,0:0:0:0:
448,192,34974,1,0,0:0:0:0:
320,192,35177,1,0,0:0:0:0:
64,192,35177,1,0,0:0:0:0:
448,192,35278,1,0,0:0:0:0:
192,192,35379,1,0,0:0:0:0:
192,192,35582,1,0,0:0:0:0:
64,192,35582,1,0,0:0:0:0:
320,192,35785,1,0,0:0:0:0:
448,192,35987,1,0,0:0:0:0:
320,192,36190,1,0,0:0:0:0:
64,192,36190,1,0,0:0:0:0:
192,192,36393,1,0,0:0:0:0:
320,192,36596,1,0,0:0:0:0:
448,192,36596,1,0,0:0:0:0:
320,192,36798,1,0,0:0:0:0:
64,192,36798,1,0,0:0:0:0:
192,192,36900,1,0,0:0:0:0:
448,192,37001,1,0,0:0:0:0:
192,192,37204,1,0,0:0:0:0:
448,192,37204,1,0,0:0:0:0:
320,192,37406,1,0,0:0:0:0:
192,192,37609,1,0,0:0:0:0:
64,192,37812,1,0,0:0:0:0:
320,192,37812,1,0,0:0:0:0:
192,192,38014,1,0,0:0:0:0:
320,192,38217,1,0,0:0:0:0:
448,192,38217,1,0,0:0:0:0:
192,192,38420,1,0,0:0:0:0:
64,192,38420,1,0,0:0:0:0:
448,192,38521,1,0,0:0:0:0:
320,192,38623,1,0,0:0:0:0:
64,192,38825,1,0,0:0:0:0:
448,192,38825,1,0,0:0:0:0:
320,192,39028,1,0,0:0:0:0:
192,192,39231,1,0,0:0:0:0:
64,192,39433,1,0,0:0:0:0:
448,192,39433,1,0,0:0:0:0:
320,192,39636,1,0,0:0:0:0:
192,192,39636,1,0,0:0:0:0:
192,192,39839,1,0,0:0:0:0:
448,192,39839,1,0,0:0:0:0:
64,192,40042,1,0,0:0:0:0:
320,192,40042,1,0,0:0:0:0:
192,192,40244,1,0,0:0:0:0:
448,192,40244,1,0,0:0:0:0:
320,192,40447,1,0,0:0:0:0:
64,192,40447,1,0,0:0:0:0:
64,192,40650,1,0,0:0:0:0:
448,192,40650,1,0,0:0:0:0:
192,192,40852,1,0,0:0:0:0:
320,192,40852,1,0,0:0:0:0:
448,192,41055,1,0,0:0:0:0:
64,192,41055,1,0,0:0:0:0:
320,192,41055,1,0,0:0:0:0:
192,192,41258,1,0,0:0:0:0:
64,192,41460,1,0,0:0:0:0:
320,192,41460,1,0,0:0:0:0:
192,192,41663,1,0,0:0:0:0:
448,192,41663,1,0,0:0:0:0:
320,192,41764,1,0,0:0:0:0:
448,192,41866,1,0,0:0:0:0:
192,192,42069,1,0,0:0:0:0:
64,192,42271,1,0,0:0:0:0:
448,192,42271,1,0,0:0:0:0:
320,192,42474,1,0,0:0:0:0:
192,192,42677,1,0,0:0:0:0:
448,192,42677,1,0,0:0:0:0:
64,192,42879,1,0,0:0:0:0:
320,192,43082,1,0,0:0:0:0:
192,192,43082,1,0,0:0:0:0:
448,192,43285,1,0,0:0:0:0:
64,192,43285,1,0,0:0:0:0:
192,192,43386,1,0,0:0:0:0:
320,192,43487,1,0,0:0:0:0:
448,192,43690,1,0,0:0:0:0:
320,192,43893,1,0,0:0:0:0:
64,192,43893,1,0,0:0:0:0:
320,192,44096,1,0,0:0:0:0:
192,192,44197,1,0,0:0:0:0:
448,192,44298,1,0,0:0:0:0:
64,192,44298,1,0,0:0:0:0:
320,192,44501,1,0,0:0:0:0:
192,192,44704,1,0,0:0:0:0:
448,192,44704,1,0,0:0:0:0:
320,192,44906,1,0,0:0:0:0:
64,192,45109,1,0,0:0:0:0:
320,192,45109,1,0,0:0:0:0:
192,192,45312,1,0,0:0:0:0:
192,192,45514,1,0,0:0:0:0:
448,192,45514,1,0,0:0:0:0:
320,192,45717,1,0,0:0:0:0:
192,192,45920,1,0,0:0:0:0:
64,192,45920,1,0,0:0:0:0:
448,192,45920,1,0,0:0:0:0:
64,192,46123,1,0,0:0:0:0:
192,192,46325,1,0,0:0:0:0:
320,192,46528,1,0,0:0:0:0:
448,192,46528,1,0,0:0:0:0:
64,192,46528,1,0,0:0:0:0:
192,192,47542,1,0,0:0:0:0:
448,192,47542,1,0,0:0:0:0:
320,192,47542,128,0,47947:0:0:0:0:
64,192,47947,1,0,0:0:0:0:
320,192,48150,1,0,0:0:0:0:
192,192,48352,128,0,48758:0:0:0:0:
64,192,48758,1,0,0:0:0:0:
320,192,48758,1,0,0:0:0:0:
192,192,49163,128,0,49569:0:0:0:0:
64,192,49163,1,0,0:0:0:0:
448,192,49569,1,0,0:0:0:0:
192,192,49771,1,0,0:0:0:0:
320,192,49974,128,0,50379:0:0:0:0:
192,192,50379,1,0,0:0:0:0:
448,192,50379,1,0,0:0:0:0:
64,192,50785,128,0,51190:0:0:0:0:
320,192,50785,1,0,0:0:0:0:
192,192,51190,1,0,0:0:0:0:
448,192,51393,1,0,0:0:0:0:
320,192,51596,128,0,52001:0:0:0:0:
192,192,52001,1,0,0:0:0:0:
64,192,52001,1,0,0:0:0:0:
192,192,52406,1,0,0:0:0:0:
448,192,52406,128,0,52812:0:0:0:0:
320,192,52812,1,0,0:0:0:0:
64,192,53014,1,0,0:0:0:0:
192,192,53217,128,0,53623:0:0:0:0:
320,192,53623,1,0,0:0:0:0:
448,192,53623,1,0,0:0:0:0:
320,192,54028,1,0,0:0:0:0:
448,192,54028,1,0,0:0:0:0:
64,192,54028,128,0,54636:0:0:0:0:
192,192,54231,1,0,0:0:0:0:
448,192,54433,1,0,0:0:0:0:
320,192,54636,1,0,0:0:0:0:
192,192,54839,1,0,0:0:0:0:
448,192,54839,1,0,0:0:0:0:
64,192,54839,1,0,0:0:0:0:
320,192,55244,1,0,0:0:0:0:
448,192,55244,1,0,0:0:0:0:
192,192,55244,128,0,55852:0:0:0:0:
64,192,55447,1,0,0:0:0:0:
448,192,55650,1,0,0:0:0:0:
320,192,55852,1,0,0:0:0:0:
64,192,56055,1,0,0:0:0:0:
448,192,56055,1,0,0:0:0:0:
192,192,56258,1,0,0:0:0:0:
320,192,56460,1,0,0:0:0:0:
448,192,56460,128,0,56866:0:0:0:0:
64,192,56460,1,0,0:0:0:0:
64,192,56866,1,0,0:0:0:0:
320,192,57069,1,0,0:0:0:0:
448,192,57271,1,0,0:0:0:0:
64,192,57271,1,0,0:0:0:0:
320,192,57373,1,0,0:0:0:0:
192,192,57474,1,0,0:0:0:0:
64,192,57575,1,0,0:0:0:0:
192,192,57677,1,0,0:0:0:0:
320,192,57778,1,0,0:0:0:0:
192,192,57879,1,0,0:0:0:0:
448,192,57981,1,0,0:0:0:0:
64,192,58082,1,0,0:0:0:0:
320,192,58082,1,0,0:0:0:0:
192,192,58183,1,0,0:0:0:0:
320,192,58285,1,0,0:0:0:0:
448,192,58386,1,0,0:0:0:0:
320,192,58487,1,0,0:0:0:0:
192,192,58589,1,0,0:0:0:0:
64,192,58690,1,0,0:0:0:0:
320,192,58792,1,0,0:0:0:0:
192,192,58893,1,0,0:0:0:0:
448,192,58893,1,0,0:0:0:0:
320,192,58994,1,0,0:0:0:0:
192,192,59096,1,0,0:0:0:0:
64,192,59197,1,0,0:0:0:0:
192,192,59298,1,0,0:0:0:0:
320,192,59400,1,0,0:0:0:0:
448,192,59501,1,0,0:0:0:0:
192,192,59602,1,0,0:0:0:0:
320,192,59704,1,0,0:0:0:0:
448,192,59704,1,0,0:0:0:0:
192,192,59805,1,0,0:0:0:0:
64,192,59906,1,0,0:0:0:0:
448,192,60008,1,0,0:0:0:0:
320,192,60109,1,0,0:0:0:0:
192,192,60210,1,0,0:0:0:0:
320,192,60312,1,0,0:0:0:0:
448,192,60413,1,0,0:0:0:0:
64,192,61731,1,0,0:0:0:0:
448,192,61731,1,0,0:0:0:0:
192,192,62136,1,0,0:0:0:0:
448,192,62136,1,0,0:0:0:0:
64,192,62136,1,0,0:0:0:0:
320,192,62339,1,0,0:0:0:0:
192,192,62542,1,0,0:0:0:0:
448,192,62542,1,0,0:0:0:0:
64,192,62744,1,0,0:0:0:0:
192,192,62846,1,0,0:0:0:0:
320,192,62947,1,0,0:0:0:0:
448,192,62947,1,0,0:0:0:0:
64,192,63150,1,0,0:0:0:0:
192,192,63352,1,0,0:0:0:0:
320,192,63352,1,0,0:0:0:0:
448,192,63555,1,0,0:0:0:0:
192,192,63758,1,0,0:0:0:0:
64,192,63758,1,0,0:0:0:0:
448,192,63960,1,0,0:0:0:0:
320,192,64163,1,0,0:0:0:0:
64,192,64163,1,0,0:0:0:0:
192,192,64366,1,0,0:0:0:0:
320,192,64569,1,0,0:0:0:0:
448,192,64569,1,0,0:0:0:0:
192,192,64771,1,0,0:0:0:0:
64,192,64771,1,0,0:0:0:0:
64,192,64974,1,0,0:0:0:0:
448,192,64974,1,0,0:0:0:0:
320,192,65177,1,0,0:0:0:0:
192,192,65379,1,0,0:0:0:0:
448,192,65379,1,0,0:0:0:0:
320,192,65582,1,0,0:0:0:0:
64,192,65785,1,0,0:0:0:0:
448,192,65785,1,0,0:0:0:0:
192,192,65987,1,0,0:0:0:0:
320,192,66190,1,0,0:0:0:0:
448,192,66190,1,0,0:0:0:0:
192,192,66393,1,0,0:0:0:0:
64,192,66596,1,0,0:0:0:0:
448,192,66596,1,0,0:0:0:0:
320,192,66798,1,0,0:0:0:0:
448,192,67001,1,0,0:0:0:0:
64,192,67001,1,0,0:0:0:0:
192,192,67001,128,0,67204:0:0:0:0:
320,192,67204,1,0,0:0:0:0:
192,192,67406,1,0,0:0:0:0:
448,192,67406,1,0,0:0:0:0:
320,192,67609,1,0,0:0:0:0:
64,192,67609,128,0,68014:0:0:0:0:
192,192,68014,1,0,0:0:0:0:
448,192,68014,1,0,0:0:0:0:
320,192,68217,1,0,0:0:0:0:
64,192,68217,1,0,0:0:0:0:
192,192,68420,1,0,0:0:0:0:
448,192,68521,1,0,0:0:0:0:
320,192,68623,1,0,0:0:0:0:
64,192,68623,1,0,0:0:0:0:
192,192,68825,1,0,0:0:0:0:
448,192,69028,1,0,0:0:0:0:
64,192,69028,1,0,0:0:0:0:
320,192,69028,1,0,0:0:0:0:
192,192,69231,1,0,0:0:0:0:
64,192,69332,1,0,0:0:0:0:
320,192,69433,1,0,0:0:0:0:
448,192,69433,1,0,0:0:0:0:
192,192,69636,1,0,0:0:0:0:
320,192,69839,1,0,0:0:0:0:
64,192,69839,1,0,0:0:0:0:
192,192,70042,1,0,0:0:0:0:
320,192,70244,1,0,0:0:0:0:
448,192,70244,1,0,0:0:0:0:
192,192,70447,1,0,0:0:0:0:
64,192,70650,1,0,0:0:0:0:
448,192,70650,1,0,0:0:0:0:
192,192,70852,1,0,0:0:0:0:
320,192,71055,1,0,0:0:0:0:
64,192,71055,1,0,0:0:0:0:
448,192,71258,1,0,0:0:0:0:
192,192,71258,1,0,0:0:0:0:
64,192,71460,1,0,0:0:0:0:
448,192,71460,1,0,0:0:0:0:
192,192,71663,1,0,0:0:0:0:
448,192,71866,1,0,0:0:0:0:
320,192,71866,1,0,0:0:0:0:
192,192,72069,1,0,0:0:0:0:
320,192,72271,1,0,0:0:0:0:
64,192,72271,1,0,0:0:0:0:
448,192,72474,1,0,0:0:0:0:
64,192,72677,1,0,0:0:0:0:
192,192,72677,1,0,0:0:0:0:
320,192,72879,1,0,0:0:0:0:
448,192,72879,1,0,0:0:0:0:
192,192,73082,1,0,0:0:0:0:
320,192,73082,1,0,0:0:0:0:
64,192,73285,1,0,0:0:0:0:
448,192,73285,128,0,74298:0:0:0:0:
192,192,73285,1,0,0:0:0:0:
320,192,73690,1,0,0:0:0:0:
192,192,73792,1,0,0:0:0:0:
64,192,73893,1,0,0:0:0:0:
192,192,74096,1,0,0:0:0:0:
320,192,74197,1,0,0:0:0:0:
192,192,74298,1,0,0:0:0:0:
64,192,74298,1,0,0:0:0:0:
320,192,74501,1,0,0:0:0:0:
192,192,74501,1,0,0:0:0:0:
320,192,74704,1,0,0:0:0:0:
448,192,74704,1,0,0:0:0:0:
320,192,75109,1,0,0:0:0:0:
448,192,75109,1,0,0:0:0:0:
64,192,75109,1,0,0:0:0:0:
192,192,75312,1,0,0:0:0:0:
448,192,75514,1,0,0:0:0:0:
64,192,75514,1,0,0:0:0:0:
192,192,75717,1,0,0:0:0:0:
448,192,75920,1,0,0:0:0:0:
320,192,75920,1,0,0:0:0:0:
64,192,76123,1,0,0:0:0:0:
192,192,76325,1,0,0:0:0:0:
448,192,76325,1,0,0:0:0:0:
320,192,76528,1,0,0:0:0:0:
64,192,76731,1,0,0:0:0:0:
192,192,76731,1,0,0:0:0:0:
320,192,76933,1,0,0:0:0:0:
192,192,77136,1,0,0:0:0:0:
448,192,77136,1,0,0:0:0:0:
64,192,77339,1,0,0:0:0:0:
192,192,77542,1,0,0:0:0:0:
448,192,77542,1,0,0:0:0:0:
320,192,77744,1,0,0:0:0:0:
64,192,77744,1,0,0:0:0:0:
64,192,77947,1,0,0:0:0:0:
448,192,77947,1,0,0:0:0:0:
192,192,78150,1,0,0:0:0:0:
320,192,78352,1,0,0:0:0:0:
448,192,78352,1,0,0:0:0:0:
64,192,78555,1,0,0:0:0:0:
192,192,78758,1,0,0:0:0:0:
448,192,78758,1,0,0:0:0:0:
320,192,78960,1,0,0:0:0:0:
192,192,79163,1,0,0:0:0:0:
64,192,79163,1,0,0:0:0:0:
448,192,79366,1,0,0:0:0:0:
64,192,79569,1,0,0:0:0:0:
320,192,79569,1,0,0:0:0:0:
192,192,79771,1,0,0:0:0:0:
64,192,79974,1,0,0:0:0:0:
448,192,79974,1,0,0:0:0:0:
320,192,79974,1,0,0:0:0:0:
192,192,80177,1,0,0:0:0:0:
64,192,80379,1,0,0:0:0:0:
448,192,80379,1,0,0:0:0:0:
320,192,80582,1,0,0:0:0:0:
192,192,80582,128,0,80987:0:0:0:0:
448,192,80987,1,0,0:0:0:0:
320,192,81089,1,0,0:0:0:0:
192,192,81190,1,0,0:0:0:0:
64,192,81190,1,0,0:0:0:0:
64,192,81393,1,0,0:0:0:0:
192,192,81494,1,0,0:0:0:0:
448,192,81596,1,0,0:0:0:0:
320,192,81596,1,0,0:0:0:0:
192,192,81798,1,0,0:0:0:0:
64,192,82001,1,0,0:0:0:0:
320,192,82001,1,0,0:0:0:0:
448,192,82001,1,0,0:0:0:0:
320,192,82204,1,0,0:0:0:0:
448,192,82305,1,0,0:0:0:0:
192,192,82406,1,0,0:0:0:0:
64,192,82406,1,0,0:0:0:0:
320,192,82609,1,0,0:0:0:0:
64,192,82812,1,0,0:0:0:0:
448,192,82812,1,0,0:0:0:0:
192,192,83014,1,0,0:0:0:0:
64,192,83217,1,0,0:0:0:0:
448,192,83217,1,0,0:0:0:0:
320,192,83420,1,0,0:0:0:0:
192,192,83623,1,0,0:0:0:0:
64,192,83623,1,0,0:0:0:0:
320,192,83825,1,0,0:0:0:0:
192,192,84028,1,0,0:0:0:0:
448,192,84028,1,0,0:0:0:0:
320,192,84231,1,0,0:0:0:0:
64,192,84231,1,0,0:0:0:0:
192,192,84433,1,0,0:0:0:0:
320,192,84433,1,0,0:0:0:0:
64,192,84636,1,0,0:0:0:0:
448,192,84839,1,0,0:0:0:0:
192,192,84839,128,0,85244:0:0:0:0:
320,192,85042,1,0,0:0:0:0:
64,192,85244,1,0,0:0:0:0:
448,192,85244,1,0,0:0:0:0:
320,192,85447,128,0,86055:0:0:0:0:
192,192,85447,1,0,0:0:0:0:
64,192,85852,1,0,0:0:0:0:
448,192,86055,1,0,0:0:0:0:
192,192,86055,1,0,0:0:0:0:
320,192,86258,1,0,0:0:0:0:
64,192,86258,1,0,0:0:0:0:
448,192,86258,128,0,87069:0:0:0:0:
192,192,86663,1,0,0:0:0:0:
320,192,86663,1,0,0:0:0:0:
320,192,86866,1,0,0:0:0:0:
64,192,86866,1,0,0:0:0:0:
192,192,87069,1,0,0:0:0:0:
64,192,87069,1,0,0:0:0:0:
448,192,87271,1,0,0:0:0:0:
320,192,87271,1,0,0:0:0:0:
