osu file format v14

[General]
AudioFilename: Gakuen Seikatsu Bu - fu . re . n . do . shi . ta . i.mp3
AudioLeadIn: 0
PreviewTime: 62290
Countdown: 0
SampleSet: Normal
StackLeniency: 0.7
Mode: 1
LetterboxInBreaks: 0
WidescreenStoryboard: 0

[Editor]
DistanceSpacing: 1.2
BeatDivisor: 4
GridSize: 32
TimelineZoom: 3.099999

[Metadata]
Title:Friend Shitai
TitleUnicode:ふ・れ・ん・ど・し・た・い
Artist:Gakuen Seikatsu Bu
ArtistUnicode:学園生活部
Creator:aabc271
Version:Oni
Source:がっこうぐらし!
Tags:Taiko SCHOOL-LIVE! Gakkou Gurashi! Anime Opening TV Size Furendo fu.re.n.do.shi.ta.i
BeatmapID:738739
BeatmapSetID:333853

[Difficulty]
HPDrainRate:4
CircleSize:5
OverallDifficulty:5
ApproachRate:7
SliderMultiplier:1.4
SliderTickRate:1

[Events]
//Background and Video events
0,0,"BG.png",0,-20
//Break Periods
//Storyboard Layer 0 (Background)
//Storyboard Layer 1 (Fail)
//Storyboard Layer 2 (Pass)
//Storyboard Layer 3 (Foreground)
//Storyboard Sound Samples

[TimingPoints]
770,405.405405405405,4,1,0,80,1,0
770,-125,4,1,0,80,0,0
3911,-125,4,1,0,90,0,0
4013,-117.647058823529,4,1,0,90,0,0
4824,-111.111111111111,4,1,0,90,0,0
5634,-105.263157894737,4,1,0,90,0,0
6445,-100,4,1,0,90,0,0
8371,-76.9230769230769,4,1,0,100,0,0
8776,-90.9090909090909,4,1,0,95,0,0
8878,-90.9090909090909,4,1,0,95,0,1
21749,-95.2380952380952,4,1,0,90,0,1
21851,-95.2380952380952,4,1,0,90,0,0
34722,-100,4,1,0,85,0,0
47695,-100,4,1,0,80,0,0
48303,-105.263157894737,4,1,0,80,0,0
54182,-100,4,1,0,85,0,0
58337,-96.7741935483871,4,1,0,85,0,0
59047,-93.75,4,1,0,95,0,0
59959,-90.9090909090909,4,1,0,95,0,0
61884,-69.9300699300699,4,1,0,100,0,0
62391,-86.9565217391304,4,1,0,100,0,1
75364,-84.7457627118644,4,1,0,100,0,1
87526,-84.7457627118644,4,1,0,100,0,0

[HitObjects]
256,192,770,5,0,0:0:0:0:
256,192,1580,5,8,0:0:0:0:
256,192,2391,5,0,0:0:0:0:
256,192,3202,5,8,0:0:0:0:
256,192,4013,5,0,0:0:0:0:
256,192,4114,1,0,0:0:0:0:
256,192,4317,1,0,0:0:0:0:
256,192,4418,1,0,0:0:0:0:
256,192,4824,5,8,0:0:0:0:
256,192,4925,1,8,0:0:0:0:
256,192,5128,1,8,0:0:0:0:
256,192,5229,1,8,0:0:0:0:
256,192,5634,1,8,0:0:0:0:
256,192,5736,1,8,0:0:0:0:
256,192,5938,5,0,0:0:0:0:
256,192,6040,5,8,0:0:0:0:
256,192,6445,1,8,0:0:0:0:
256,192,6547,1,8,0:0:0:0:
256,192,6749,1,8,0:0:0:0:
256,192,6851,1,8,0:0:0:0:
256,192,7459,1,8,0:0:0:0:
256,192,7661,1,8,0:0:0:0:
256,192,7864,5,0,0:0:0:0:
256,192,8067,1,0,0:0:0:0:
256,192,8472,5,12,0:0:0:0:
256,192,8878,1,12,0:0:0:0:
256,192,9080,5,0,0:0:0:0:
256,192,9182,1,0,0:0:0:0:
256,192,9283,5,8,0:0:0:0:
256,192,9486,1,8,0:0:0:0:
256,192,9891,5,0,0:0:0:0:
256,192,10094,1,0,0:0:0:0:
256,192,10297,5,8,0:0:0:0:
256,192,10499,5,0,0:0:0:0:
256,192,10702,5,8,0:0:0:0:
256,192,10803,1,8,0:0:0:0:
256,192,10905,5,0,0:0:0:0:
256,192,11107,1,0,0:0:0:0:
256,192,11310,5,8,0:0:0:0:
256,192,11715,1,8,0:0:0:0:
256,192,11918,5,0,0:0:0:0:
256,192,12121,5,8,0:0:0:0:
256,192,12324,1,8,0:0:0:0:
256,192,12425,1,8,0:0:0:0:
256,192,12526,5,0,0:0:0:0:
256,192,12729,1,0,0:0:0:0:
256,192,13134,5,8,0:0:0:0:
256,192,13337,5,0,0:0:0:0:
256,192,13540,1,0,0:0:0:0:
256,192,13742,5,8,0:0:0:0:
256,192,13945,5,0,0:0:0:0:
256,192,14047,1,0,0:0:0:0:
256,192,14148,5,8,0:0:0:0:
256,192,14351,5,0,0:0:0:0:
256,192,14756,5,8,0:0:0:0:
256,192,14959,1,8,0:0:0:0:
256,192,15161,5,0,0:0:0:0:
256,192,15364,5,8,0:0:0:0:
256,192,15567,5,0,0:0:0:0:
256,192,15668,1,0,0:0:0:0:
256,192,15769,5,8,0:0:0:0:
256,192,15972,1,8,0:0:0:0:
256,192,16378,5,0,0:0:0:0:
256,192,16580,1,0,0:0:0:0:
256,192,16783,5,8,0:0:0:0:
256,192,16986,5,0,0:0:0:0:
256,192,17188,5,8,0:0:0:0:
256,192,17290,1,8,0:0:0:0:
256,192,17391,5,0,0:0:0:0:
256,192,17594,1,0,0:0:0:0:
256,192,17797,5,8,0:0:0:0:
256,192,17999,1,12,0:0:0:0:
256,192,18202,5,4,0:0:0:0:
256,192,18405,1,0,0:0:0:0:
256,192,18607,5,8,0:0:0:0:
256,192,18810,1,8,0:0:0:0:
256,192,18911,1,8,0:0:0:0:
256,192,19013,5,0,0:0:0:0:
256,192,19215,1,0,0:0:0:0:
256,192,19621,1,0,0:0:0:0:
256,192,19824,5,8,0:0:0:0:
256,192,20026,5,0,0:0:0:0:
256,192,20432,5,8,0:0:0:0:
256,192,20634,5,0,0:0:0:0:
256,192,20837,1,0,0:0:0:0:
256,192,21040,5,12,0:0:0:0:
256,192,21851,1,12,0:0:0:0:
256,192,22053,5,0,0:0:0:0:
256,192,22155,1,0,0:0:0:0:
256,192,22256,5,8,0:0:0:0:
256,192,22459,1,8,0:0:0:0:
256,192,22864,5,0,0:0:0:0:
256,192,23067,5,8,0:0:0:0:
256,192,23269,5,0,0:0:0:0:
256,192,23472,1,4,0:0:0:0:
256,192,23878,5,12,0:0:0:0:
256,192,24283,5,4,0:0:0:0:
256,192,24688,5,8,0:0:0:0:
256,192,25094,1,8,0:0:0:0:
256,192,25297,5,0,0:0:0:0:
256,192,25398,1,0,0:0:0:0:
256,192,25499,5,8,0:0:0:0:
256,192,25702,1,8,0:0:0:0:
256,192,26107,5,0,0:0:0:0:
256,192,26310,5,8,0:0:0:0:
256,192,26513,5,0,0:0:0:0:
256,192,26715,1,0,0:0:0:0:
256,192,27019,1,0,0:0:0:0:
256,192,27121,1,0,0:0:0:0:
256,192,27324,5,8,0:0:0:0:
256,192,27526,1,8,0:0:0:0:
256,192,27628,1,8,0:0:0:0:
256,192,27729,5,0,0:0:0:0:
256,192,27830,1,0,0:0:0:0:
256,192,27932,5,8,0:0:0:0:
256,192,28337,1,12,0:0:0:0:
256,192,28540,5,0,0:0:0:0:
256,192,28641,1,0,0:0:0:0:
256,192,28742,5,8,0:0:0:0:
256,192,28945,1,8,0:0:0:0:
256,192,29351,5,0,0:0:0:0:
256,192,29553,5,8,0:0:0:0:
256,192,29756,5,0,0:0:0:0:
256,192,29959,1,4,0:0:0:0:
256,192,30364,5,12,0:0:0:0:
256,192,30769,5,4,0:0:0:0:
256,192,31175,5,8,0:0:0:0:
256,192,31580,1,8,0:0:0:0:
256,192,31783,5,0,0:0:0:0:
256,192,31884,1,0,0:0:0:0:
256,192,31986,5,8,0:0:0:0:
256,192,32188,1,8,0:0:0:0:
256,192,32594,5,0,0:0:0:0:
256,192,32797,5,8,0:0:0:0:
256,192,32999,5,0,0:0:0:0:
256,192,33202,1,4,0:0:0:0:
256,192,33607,5,12,0:0:0:0:
256,192,34013,1,12,0:0:0:0:
256,192,34824,5,4,0:0:0:0:
256,192,35026,5,8,0:0:0:0:
256,192,35229,1,8,0:0:0:0:
256,192,35432,5,0,0:0:0:0:
256,192,35634,1,0,0:0:0:0:
256,192,35837,1,0,0:0:0:0:
256,192,35938,5,8,0:0:0:0:
256,192,36242,5,0,0:0:0:0:
256,192,36445,5,8,0:0:0:0:
256,192,36648,5,0,0:0:0:0:
256,192,36749,1,0,0:0:0:0:
256,192,36851,5,8,0:0:0:0:
256,192,37053,5,0,0:0:0:0:
256,192,37256,1,0,0:0:0:0:
256,192,37459,1,0,0:0:0:0:
256,192,37560,5,8,0:0:0:0:
256,192,38067,5,0,0:0:0:0:
256,192,38269,5,8,0:0:0:0:
256,192,38472,1,8,0:0:0:0:
256,192,38675,1,8,0:0:0:0:
256,192,38878,5,0,0:0:0:0:
256,192,39080,1,0,0:0:0:0:
256,192,39182,1,0,0:0:0:0:
256,192,39283,5,8,0:0:0:0:
256,192,39486,5,0,0:0:0:0:
256,192,39688,1,0,0:0:0:0:
256,192,39790,1,0,0:0:0:0:
256,192,39891,5,8,0:0:0:0:
256,192,40094,5,0,0:0:0:0:
256,192,40195,1,0,0:0:0:0:
256,192,40297,5,8,0:0:0:0:
256,192,40499,1,8,0:0:0:0:
256,192,40702,1,8,0:0:0:0:
256,192,40803,1,8,0:0:0:0:
256,192,40905,5,0,0:0:0:0:
256,192,41107,1,0,0:0:0:0:
256,192,41310,1,4,0:0:0:0:
256,192,41513,5,8,0:0:0:0:
256,192,41715,1,8,0:0:0:0:
256,192,41918,5,0,0:0:0:0:
256,192,42121,1,0,0:0:0:0:
256,192,42324,1,0,0:0:0:0:
256,192,42425,5,8,0:0:0:0:
256,192,42729,5,0,0:0:0:0:
256,192,42932,5,8,0:0:0:0:
256,192,43134,5,0,0:0:0:0:
256,192,43236,1,0,0:0:0:0:
256,192,43337,5,8,0:0:0:0:
256,192,43540,5,0,0:0:0:0:
256,192,43742,1,0,0:0:0:0:
256,192,43945,1,0,0:0:0:0:
256,192,44047,5,8,0:0:0:0:
256,192,44351,1,8,0:0:0:0:
256,192,44452,1,8,0:0:0:0:
256,192,44553,5,0,0:0:0:0:
256,192,44756,1,0,0:0:0:0:
256,192,44959,5,8,0:0:0:0:
256,192,45161,5,0,0:0:0:0:
256,192,45364,1,0,0:0:0:0:
256,192,45567,5,8,0:0:0:0:
256,192,45668,1,8,0:0:0:0:
256,192,45769,5,0,0:0:0:0:
256,192,45972,5,8,0:0:0:0:
256,192,46175,1,12,0:0:0:0:
256,192,46378,5,0,0:0:0:0:
256,192,46580,5,8,0:0:0:0:
256,192,46783,1,12,0:0:0:0:
256,192,47188,5,0,0:0:0:0:
256,192,47391,5,8,0:0:0:0:
256,192,47594,1,8,0:0:0:0:
256,192,47797,1,12,0:0:0:0:
256,192,48405,5,0,0:0:0:0:
256,192,48607,5,8,0:0:0:0:
256,192,49013,1,8,0:0:0:0:
256,192,49215,1,8,0:0:0:0:
256,192,49418,1,8,0:0:0:0:
256,192,49824,1,8,0:0:0:0:
256,192,50026,5,0,0:0:0:0:
256,192,50229,5,8,0:0:0:0:
256,192,50634,1,8,0:0:0:0:
256,192,51040,1,8,0:0:0:0:
256,192,51648,5,0,0:0:0:0:
256,192,51851,1,0,0:0:0:0:
256,192,52053,5,8,0:0:0:0:
256,192,52256,1,8,0:0:0:0:
256,192,52459,1,8,0:0:0:0:
256,192,52661,1,8,0:0:0:0:
256,192,53067,1,8,0:0:0:0:
256,192,53269,5,0,0:0:0:0:
256,192,53472,5,8,0:0:0:0:
256,192,53878,1,8,0:0:0:0:
256,192,54283,5,4,0:0:0:0:
256,192,54486,5,8,0:0:0:0:
256,192,54587,1,8,0:0:0:0:
256,192,54688,5,0,0:0:0:0:
256,192,54891,1,0,0:0:0:0:
256,192,55094,1,0,0:0:0:0:
256,192,55499,1,4,0:0:0:0:
256,192,55702,5,8,0:0:0:0:
256,192,55803,1,8,0:0:0:0:
256,192,55905,5,0,0:0:0:0:
256,192,56107,1,0,0:0:0:0:
256,192,56310,1,0,0:0:0:0:
256,192,56513,1,0,0:0:0:0:
256,192,56715,5,12,0:0:0:0:
256,192,57121,5,0,0:0:0:0:
256,192,57324,5,8,0:0:0:0:
256,192,57526,5,0,0:0:0:0:
256,192,57628,1,0,0:0:0:0:
256,192,57830,1,0,0:0:0:0:
256,192,57932,1,0,0:0:0:0:
256,192,58337,5,8,0:0:0:0:
256,192,58438,1,8,0:0:0:0:
256,192,58641,1,8,0:0:0:0:
256,192,58742,1,8,0:0:0:0:
256,192,59148,1,8,0:0:0:0:
256,192,59249,1,8,0:0:0:0:
256,192,59452,5,0,0:0:0:0:
256,192,59553,5,8,0:0:0:0:
256,192,59959,1,8,0:0:0:0:
256,192,60060,1,8,0:0:0:0:
256,192,60263,1,8,0:0:0:0:
256,192,60364,1,8,0:0:0:0:
256,192,60972,1,8,0:0:0:0:
256,192,61175,1,8,0:0:0:0:
256,192,61378,5,0,0:0:0:0:
256,192,61580,1,0,0:0:0:0:
256,192,61986,5,12,0:0:0:0:
256,192,62391,1,12,0:0:0:0:
256,192,62594,5,0,0:0:0:0:
256,192,62695,1,0,0:0:0:0:
256,192,62797,5,8,0:0:0:0:
256,192,62999,1,8,0:0:0:0:
256,192,63405,5,0,0:0:0:0:
256,192,63607,1,0,0:0:0:0:
256,192,63810,5,8,0:0:0:0:
256,192,64013,5,0,0:0:0:0:
256,192,64215,5,8,0:0:0:0:
256,192,64317,1,8,0:0:0:0:
256,192,64418,5,0,0:0:0:0:
256,192,64621,1,0,0:0:0:0:
256,192,64824,5,8,0:0:0:0:
256,192,65229,1,8,0:0:0:0:
256,192,65432,5,0,0:0:0:0:
256,192,65634,5,8,0:0:0:0:
256,192,65837,1,8,0:0:0:0:
256,192,65938,1,8,0:0:0:0:
256,192,66040,5,0,0:0:0:0:
256,192,66242,1,0,0:0:0:0:
256,192,66648,5,8,0:0:0:0:
256,192,66851,5,0,0:0:0:0:
256,192,67053,1,0,0:0:0:0:
256,192,67256,5,8,0:0:0:0:
256,192,67459,5,0,0:0:0:0:
256,192,67560,1,0,0:0:0:0:
256,192,67661,5,8,0:0:0:0:
256,192,67864,5,0,0:0:0:0:
256,192,68269,5,8,0:0:0:0:
256,192,68472,1,8,0:0:0:0:
256,192,68675,5,0,0:0:0:0:
256,192,68878,5,8,0:0:0:0:
256,192,69080,5,0,0:0:0:0:
256,192,69182,1,0,0:0:0:0:
256,192,69283,5,8,0:0:0:0:
256,192,69486,1,8,0:0:0:0:
256,192,69891,5,0,0:0:0:0:
256,192,70094,1,0,0:0:0:0:
256,192,70297,5,8,0:0:0:0:
256,192,70499,5,0,0:0:0:0:
256,192,70702,5,8,0:0:0:0:
256,192,70803,1,8,0:0:0:0:
256,192,70905,5,0,0:0:0:0:
256,192,71107,1,0,0:0:0:0:
256,192,71310,5,8,0:0:0:0:
256,192,71715,1,8,0:0:0:0:
256,192,71918,5,0,0:0:0:0:
256,192,72121,5,8,0:0:0:0:
256,192,72324,1,8,0:0:0:0:
256,192,72425,1,8,0:0:0:0:
256,192,72526,5,0,0:0:0:0:
256,192,72729,1,0,0:0:0:0:
256,192,73134,1,0,0:0:0:0:
256,192,73337,5,8,0:0:0:0:
256,192,73540,5,0,0:0:0:0:
256,192,73945,5,8,0:0:0:0:
256,192,74148,1,8,0:0:0:0:
256,192,74351,5,0,0:0:0:0:
256,192,74553,1,4,0:0:0:0:
256,192,74756,5,12,0:0:0:0:
256,192,74959,1,12,0:0:0:0:
256,192,75364,1,12,0:0:0:0:
256,192,75567,5,0,0:0:0:0:
256,192,75668,1,0,0:0:0:0:
256,192,75769,5,8,0:0:0:0:
256,192,75972,1,8,0:0:0:0:
256,192,76175,1,8,0:0:0:0:
256,192,76276,1,8,0:0:0:0:
256,192,76378,5,0,0:0:0:0:
256,192,76479,1,0,0:0:0:0:
256,192,76580,1,0,0:0:0:0:
256,192,76783,5,8,0:0:0:0:
256,192,76986,5,0,0:0:0:0:
256,192,77188,5,8,0:0:0:0:
256,192,77290,1,8,0:0:0:0:
256,192,77391,5,0,0:0:0:0:
256,192,77594,1,0,0:0:0:0:
256,192,77797,5,8,0:0:0:0:
256,192,78202,1,8,0:0:0:0:
256,192,78405,5,0,0:0:0:0:
256,192,78607,5,8,0:0:0:0:
256,192,78810,1,8,0:0:0:0:
256,192,78911,1,8,0:0:0:0:
256,192,79013,5,0,0:0:0:0:
256,192,79215,1,0,0:0:0:0:
256,192,79418,5,8,0:0:0:0:
256,192,79519,1,8,0:0:0:0:
256,192,79621,1,8,0:0:0:0:
256,192,79722,1,8,0:0:0:0:
256,192,79824,5,0,0:0:0:0:
256,192,80026,1,0,0:0:0:0:
256,192,80229,5,8,0:0:0:0:
256,192,80432,5,0,0:0:0:0:
256,192,80533,1,0,0:0:0:0:
256,192,80634,5,8,0:0:0:0:
256,192,80837,5,0,0:0:0:0:
256,192,81242,5,8,0:0:0:0:
256,192,81445,1,8,0:0:0:0:
256,192,81648,5,0,0:0:0:0:
256,192,81851,5,8,0:0:0:0:
256,192,82053,5,0,0:0:0:0:
256,192,82155,1,0,0:0:0:0:
256,192,82256,5,8,0:0:0:0:
256,192,82459,1,8,0:0:0:0:
256,192,82661,1,8,0:0:0:0:
256,192,82763,1,8,0:0:0:0:
256,192,82864,5,0,0:0:0:0:
256,192,82965,1,0,0:0:0:0:
256,192,83067,1,0,0:0:0:0:
256,192,83269,5,8,0:0:0:0:
256,192,83472,5,0,0:0:0:0:
256,192,83675,5,8,0:0:0:0:
256,192,83776,1,8,0:0:0:0:
256,192,83878,5,0,0:0:0:0:
256,192,84080,1,0,0:0:0:0:
256,192,84283,5,8,0:0:0:0:
256,192,84486,1,12,0:0:0:0:
256,192,84688,5,4,0:0:0:0:
256,192,84891,1,0,0:0:0:0:
256,192,85094,5,8,0:0:0:0:
256,192,85297,1,8,0:0:0:0:
256,192,85398,1,8,0:0:0:0:
256,192,85499,1,0,0:0:0:0:
256,192,85702,1,0,0:0:0:0:
256,192,86107,1,0,0:0:0:0:
256,192,86310,5,8,0:0:0:0:
256,192,86513,5,0,0:0:0:0:
256,192,86918,5,8,0:0:0:0:
256,192,87121,5,0,0:0:0:0:
256,192,87324,1,0,0:0:0:0:
256,192,87526,5,12,0:0:0:0:
