osu file format v12

[General]
AudioFilename: BTC - Control.mp3
AudioLeadIn: 0
PreviewTime: 133693
Countdown: 1
SampleSet: None
StackLeniency: 0.7
Mode: 0
LetterboxInBreaks: 0
StoryFireInFront: 0

[Editor]
DistanceSpacing: 0.5
BeatDivisor: 4
GridSize: 8

[Metadata]
Title:CONTROL
TitleUnicode:CONTROL
Artist:Gaijin Games
ArtistUnicode:Gaijin Games
Creator:TheSuyo
Version:NETHER [Easy]
Source:BIT.TRIP CORE
Tags:bit.trip gaijin games petrified productions chiptune
BeatmapID:236913
BeatmapSetID:29885

[Difficulty]
HPDrainRate:3
CircleSize:4
OverallDifficulty:4
ApproachRate:5
SliderMultiplier:1.00000000596046
SliderTickRate:1

[Events]
//Background and Video events
0,0,"bg.png",0,0
//Break Periods
2,112559,132493
//Storyboard Layer 0 (Background)
//Storyboard Layer 1 (Fail)
//Storyboard Layer 2 (Pass)
//Storyboard Layer 3 (Foreground)
//Storyboard Sound Samples
//Background Colour Transformations
3,100,0,0,0

[TimingPoints]
5693,666.666666666667,4,2,0,50,1,0
47705,-66.6666666666667,4,1,0,50,0,0
133705,-66.6666666666667,4,1,0,100,0,1
154023,-66.6666666666667,4,2,0,100,0,1
157693,-100,4,1,1,100,0,0

[Colours]
Combo1 : 64,54,113
Combo2 : 239,209,2
Combo3 : 243,165,12
Combo4 : 63,162,163
Combo5 : 215,105,163

[HitObjects]
128,224,16359,2,0,B|192:128|288:96,3,200.000001192092
384,160,21693,6,0,B|320:256|224:288,1,200.000001192092
320,256,24359,2,2,B|288:160,2,100.000000596046
224,64,27026,6,0,B|320:128|352:224,1,200.000001192092
184,120,29693,2,0,B|280:184|312:280,1,200.000001192092,0|0,0:0|0:0,0:0:0:0:
288,320,32360,6,0,B|192:256|160:160,1,200.000001192092
192,256,35026,2,2,B|224:160,2,100.000000596046
160,288,37693,6,0,B|224:96,1,200.000001192092
96,288,40359,2,0,B|160:96,1,200.000001192092,0|0,0:0|0:0,0:0:0:0:
288,96,43026,6,0,B|352:288,1,200.000001192092
256,272,45693,2,2,B|256:160,2,100.000000596046
256,128,48359,5,8,0:0:0:0:
256,192,49026,1,8,0:0:0:0:
256,256,49693,1,4,0:0:0:0:
480,192,51026,6,0,B|416:128|384:192|384:192|352:256|320:192|320:192|288:128|256:192|256:192|224:256|192:192|192:192|160:128|128:192|128:192|96:256|32:192,1,599.999985694883
160,128,55026,6,0,B|160:288,1,149.999996423721
224,256,56359,2,0,B|224:96,3,149.999996423721
320,192,59026,5,8,0:0:0:0:
256,192,59693,1,8,0:0:0:0:
192,192,60359,1,4,0:0:0:0:
128,192,61026,2,0,B|256:320,1,149.999996423721
256,96,63026,6,0,B|256:256,1,149.999996423721
256,320,64359,1,0,0:0:0:0:
416,320,65693,1,2,0:0:0:0:
416,160,67026,5,8,0:0:0:0:
352,192,67693,1,8,0:0:0:0:
288,160,68359,1,8,0:0:0:0:
224,128,69026,1,12,0:0:0:0:
160,160,69693,6,0,B|160:224|160:224|160:256|192:288|224:288|224:288|384:288,1,299.999992847441
384,96,72359,1,0,0:0:0:0:
224,96,73693,1,2,0:0:0:0:
64,96,75026,6,0,B|128:256|288:288,1,299.999992847441
416,288,77693,1,0,0:0:0:0:
416,128,79026,1,2,0:0:0:0:
256,128,80359,6,0,B|96:128,2,149.999996423721
416,128,83026,1,0,0:0:0:0:
416,288,84359,1,0,0:0:0:0:
256,288,85693,1,2,0:0:0:0:
96,288,87026,1,0,0:0:0:0:
96,128,88359,1,0,0:0:0:0:
256,128,89693,1,2,0:0:0:0:
384,224,91026,6,0,B|64:224,2,299.999992847441
160,192,95693,1,4,0:0:0:0:
160,256,96359,6,0,B|384:192|416:64,1,299.999992847441
200,312,99026,2,0,B|424:248|456:120,1,299.999992847441
256,64,101693,6,0,B|256:384,2,299.999992847441
160,64,106359,1,4,0:0:0:0:
224,64,107026,6,0,B|256:256|416:320,1,299.999992847441
168,104,109693,2,0,B|200:296|360:360,2,299.999992847441
128,288,133693,6,8,B|448:224,1,299.999992847441
416,64,136359,2,4,B|96:128,1,299.999992847441
112,112,139026,6,0,B|192:160|256:144|320:160|400:112,1,299.999992847441
256,192,141693,2,2,B|256:352,2,149.999996423721
128,256,144359,6,0,B|352:256|352:256|384:256|416:224|416:192|416:192|416:64,1,449.999989271162
352,64,147026,2,4,B|32:64,1,299.999992847441
352,128,149693,6,8,B|96:288,1,299.999992847441
192,288,152359,2,4,B|288:288,7,74.9999982118604
256,192,155026,12,4,157693,0:0:0:0:
