osu file format v12

[General]
AudioFilename: BTC - Control.mp3
AudioLeadIn: 0
PreviewTime: 133693
Countdown: 1
SampleSet: Normal
StackLeniency: 0.7
Mode: 0
LetterboxInBreaks: 0
StoryFireInFront: 0

[Editor]
DistanceSpacing: 1
BeatDivisor: 4
GridSize: 8

[Metadata]
Title:CONTROL
TitleUnicode:CONTROL
Artist:Gaijin Games
ArtistUnicode:Gaijin Games
Creator:TheSuyo
Version:MEGA [Hard]
Source:BIT.TRIP CORE
Tags:bit.trip gaijin games petrified productions chiptune
BeatmapID:149522
BeatmapSetID:29885

[Difficulty]
HPDrainRate:5
CircleSize:5
OverallDifficulty:7
ApproachRate:8
SliderMultiplier:1.80000000596046
SliderTickRate:1

[Events]
//Background and Video events
0,0,"bg.png",0,0
//Break Periods
//Storyboard Layer 0 (Background)
//Storyboard Layer 1 (Fail)
//Storyboard Layer 2 (Pass)
//Storyboard Layer 3 (Foreground)
//Storyboard Sound Samples
//Background Colour Transformations
3,100,0,0,0

[TimingPoints]
5693,666.666666666667,4,2,0,50,1,0
47705,-66.6666666666667,4,1,0,50,0,0
133705,-66.6666666666667,4,1,0,50,0,1
154023,-66.6666666666667,4,2,0,100,0,1
157693,-100,4,1,1,100,0,0

[Colours]
Combo1 : 64,54,113
Combo2 : 239,209,2
Combo3 : 243,165,12
Combo4 : 63,162,163
Combo5 : 215,105,163

[HitObjects]
416,256,16359,2,0,B|416:160|464:224|464:128,1,135.000000447035
416,136,17026,1,0,0:0:0:0:
328,136,17359,1,0,0:0:0:0:
240,136,17693,6,0,B|240:232|288:168|288:264,1,135.000000447035,0|0,0:0|0:0,0:0:0:0:
240,256,18359,1,0,0:0:0:0:
152,256,18693,1,0,0:0:0:0:
64,256,19026,6,0,B|64:160|112:224|112:128,1,135.000000447035,0|0,0:0|0:0,0:0:0:0:
160,136,19693,1,0,0:0:0:0:
248,136,20026,1,0,0:0:0:0:
336,136,20359,1,0,0:0:0:0:
32,328,21693,6,0,B|104:256|72:368|144:296,1,135.000000447035
112,264,22359,1,0,0:0:0:0:
48,200,22693,1,0,0:0:0:0:
112,144,23026,6,0,B|184:72|152:184|224:112,1,135.000000447035
256,144,23693,1,0,0:0:0:0:
320,208,24026,1,0,0:0:0:0:
408,208,24359,5,0,0:0:0:0:
381,122,24693,1,0,0:0:0:0:
291,122,25026,1,0,0:0:0:0:
263,207,25359,1,0,0:0:0:0:
336,260,25693,1,0,0:0:0:0:
456,48,27026,6,0,B|456:112|432:136|368:136,1,135.000000447035
328,136,27693,1,0,0:0:0:0:
240,136,28026,1,0,0:0:0:0:
328,136,28359,6,0,B|328:200|304:224|240:224,1,135.000000447035
200,224,29026,1,0,0:0:0:0:
112,224,29359,1,0,0:0:0:0:
200,224,29693,6,0,B|200:288|224:312|288:312,1,135.000000447035
320,320,30359,1,0,0:0:0:0:
416,320,30693,1,0,0:0:0:0:
504,320,31026,1,0,0:0:0:0:
144,328,32359,6,0,B|144:264|120:240|56:240,1,135.000000447035
64,192,33026,1,0,0:0:0:0:
64,104,33359,1,0,0:0:0:0:
64,192,33693,6,0,B|128:192|152:168|152:104,1,135.000000447035
200,112,34359,1,0,0:0:0:0:
288,112,34693,1,0,0:0:0:0:
376,112,35026,5,0,0:0:0:0:
429,185,35359,1,0,0:0:0:0:
377,258,35693,1,0,0:0:0:0:
291,230,36026,1,0,0:0:0:0:
291,140,36359,1,0,0:0:0:0:
456,320,37693,6,0,L|288:320,1,135.000000447035
320,272,38359,1,0,0:0:0:0:
320,184,38693,1,0,0:0:0:0:
320,272,39026,6,0,L|152:272,1,135.000000447035
184,224,39693,1,0,0:0:0:0:
184,136,40026,1,0,0:0:0:0:
184,224,40359,6,0,L|16:224,1,135.000000447035
48,176,41026,1,0,0:0:0:0:
48,88,41359,1,0,0:0:0:0:
136,88,41693,1,0,0:0:0:0:
56,336,43026,6,0,L|112:208,1,135.000000447035
152,216,43693,1,0,0:0:0:0:
120,304,44026,1,0,0:0:0:0:
200,336,44359,6,0,L|256:208,1,135.000000447035
296,216,45026,1,0,0:0:0:0:
264,304,45359,1,0,0:0:0:0:
344,336,45693,6,0,B|392:336|416:312|416:264,1,90.000000298023
416,200,46359,2,0,B|416:152|392:128|344:128,1,90.000000298023
280,128,47026,1,0,0:0:0:0:
144,128,48359,5,0,0:0:0:0:
40,128,48693,1,0,0:0:0:0:
40,232,49026,1,0,0:0:0:0:
144,232,49359,1,0,0:0:0:0:
144,128,49693,2,0,L|224:128,1,67.500002798438
280,128,50026,1,0,0:0:0:0:
376,128,50359,6,0,L|448:128,1,67.500002798438
496,128,50693,2,0,L|496:200,1,67.500002798438
496,248,51026,2,0,L|360:248,1,135.000005596876
256,248,51693,5,0,0:0:0:0:
200,232,51859,1,0,0:0:0:0:
152,208,52026,1,0,0:0:0:0:
112,168,52193,1,0,0:0:0:0:
176,168,52359,1,0,0:0:0:0:
272,168,52693,1,0,0:0:0:0:
376,168,53026,1,0,0:0:0:0:
376,272,53359,5,0,0:0:0:0:
320,272,53526,1,0,0:0:0:0:
264,272,53693,2,0,B|192:272|176:256|176:184,1,135.000005596876
288,200,54359,1,0,0:0:0:0:
344,200,54526,1,0,0:0:0:0:
344,40,55026,5,0,0:0:0:0:
240,40,55359,1,0,0:0:0:0:
192,64,55526,1,0,0:0:0:0:
168,112,55693,1,0,0:0:0:0:
168,216,56026,1,0,0:0:0:0:
64,216,56359,6,0,L|64:352,1,135.000005596876
120,352,56859,1,0,0:0:0:0:
184,352,57026,1,0,0:0:0:0:
184,288,57193,1,0,0:0:0:0:
184,152,57526,1,0,0:0:0:0:
184,80,57693,1,0,0:0:0:0:
248,80,57859,1,0,0:0:0:0:
312,80,58026,1,0,0:0:0:0:
376,80,58193,1,0,0:0:0:0:
440,80,58359,1,0,0:0:0:0:
400,192,58693,1,0,0:0:0:0:
480,264,59026,5,0,0:0:0:0:
400,336,59359,1,0,0:0:0:0:
320,264,59693,1,0,0:0:0:0:
240,336,60026,1,0,0:0:0:0:
160,264,60359,2,0,L|112:312,1,67.500002798438
64,264,60693,1,0,0:0:0:0:
56,160,61026,5,0,0:0:0:0:
72,112,61193,1,0,0:0:0:0:
104,72,61359,1,0,0:0:0:0:
152,48,61526,1,0,0:0:0:0:
208,40,61693,2,0,L|352:40,1,135.000005596876
344,160,62359,1,0,0:0:0:0:
280,160,62526,1,0,0:0:0:0:
216,160,62693,1,0,0:0:0:0:
152,160,62859,1,0,0:0:0:0:
152,360,63359,2,0,L|152:224,1,135.000005596876
408,304,64359,5,0,0:0:0:0:
408,168,64693,1,0,0:0:0:0:
272,168,65026,1,0,0:0:0:0:
272,104,65193,1,0,0:0:0:0:
80,40,65693,5,0,0:0:0:0:
80,176,66026,1,0,0:0:0:0:
144,176,66193,1,0,0:0:0:0:
208,176,66359,1,0,0:0:0:0:
208,312,66693,1,0,0:0:0:0:
344,312,67026,6,0,B|408:312|432:288|432:224,1,135.000005596876
368,232,67526,1,0,0:0:0:0:
304,232,67693,2,0,B|240:232|216:208|216:144,1,135.000005596876
216,88,68193,1,0,0:0:0:0:
344,40,68526,5,0,0:0:0:0:
280,40,68693,1,0,0:0:0:0:
216,40,68859,1,0,0:0:0:0:
152,40,69026,1,0,0:0:0:0:
88,40,69193,2,0,L|16:40,3,67.500002798438
24,176,70026,5,0,0:0:0:0:
160,176,70359,1,0,0:0:0:0:
160,312,70693,1,0,0:0:0:0:
296,312,71026,1,0,0:0:0:0:
360,312,71193,1,0,0:0:0:0:
360,112,71693,5,0,0:0:0:0:
296,112,71859,1,0,0:0:0:0:
232,112,72026,1,0,0:0:0:0:
168,112,72193,1,0,0:0:0:0:
168,176,72359,1,0,0:0:0:0:
168,312,72693,1,0,0:0:0:0:
288,248,73026,6,0,L|360:248,1,67.500002798438
360,184,73359,2,0,L|432:184,1,67.500002798438
224,184,74026,2,0,L|152:184,2,67.500002798438
224,48,74693,5,0,0:0:0:0:
288,48,74859,1,0,0:0:0:0:
352,48,75026,1,0,0:0:0:0:
352,184,75359,1,0,0:0:0:0:
216,184,75693,2,0,L|216:256,1,67.500002798438
96,88,76359,6,0,L|96:288,1,135.000005596876
96,288,76859,1,0,0:0:0:0:
96,352,77026,1,0,0:0:0:0:
232,352,77359,1,0,0:0:0:0:
368,352,77693,5,0,0:0:0:0:
368,216,78026,1,0,0:0:0:0:
304,216,78193,1,0,0:0:0:0:
240,216,78359,1,0,0:0:0:0:
240,80,78693,1,0,0:0:0:0:
304,80,78859,1,0,0:0:0:0:
440,80,79193,2,0,L|440:152,1,67.500002798438
376,144,79526,2,0,L|376:216,1,67.500002798438
376,344,80026,1,0,0:0:0:0:
