osu file format v12

[General]
AudioFilename: BTC - Control.mp3
AudioLeadIn: 0
PreviewTime: 133693
Countdown: 1
SampleSet: Soft
StackLeniency: 0.7
Mode: 0
LetterboxInBreaks: 0
StoryFireInFront: 0
WidescreenStoryboard: 0

[Editor]
DistanceSpacing: 1
BeatDivisor: 4
GridSize: 32

[Metadata]
Title:CONTROL
TitleUnicode:CONTROL
Artist:Gaijin Games
ArtistUnicode:Gaijin Games
Creator:TheSuyo
Version:HYPER [Normal]
Source:BIT.TRIP CORE
Tags:bit.trip gaijin games petrified productions chiptune
BeatmapID:149520
BeatmapSetID:29885

[Difficulty]
HPDrainRate:3
CircleSize:5
OverallDifficulty:4
ApproachRate:5
SliderMultiplier:1.00000000596046
SliderTickRate:1

[Events]
//Background and Video events
0,0,"bg.png",0,0
//Break Periods
2,112226,132493
//Storyboard Layer 0 (Background)
//Storyboard Layer 1 (Fail)
//Storyboard Layer 2 (Pass)
//Storyboard Layer 3 (Foreground)
//Storyboard Sound Samples
//Background Colour Transformations
3,100,0,0,0

[TimingPoints]
5693,666.666666666667,4,2,0,50,1,0
47705,-66.6666666666667,4,1,0,50,0,0
133705,-66.6666666666667,4,1,0,100,0,1
154023,-66.6666666666667,4,2,0,100,0,1
157693,-66.6666666666667,4,1,1,100,0,0

[Colours]
Combo1 : 64,54,113
Combo2 : 239,209,2
Combo3 : 243,165,12
Combo4 : 63,162,163
Combo5 : 215,105,163

[HitObjects]
128,288,16359,6,0,B|128:160|160:128,1,150.000000894069,0|8,0:0|0:0,0:0:0:0:
192,96,17693,2,0,B|320:96|352:128,1,150.000000894069,0|8,0:0|0:0,0:0:0:0:
384,160,19026,1,0,0:0:0:0:
384,224,19526,2,0,B|384:320|352:352,1,125.000000745057,0|2,0:0|0:0,0:0:0:0:
224,288,21693,6,0,B|320:320|384:256,1,150.000000894069,0|8,0:0|0:0,0:0:0:0:
320,224,23026,2,0,B|384:192|416:96,1,150.000000894069,0|8,0:0|0:0,0:0:0:0:
352,96,24359,2,0,B|352:32,4,50.000000298023,0|0|0|0|2,0:0|0:0|0:0|0:0|0:0,0:0:0:0:
352,320,27026,6,0,B|224:320|192:288,1,150.000000894069,0|8,0:0|0:0,0:0:0:0:
160,256,28359,2,0,B|128:224|128:96,1,150.000000894069,0|8,0:0|0:0,0:0:0:0:
160,64,29693,1,0,0:0:0:0:
160,128,30193,1,0,0:0:0:0:
160,192,30693,2,2,B|224:192,1,50.000000298023
128,96,32359,6,0,B|96:128|96:256,1,150.000000894069,0|8,0:0|0:0,0:0:0:0:
128,288,33693,2,0,B|160:320|288:320,1,150.000000894069,0|8,0:0|0:0,0:0:0:0:
320,320,35026,2,0,B|384:320,4,50.000000298023,0|0|0|0|2,0:0|0:0|0:0|0:0|0:0,0:0:0:0:
320,224,37693,6,0,B|320:160|288:128|224:128,1,150.000000894069,0|8,0:0|0:0,0:0:0:0:
192,160,39026,2,0,B|192:224|224:256|288:256,1,150.000000894069,0|8,0:0|0:0,0:0:0:0:
320,224,40359,2,0,B|480:224,1,150.000000894069
480,288,41693,1,2,0:0:0:0:
192,160,43026,6,0,B|192:224|224:256|288:256,1,150.000000894069,0|8,0:0|0:0,0:0:0:0:
320,224,44359,2,0,B|320:160|288:128|224:128,1,150.000000894069,0|8,0:0|0:0,0:0:0:0:
192,96,45693,2,2,B|192:32,4,50.000000298023,2|2|2|2|4,0:0|0:0|0:0|0:0|0:0,0:0:0:0:
192,192,48359,5,8,0:0:0:0:
256,192,48693,1,0,0:0:0:0:
320,192,49026,1,8,0:0:0:0:
384,192,49359,1,0,0:0:0:0:
448,192,49693,1,2,0:0:0:0:
352,96,50359,6,0,B|352:32,4,37.4999991059302,0|0|0|0|8,0:0|0:0|0:0|0:0|0:0,0:0:0:0:
288,96,51359,1,8,0:0:0:0:
288,160,51693,2,0,B|224:160,3,37.4999991059302
288,256,52693,1,2,0:0:0:0:
224,256,53026,1,2,0:0:0:0:
224,96,53693,5,0,0:0:0:0:
384,96,54359,1,0,0:0:0:0:
384,256,55026,1,8,0:0:0:0:
320,256,55359,2,0,B|320:192,2,37.4999991059302
160,256,56359,1,8,0:0:0:0:
160,192,56693,2,0,B|96:192,2,37.4999991059302
320,192,57693,1,2,0:0:0:0:
480,192,58359,1,2,0:0:0:0:
320,192,59026,5,8,0:0:0:0:
256,192,59359,1,0,0:0:0:0:
192,192,59693,1,8,0:0:0:0:
128,192,60026,1,0,0:0:0:0:
64,192,60359,1,2,0:0:0:0:
160,64,61026,6,0,B|160:128,4,37.4999991059302,0|0|0|0|4,0:0|0:0|0:0|0:0|0:0,0:0:0:0:
224,64,62026,1,0,0:0:0:0:
288,64,62359,2,0,B|288:0,3,37.4999991059302
384,64,63359,1,2,0:0:0:0:
384,128,63693,1,2,0:0:0:0:
384,288,64359,5,8,0:0:0:0:
224,288,65026,1,0,0:0:0:0:
64,288,65693,1,8,0:0:0:0:
64,224,66026,2,0,B|128:224,2,37.4999991059302
64,64,67026,5,8,0:0:0:0:
224,64,67693,1,0,0:0:0:0:
384,64,68359,1,8,0:0:0:0:
384,224,69026,2,6,B|352:224,4,37.4999991059302
384,288,70026,5,0,0:0:0:0:
320,288,70359,1,8,0:0:0:0:
256,288,70693,1,0,0:0:0:0:
192,288,71026,2,0,B|128:288,1,37.5000016540288,8|0,0:0|0:0,0:0:0:0:
64,192,71693,5,0,0:0:0:0:
224,192,72359,1,0,0:0:0:0:
288,192,72693,1,2,0:0:0:0:
352,192,73026,2,8,B|352:128,3,37.5000016540288
448,128,74026,1,0,0:0:0:0:
448,64,74359,1,2,0:0:0:0:
352,192,75026,5,0,0:0:0:0:
288,192,75359,1,0,0:0:0:0:
224,192,75693,2,0,B|224:256,1,37.4999991059302,8|0,0:0|0:0,0:0:0:0:
128,192,76359,1,0,0:0:0:0:
64,192,76693,2,0,B|64:256,2,37.4999991059302
64,128,77359,1,8,0:0:0:0:
128,128,77693,2,0,B|224:128,4,74.9999982118604
160,64,79359,1,8,0:0:0:0:
224,64,79693,1,2,0:0:0:0:
224,224,80359,6,0,B|128:224,3,74.9999982118604,8|0|8|0,0:0|0:0|0:0|0:0,0:0:0:0:
160,288,81693,2,0,B|96:288,1,37.4999991059302,4|0,0:0|0:0,0:0:0:0:
224,288,82359,2,0,B|224:352,4,37.5000016540288
288,288,83359,1,2,0:0:0:0:
448,288,84359,1,0,0:0:0:0:
448,224,84693,1,0,0:0:0:0:
448,160,85026,1,8,0:0:0:0:
448,96,85359,1,0,0:0:0:0:
384,96,85693,6,0,B|224:96,1,149.999996423721,0|2,0:0|0:0,0:0:0:0:
96,96,87026,1,0,0:0:0:0:
96,160,87359,2,0,B|32:160,2,37.4999991059302
96,224,88026,1,0,0:0:0:0:
160,224,88359,1,8,0:0:0:0:
224,224,88693,1,0,0:0:0:0:
288,224,89026,1,8,0:0:0:0:
352,224,89359,1,0,0:0:0:0:
416,224,89693,2,0,B|480:224,4,37.4999991059302,8|0|8|0|8,0:0|0:0|0:0|0:0|0:0,0:0:0:0:
448,64,91026,6,0,B|448:140|448:140|376:140,1,149.999996423721,8|8,0:0|0:0,0:0:0:0:
288,128,92026,1,0,0:0:0:0:
224,128,92359,1,4,0:0:0:0:
64,128,93026,2,0,B|0:128,4,37.4999991059302
64,192,94026,1,2,0:0:0:0:
288,320,95193,1,8,0:0:0:0:
416,320,95693,1,8,0:0:0:0:
224,256,96359,6,0,B|224:96,1,149.999996423721,0|8,0:0|0:0,0:0:0:0:
384,96,97693,2,0,B|480:96,4,74.9999982118604,0|0|0|0|8,0:0|0:0|0:0|0:0|0:0,0:0:0:0:
384,256,99693,1,8,0:0:0:0:
256,192,100359,1,8,0:0:0:0:
192,192,100693,1,0,0:0:0:0:
128,192,101026,1,2,0:0:0:0:
224,320,101693,6,0,B|64:320,1,149.999996423721,8|8,0:0|0:0,0:0:0:0:
64,256,102693,1,0,0:0:0:0:
64,192,103026,1,4,0:0:0:0:
224,192,103693,2,0,B|288:192,4,37.4999991059302,0|0|0|0|8,0:0|0:0|0:0|0:0|0:0,0:0:0:0:
224,128,104693,1,8,0:0:0:0:
352,128,105193,1,0,0:0:0:0:
352,288,105859,1,8,0:0:0:0:
224,288,106359,1,8,0:0:0:0:
96,192,107026,6,0,B|192:192,3,74.9999982118604,0|0|0|2,0:0|0:0|0:0|0:0,0:0:0:0:
256,192,108359,1,8,0:0:0:0:
320,192,108693,2,0,B|416:192,3,74.9999982118604,0|0|2|8,0:0|0:0|0:0|0:0,0:0:0:0:
416,128,110026,1,0,0:0:0:0:
352,128,110359,1,8,0:0:0:0:
288,128,110693,1,0,0:0:0:0:
224,128,111026,1,8,0:0:0:0:
160,128,111359,1,0,0:0:0:0:
96,128,111693,2,0,B|0:128,1,74.9999982118604,8|12,0:0|0:0,0:0:0:0:
64,288,133693,6,0,B|256:288|288:256,1,224.999994635581,8|2,0:0|0:0,0:0:0:0:
256,192,135026,2,0,B|288:160|480:160,1,224.999994635581,8|2,0:0|0:0,0:0:0:0:
480,96,136359,1,8,0:0:0:0:
416,96,136693,1,0,0:0:0:0:
352,96,137026,1,8,0:0:0:0:
288,96,137359,1,0,0:0:0:0:
224,96,137693,1,4,0:0:0:0:
416,320,139026,6,0,B|416:128|384:96,1,224.999994635581,8|2,0:0|0:0,0:0:0:0:
352,32,140359,2,0,B|320:64|127:64,1,224.999994635581,8|2,0:0|0:0,0:0:0:0:
128,128,141692,1,8,0:0:0:0:
128,192,142026,1,0,0:0:0:0:
128,256,142359,1,8,0:0:0:0:
128,320,142692,1,0,0:0:0:0:
128,384,143026,1,8,0:0:0:0:
192,384,143359,2,0,B|288:384,2,74.9999982118604,0|0|4,0:0|0:0|0:0,0:0:0:0:
192,320,144359,6,0,B|224:288|416:288,1,224.999994635581,8|2,0:0|0:0,0:0:0:0:
416,224,145693,2,0,B|384:256|192:256,1,224.999994635581,8|2,0:0|0:0,0:0:0:0:
192,192,147026,1,0,0:0:0:0:
192,128,147359,2,0,B|32:128,1,149.999996423721,8|0,0:0|0:0,0:0:0:0:
32,64,148359,1,4,0:0:0:0:
96,64,148693,6,0,B|192:64,2,75.0000033080576
96,128,149693,6,0,B|256:128|320:96,1,224.999994635581,8|2,0:0|0:0,0:0:0:0:
320,160,151026,2,0,B|258:190|98:190,1,224.999994635581,8|2,0:0|0:0,0:0:0:0:
96,256,152359,2,0,P|160:256|200:248,7,75.0000033080576,8|0|8|0|8|0|8|2,0:0|0:0|0:0|0:0|0:0|0:0|0:0|0:0,0:0:0:0:
256,192,155026,12,12,157693,0:0:0:0:
