osu file format v12

[General]
AudioFilename: 19.-Gabry-Ponte-ft.-Miani---You-(Hardbass-Radio-Edit).mp3
AudioLeadIn: 0
PreviewTime: 31315
Countdown: 1
SampleSet: Normal
StackLeniency: 0.7
Mode: 0
LetterboxInBreaks: 1
WidescreenStoryboard: 0

[Editor]
Bookmarks: 16117,54803
DistanceSpacing: 1.5
BeatDivisor: 4
GridSize: 16

[Metadata]
Title:You (Hardbass Radio Edit)
TitleUnicode:You (Hardbass Radio Edit)
Artist:Gabry Ponte ft. Miani
ArtistUnicode:Gabry Ponte ft. Miani
Creator:XMPPwocky
Version:Hard
Source:
Tags:hardbass
BeatmapID:331113
BeatmapSetID:131501

[Difficulty]
HPDrainRate:7
CircleSize:4
OverallDifficulty:7
ApproachRate:8
SliderMultiplier:1.4
SliderTickRate:2

[Events]
//Background and Video events
0,0,"CS1470196-02A-BIG.jpg",0,0
//Break Periods
2,86979,112303
//Storyboard Layer 0 (Background)
//Storyboard Layer 1 (Fail)
//Storyboard Layer 2 (Pass)
//Storyboard Layer 3 (Foreground)
//Storyboard Sound Samples
//Background Colour Transformations
3,100,163,162,255

[TimingPoints]
1750,434.781104992392,4,1,0,100,1,0
31315,-100,4,1,0,100,0,1
58706,-100,4,1,0,100,0,0
115230,-66.6666666666667,4,1,0,100,0,0

[HitObjects]
256,192,1750,1,0,0:0:0:0:
320,192,2184,2,0,L|320:48,1,140
256,48,3054,1,0,0:0:0:0:
256,128,3489,5,0,0:0:0:0:
256,256,3923,1,0,0:0:0:0:
256,320,4141,1,0,0:0:0:0:
320,288,4358,1,0,0:0:0:0:
336,112,4793,5,0,0:0:0:0:
192,112,5228,1,0,0:0:0:0:
304,208,5663,1,0,0:0:0:0:
320,272,5880,1,0,0:0:0:0:
368,224,6097,1,0,0:0:0:0:
432,128,6532,1,0,0:0:0:0:
448,48,6967,6,0,B|256:48|256:144|576:144|160:256,1,420
32,256,8706,1,0,0:0:0:0:
96,256,8923,1,0,0:0:0:0:
160,256,9141,1,0,0:0:0:0:
160,112,9576,1,0,0:0:0:0:
304,112,10010,1,0,0:0:0:0:
224,224,10445,5,2,0:0:0:0:
338,143,10880,1,2,0:0:0:0:
335,212,11097,1,2,0:0:0:0:
404,202,11315,1,2,0:0:0:0:
404,132,11532,1,0,0:0:0:0:
404,62,11749,1,2,0:0:0:0:
248,74,12184,1,2,0:0:0:0:
352,192,13054,1,2,0:0:0:0:
288,240,13489,1,2,0:0:0:0:
208,240,13923,1,0,0:0:0:0:
256,192,14793,12,0,15662,0:0:0:0:
320,64,16097,5,0,0:0:0:0:
176,48,16532,5,0,0:0:0:0:
176,192,16967,1,0,0:0:0:0:
320,192,17402,1,0,0:0:0:0:
464,192,17836,1,0,0:0:0:0:
464,256,18054,2,0,L|384:256,1,70
320,256,18489,2,0,L|240:256,1,70
176,256,18923,1,0,0:0:0:0:
128,128,19141,6,0,L|272:128,1,140
256,208,20010,2,0,L|400:208|384:208,1,140
320,208,20880,2,0,B|480:16|416:96,1,140
256,256,21749,5,0,0:0:0:0:
192,192,22184,1,0,0:0:0:0:
256,128,22619,1,0,0:0:0:0:
320,192,23054,1,0,0:0:0:0:
256,96,23489,5,0,0:0:0:0:
160,192,23923,1,0,0:0:0:0:
256,288,24358,1,0,0:0:0:0:
352,192,24793,1,0,0:0:0:0:
256,64,25228,1,0,0:0:0:0:
256,128,25445,1,0,0:0:0:0:
256,192,25662,1,0,0:0:0:0:
256,256,25880,1,0,0:0:0:0:
288,256,26097,6,0,B|480:32|384:64|160:64,1,420
51,123,27836,1,0,0:0:0:0:
320,32,28271,6,0,L|256:160,1,140
208,256,28923,1,0,0:0:0:0:
160,160,29141,1,0,0:0:0:0:
256,64,29575,5,4,0:0:0:0:
256,192,30445,12,0,31315,0:0:0:0:
336,96,31749,6,0,L|240:96,1,70
192,160,32184,2,4,L|352:160,1,140
192,96,33054,1,4,0:0:0:0:
192,224,33489,2,0,L|288:224,2,70
160,160,34141,5,4,0:0:0:0:
288,160,34358,1,4,0:0:0:0:
448,160,34575,1,4,0:0:0:0:
448,256,34793,2,4,L|256:256,1,140
448,160,35662,2,4,L|320:160|288:160,1,140
416,64,36532,5,0,0:0:0:0:
192,64,36967,1,0,0:0:0:0:
192,288,37402,1,0,0:0:0:0:
288,288,37619,1,0,0:0:0:0:
384,288,37836,1,0,0:0:0:0:
400,192,38054,1,0,0:0:0:0:
416,96,38271,5,0,0:0:0:0:
320,64,38489,2,0,L|192:64,2,70
416,128,39141,1,0,0:0:0:0:
320,96,39358,2,0,L|320:224,1,70
256,208,39793,1,0,0:0:0:0:
352,304,40010,5,0,0:0:0:0:
432,192,40228,2,0,L|496:128,1,70
224,48,40880,2,0,L|64:48,1,140
16,144,41749,5,0,0:0:0:0:
160,144,41967,1,0,0:0:0:0:
160,288,42184,1,0,0:0:0:0:
304,288,42402,1,0,0:0:0:0:
304,144,42619,1,0,0:0:0:0:
160,144,42836,1,0,0:0:0:0:
160,288,43054,6,0,L|160:160,1,70
224,192,43488,2,0,L|352:192,1,70
368,192,43923,2,0,L|368:64,1,70
320,64,44358,2,0,L|160:64,1,140
128,192,45228,6,8,P|352:192|288:96,1,420
256,32,46967,2,0,B|96:192|256:320|352:32,1,420
256,160,48706,5,0,0:0:0:0:
480,160,49141,1,0,0:0:0:0:
288,96,49575,1,0,0:0:0:0:
96,96,50010,1,0,0:0:0:0:
96,288,50445,5,0,0:0:0:0:
96,288,50880,1,0,0:0:0:0:
96,144,51097,1,0,0:0:0:0:
96,288,51315,1,0,0:0:0:0:
240,288,51532,1,0,0:0:0:0:
96,288,51749,5,0,0:0:0:0:
153,248,51967,1,0,0:0:0:0:
212,210,52184,1,0,0:0:0:0:
274,178,52401,6,0,L|346:137,1,70
392,102,52836,1,0,0:0:0:0:
384,192,53054,6,0,L|320:224,1,70
256,256,53488,2,0,L|192:288,1,70
192,224,53923,1,0,0:0:0:0:
192,160,54141,2,0,L|256:128,1,70
128,160,54793,2,0,L|128:320,1,140
224,192,55662,6,0,L|320:192,3,70
224,128,56532,2,0,L|320:128,3,70
320,64,57401,2,0,L|320:256,1,140
283,264,58054,1,0,0:0:0:0:
219,292,58271,2,8,L|59:228,1,140
160,128,59141,6,14,L|384:128,1,210
448,128,60010,1,14,0:0:0:0:
352,224,60445,1,10,0:0:0:0:
352,96,60880,2,2,B|288:160|288:224|192:256,1,210
208,320,61749,2,2,L|112:320,1,70
64,256,62184,2,2,L|64:160,1,70
64,128,62619,6,8,L|128:64,1,70
192,64,63054,1,0,0:0:0:0:
256,96,63271,1,0,0:0:0:0:
256,32,63488,1,8,0:0:0:0:
352,128,63923,2,0,L|448:128,1,70
416,192,64358,5,0,0:0:0:0:
128,256,64793,1,0,0:0:0:0:
128,128,65010,1,0,0:0:0:0:
128,256,65228,1,0,0:0:0:0:
32,160,65445,1,0,0:0:0:0:
128,64,65662,1,0,0:0:0:0:
224,160,65880,1,0,0:0:0:0:
352,96,66097,5,0,0:0:0:0:
288,224,66314,1,0,0:0:0:0:
224,96,66532,1,0,0:0:0:0:
160,224,66749,1,0,0:0:0:0:
96,96,66967,1,0,0:0:0:0:
32,224,67184,1,0,0:0:0:0:
160,160,67401,1,0,0:0:0:0:
256,96,67619,1,0,0:0:0:0:
320,224,67836,6,0,B|352:288|416:256|416:256|480:224|448:160|448:160,1,210
320,96,68706,2,0,L|224:96,1,70
96,96,69141,2,0,L|96:192,1,70
96,320,69575,2,0,L|192:320,1,70
320,320,70010,2,0,L|320:224,1,70
320,160,70445,2,0,L|224:160,1,70
160,160,70880,2,0,L|160:256,1,70
256,224,71314,6,0,L|256:128,1,70
256,224,71749,2,0,L|160:224,1,70
256,224,72184,2,0,L|256:320,1,70
256,224,72619,2,0,L|352:224,1,70
400,224,73054,2,0,P|464:176|400:80,1,210
336,80,73923,1,0,0:0:0:0:
192,80,74358,1,0,0:0:0:0:
384,128,74793,6,0,L|256:128,1,70
224,128,75228,2,0,L|128:192,1,70
224,256,75662,2,0,L|320:256,3,70
368,256,76532,6,0,B|368:192|400:176|416:144|416:144|416:256|432:256|480:256,1,210
432,304,77401,1,0,0:0:0:0:
288,304,77836,1,0,0:0:0:0:
192,128,78271,6,0,L|320:128,1,70
352,128,78706,2,0,L|448:192,1,70
352,256,79141,2,0,L|256:256,3,70
192,256,80010,6,0,L|192:160,1,70
192,64,80445,2,0,L|192:160,1,70
288,160,80880,2,0,L|192:160,1,70
208,272,81314,2,0,L|112:272,1,70
160,128,81749,2,0,B|160:176|160:176|192:176,3,70
272,128,82619,2,0,B|304:128|304:128|304:176,3,70
368,288,83488,6,0,L|368:192,1,70
256,288,83923,2,0,L|256:208,1,70
144,288,84358,2,0,L|144:192,1,70
32,288,84793,2,0,L|32:192,1,70
32,128,85227,6,0,L|128:128,1,70
64,192,85662,2,0,L|160:192,1,70
208,192,86097,2,0,P|224:240|208:272,1,70
144,256,86532,2,0,L|48:256,1,70
256,192,113053,12,0,115227,0:0:0:0:
32,80,115662,6,0,L|256:80,1,210.000008010865
288,176,116314,1,0,0:0:0:0:
304,272,116532,2,0,B|208:288|96:256|96:256,1,210.000008010865
80,48,117401,1,0,0:0:0:0:
288,48,117836,1,0,0:0:0:0:
128,320,118271,6,0,P|192:160|352:224,1,315.000012016297
320,64,119140,1,0,0:0:0:0:
320,288,119575,1,0,0:0:0:0:
320,64,120010,1,0,0:0:0:0:
464,64,120445,6,0,L|368:160,1,105.000004005432
256,64,120880,2,0,L|160:160,1,105.000004005432
32,64,121314,1,0,0:0:0:0:
48,224,121532,1,0,0:0:0:0:
160,224,121749,6,0,B|192:144|288:128|336:224|352:192,1,210.000008010865
208,32,122619,1,0,0:0:0:0:
32,144,123053,1,0,0:0:0:0:
192,320,123488,1,0,0:0:0:0:
48,160,123923,5,0,0:0:0:0:
144,192,124140,1,0,0:0:0:0:
256,208,124358,2,0,L|368:160,3,105.000004005432
336,64,125227,5,0,0:0:0:0:
224,64,125445,2,0,L|112:64,2,105.000004005432
224,176,126097,1,0,0:0:0:0:
240,272,126314,1,0,0:0:0:0:
352,288,126532,2,0,B|352:224|416:224|416:160,1,105.000004005432
352,32,126966,6,0,L|288:160,1,105.000004005432
192,128,127401,1,0,0:0:0:0:
416,128,127836,2,0,P|320:160|352:64,1,210.000008010865
352,288,128706,5,0,0:0:0:0:
352,192,128923,1,0,0:0:0:0:
352,80,129140,1,0,0:0:0:0:
240,80,129358,1,0,0:0:0:0:
128,80,129575,5,0,0:0:0:0:
192,160,129793,1,0,0:0:0:0:
240,256,130010,2,0,L|128:336,1,105.000004005432
128,208,130445,1,0,0:0:0:0:
48,272,130662,1,0,0:0:0:0:
64,192,130879,2,0,P|96:96|160:192,1,210.000008010865
169,134,131749,1,0,0:0:0:0:
384,128,132184,6,0,L|256:128,1,105.000004005432
384,128,132619,2,0,L|384:0,1,105.000004005432
384,128,133053,2,0,L|512:128,1,105.000004005432
384,128,133488,2,0,L|384:256,1,105.000004005432
288,224,133923,6,0,L|384:128,1,105.000004005432
288,32,134358,2,0,L|384:128,1,105.000004005432
480,32,134793,2,0,L|384:128,1,105.000004005432
480,224,135227,2,0,L|384:128,1,105.000004005432
384,128,135662,6,0,L|224:128,1,105.000004005432
288,128,136097,2,0,L|288:256,1,105.000004005432
288,224,136532,2,0,L|160:224,1,105.000004005432
176,224,136966,2,0,L|153:96,1,105.000004005432
160,112,137401,2,0,L|288:112,1,105.000004005432
272,112,137836,2,0,L|416:112,1,105.000004005432
192,64,138271,6,0,L|192:192,1,105.000004005432
320,192,138706,2,0,L|320:64,1,105.000004005432
224,128,139140,2,0,P|176:48|96:128,1,210.000008010865
96,256,139793,2,0,P|153:240|201:256,2,105.000004005432
224,160,140445,2,0,L|320:240,1,105.000004005432
416,272,140879,5,0,0:0:0:0:
432,160,141097,1,0,0:0:0:0:
352,80,141314,2,0,P|288:96|272:32,2,105.000004005432
304,176,141966,5,0,0:0:0:0:
208,224,142184,1,0,0:0:0:0:
112,256,142401,1,0,0:0:0:0:
48,176,142619,1,0,0:0:0:0:
128,112,142836,5,0,0:0:0:0:
224,144,143053,2,0,B|256:80|288:112|208:80,5,105.000004005432
256,192,144249,12,0,146097,0:0:0:0:
