osu file format v5

[General]
AudioFilename: Gabry Ponte Feat Little Tony - Figli Di Pitagora.mp3
AudioLeadIn: 1952
PreviewTime: -1
Countdown: 1
SampleSet: Normal
StackLeniency: 0.7
Mode: 0
LetterboxInBreaks: 1

[Metadata]
Title:Figli Di Pitagora
Artist:Gabry Ponte Feat Little Tony
Creator:xxheroxx
Version:Normal
Source:
Tags:

[Difficulty]
HPDrainRate:4
CircleSize:4
OverallDifficulty:4
SliderMultiplier:1.4
SliderTickRate:1

[Events]
//Background and Video events
1,0,"pitagora di figli.wmv"
0,0,"BIG3337.jpg"
//Break Periods
2,27680,41773
2,69721,82529
2,123706,137799
2,151984,164791
2,190116,191355
//Storyboard Layer 0 (Background)
//Storyboard Layer 1 (Failing)
//Storyboard Layer 2 (Passing)
//Storyboard Layer 3 (Foreground)
//Storyboard Sound Samples
//Background Colour Transformations
3,100,163,162,255

[TimingPoints]
1800,428.449014567267,4,1,0,100,1

[HitObjects]
456,56,970,2,2,B|304:56,1,140
232,56,1800,5,8
144,56,2229,1,8
56,56,2657,1,8
56,136,3085,1,8
56,216,3514,2,2,B|56:344|192:344,1,210
187,343,4371,1,4
272,344,4799,5,8
352,344,5228,1,8
432,344,5656,5,2
432,256,6085,1,2
432,168,6513,1,2
432,80,6941,2,2,B|432:16|360:16|352:88|304:144|280:64,1,210,6|2
282,71,7798,1,4
200,72,8227,5,0
112,72,8655,2,2,B|48:104|24:144|32:200|128:208|176:160|224:136|272:168|224:232|152:272|152:296|184:320|224:320|312:280|312:248|312:216|344:136|392:128|408:128|408:144|408:320,1,700
344,352,11226,2,10,B|272:352,2,70
472,352,12297,5,2
472,352,12511,2,2,B|416:296|496:288|504:272|440:232,2,140
384,352,13797,1,2
216,352,14654,6,2,B|72:352,1,140
32,280,15511,5,8
32,192,15939,1,8
32,104,16367,1,8
32,16,16796,1,8
112,16,17224,2,2,B|152:16|224:40|232:168,1,210
231,162,18081,1,4
232,248,18510,5,8
232,328,18938,1,8
312,328,19366,5,2
392,328,19795,1,2
472,328,20223,1,2
472,240,20652,2,2,B|368:240|368:80,1,210,6|2
368,86,21509,1,4
288,88,21937,5,0
200,88,22366,2,2,B|176:40|152:24|112:16|72:16|48:16|32:32|24:56|32:80|72:72|104:80|128:96|144:112|152:144|144:168|128:160|96:144|72:152|48:168|24:176|16:184|16:208|24:216|32:240|64:232|96:232|112:224|144:216|184:216|216:232|208:264|200:280|144:304|104:312|80:304|24:328,1,700
24,240,24936,2,10,B|24:152,2,70
152,240,26007,5,2
152,240,26222,2,2,B|216:192|232:280|264:256|288:224,2,140
152,320,27507,1,2
256,184,43360,5,8
256,264,43788,1,8
336,264,44217,1,8
416,264,44645,1,8
480,112,45502,2,8,B|480:16|384:16,1,140
400,16,46145,1,8
272,16,46787,5,8
184,16,47216,1,8
96,16,47644,1,8
96,96,48073,1,8
24,248,48929,2,8,B|24:336|128:336,1,140
111,335,49572,1,8
240,336,50215,5,8
320,336,50643,1,8
400,336,51072,1,8
400,248,51500,1,8
488,104,52357,2,8,L|488:32|408:32,1,140
420,32,53000,1,8
296,32,53642,6,8,L|16:32,1,280
16,32,54714,1,8
16,112,55142,6,8,L|232:112,1,210
256,192,55945,12,4,56427
384,304,57070,5,8
296,304,57498,1,8
296,216,57927,1,8
384,216,58355,1,8
384,48,59212,2,8,L|168:48,1,210
48,48,60498,5,8
48,128,60926,1,8
128,128,61354,1,8
128,48,61783,1,8
128,216,62640,2,8,B|128:336|152:352|248:352,1,210
360,352,63925,5,8
360,264,64354,1,8
440,264,64782,1,8
440,352,65211,1,8
272,352,66067,2,8,B|56:352,1,210
56,224,67353,6,8,B|56:72,2,140
56,224,68424,1,8
136,224,68852,2,8,B|352:224,1,210
256,192,84062,6,2,B|256:48,4,140,10|10|10|10|10
336,192,86205,5,4
416,192,86633,1,4
336,192,87061,1,4
256,192,87490,6,10,B|256:344,4,140
168,192,89632,5,4
80,192,90061,1,4
168,192,90489,1,4
248,192,90917,6,10,B|248:96|312:88|360:120|376:192|352:256|272:280|216:288|200:304|192:320|200:336|224:344|272:344|432:336,1,560
504,336,93060,5,4
504,248,93488,1,4
504,160,93917,1,4
504,72,94345,2,10,B|352:72,3,140
272,72,96059,1,4
152,192,96916,6,2,B|8:192,1,140
256,192,97773,12,4,100343
256,192,100772,5,8
256,192,101200,1,8
336,192,101629,6,2,B|488:192,2,140
248,192,102914,2,6,B|32:192,1,210,6|2
38,192,103771,1,4
40,272,104199,5,0
40,352,104628,2,2,B|472:352,1,420
488,272,106342,2,2,B|488:128,1,140
480,48,107199,2,10,B|400:48,2,70
384,136,108270,5,2
384,136,108484,2,2,B|320:80|296:168|256:112,3,140
256,280,110626,6,2,B|400:280,1,140
256,192,111483,12,4,114054
256,192,114482,5,8
256,192,114911,1,8
168,192,115339,6,2,B|16:192,2,140
248,192,116624,2,2,B|464:192,1,210,6|2
458,192,117481,1,4
456,104,117910,5,0
456,16,118338,2,2,B|24:16,1,420
32,96,120052,2,2,B|32:248,1,140
32,320,120909,2,10,B|104:320,2,70
128,240,121980,5,2
128,240,122194,2,2,B|176:176|216:272|256:200,3,140
256,344,139332,6,8,B|256:192,3,140
256,32,141474,2,8,B|256:184,1,140
256,172,142117,1,8
256,296,142760,6,8,B|104:296,3,140
280,296,144902,2,8,B|432:296,1,140
420,296,145545,1,8
488,192,146187,6,8,B|336:192,3,140
176,192,148330,2,8,B|328:192,1,140
316,192,148972,1,8
440,192,149615,6,8,B|464:128|480:88|432:56|384:48|328:56|272:56,1,280
283,55,150686,1,8
280,136,151115,2,8,B|280:208|240:240|128:160,1,210
256,192,166324,12,4,168038
40,40,168467,6,10,B|184:40,2,140
256,192,169752,12,4,171466
472,344,171894,6,10,B|320:344,2,140
256,192,173180,12,4,174893
40,344,175322,6,2,B|280:176,1,280
352,184,176607,2,2,B|464:272,1,140
464,312,177250,2,2,B|312:312,1,140
296,280,177893,2,2,B|184:192,1,140,2|6
72,64,179178,6,2,B|224:64,1,140
256,192,180035,12,4,182606
256,192,183034,5,8
256,192,183462,1,8
248,272,183891,6,2,L|208:344|320:344|264:264,1,280
256,192,185176,2,2,B|232:152|176:272|160:232|136:136|144:128|152:128|192:96,1,210,6|2
184,104,186033,1,4
264,104,186462,5,0
344,104,186890,2,2,L|344:32|480:32|480:112,1,280
480,184,188175,1,2
480,264,188604,6,2,L|480:336,2,70
392,264,189461,2,10,L|392:336,2,70
48,48,192888,5,2
464,48,193317,5,2
256,192,193745,12,4,196316
136,192,196744,5,8
360,192,197173,5,8
360,104,197601,6,2,L|256:104|256:296|120:296,1,420,2|6
128,168,199529,2,2,L|128:88,1,70,2|6
200,48,200172,5,0
280,48,200600,2,2,L|480:48|480:152|352:152|352:224|424:224|424:288|360:288,1,700
280,288,203171,2,10,L|200:288,2,70
256,192,204242,12,4,205742
