osu file format v5

[General]
AudioFilename: Gabry Ponte Feat Little Tony - Figli Di Pitagora.mp3
AudioLeadIn: 1952
PreviewTime: -1
Countdown: 1
SampleSet: Normal
StackLeniency: 0.7
Mode: 0
LetterboxInBreaks: 1

[Metadata]
Title:Figli Di Pitagora
Artist:Gabry Ponte Feat Little Tony
Creator:xxheroxx
Version:Hard
Source:
Tags:

[Difficulty]
HPDrainRate:6
CircleSize:5
OverallDifficulty:7
SliderMultiplier:2
SliderTickRate:2

[Events]
//Background and Video events
1,0,"pitagora di figli.wmv"
0,0,"BIG3337.jpg"
//Break Periods
2,27680,41773
2,69721,82529
2,123706,137799
2,151984,164791
2,190116,191865
//Storyboard Layer 0 (Background)
//Storyboard Layer 1 (Failing)
//Storyboard Layer 2 (Passing)
//Storyboard Layer 3 (Foreground)
//Storyboard Sound Samples
//Background Colour Transformations
3,100,163,162,255

[TimingPoints]
1830,428.449014567267,4,1,0,100,1

[HitObjects]
456,56,973,2,2,B|248:56,1,200
136,56,1830,5,8
72,56,2044,1,8
8,56,2259,1,8
8,112,2473,1,8
8,168,2687,1,8
8,224,2901,1,8
8,280,3115,1,8
8,336,3330,1,8
64,336,3544,2,10,B|88:232|120:344|152:336|184:304|208:248|120:224|80:192|96:160|144:152,1,300
200,152,4401,2,4,B|408:152,2,200
200,208,5472,5,8
200,264,5686,1,8
136,264,5900,1,8
72,264,6115,2,2,B|72:48,1,200
128,64,6757,1,0
184,64,6971,2,2,B|248:16|248:152|296:160|328:24|360:24|416:32|448:64,1,300,6|2
488,104,7828,1,4
488,224,8257,5,0
488,344,8685,2,2,L|392:344|392:264|312:264|312:344|232:344|232:192|328:192|328:104|224:104|152:104|152:184,1,1000
152,296,11256,1,8
152,296,11363,1,8
152,296,11470,1,8
152,296,11577,1,8
152,296,11684,1,8
40,152,12327,5,2
40,152,12541,2,2,B|40:56|72:32|136:32|176:32,3,200
400,32,14684,6,2,B|496:32|496:136|456:136|392:136,1,200
288,136,15541,5,8
224,136,15755,1,8
160,136,15969,1,8
96,136,16183,1,8
32,136,16397,1,8
32,72,16611,1,8
32,8,16825,1,8
88,8,17039,1,8
144,8,17254,2,10,B|456:8,1,300
504,8,18111,2,4,B|504:216,2,200
440,8,19182,5,8
440,64,19396,1,8
440,120,19611,1,8
440,176,19825,1,8
440,232,20039,1,8
440,288,20253,1,8
440,344,20468,1,8
376,344,20682,2,2,B|264:344|264:88,1,300,6|2
264,32,21539,1,4
144,32,21967,5,0
24,32,22396,2,2,L|24:128|136:128|136:232|24:232|24:328|216:328|216:168|288:168|288:240,1,1000
288,344,24966,1,8
288,344,25073,1,8
288,344,25181,1,8
288,344,25288,1,8
288,344,25395,1,8
464,344,26037,5,2
464,344,26252,2,2,B|416:280|416:240|496:296|504:216|416:176,3,200
256,184,43175,5,8
256,240,43390,1,8
256,296,43604,1,8
256,352,43818,1,8
344,272,44247,1,8
400,272,44461,1,8
456,272,44675,1,8
456,32,45532,2,8,B|240:32,1,200
256,32,46175,1,8
136,32,46603,5,8
72,32,46817,1,8
72,88,47031,1,8
8,88,47246,1,8
8,208,47674,1,8
64,208,47888,1,8
120,208,48103,1,8
360,208,48959,2,8,B|496:208|496:176|496:144|408:136,1,200
368,128,49602,1,8
248,128,50031,5,8
184,128,50245,1,8
120,128,50459,1,8
56,128,50673,1,8
120,224,51102,1,8
120,280,51316,1,8
120,336,51530,1,8
360,336,52387,2,8,B|432:336|432:248|264:256,1,200
288,192,53030,1,8
288,72,53458,5,8
288,8,53672,2,8,L|8:8|8:128,1,400
8,184,54744,1,8
8,304,55172,2,8,L|8:376|240:376,1,300
256,192,55975,12,8,56457
384,304,56886,5,8
320,304,57100,1,8
256,304,57314,1,8
192,304,57528,1,8
72,304,57957,1,8
128,304,58171,1,8
184,304,58385,1,8
424,304,59242,2,8,L|424:96,1,200
424,40,59885,1,8
304,40,60313,5,8
304,96,60528,1,8
240,96,60742,1,8
176,96,60956,1,8
56,96,61384,1,8
56,152,61599,1,8
56,208,61813,1,8
256,72,62670,2,8,L|256:272,1,200
256,328,63312,1,8
376,328,63741,5,8
432,328,63955,1,8
432,264,64169,1,8
376,264,64384,1,8
376,144,64812,1,8
312,144,65026,1,8
248,144,65241,1,8
32,32,66097,2,8,L|32:256,1,200
32,288,66740,1,8
152,288,67169,5,8
208,288,67383,2,8,L|416:288,1,200
488,192,68240,2,8,L|376:192,1,100
408,72,68882,2,8,L|96:72,1,300
256,216,84092,5,0
256,152,84306,2,10,B|256:32,3,100
376,56,85378,2,10,L|376:168,2,100
256,56,86235,5,4
136,56,86663,1,4
16,56,87091,1,4
16,176,87520,5,0
72,176,87734,6,10,B|184:176,3,100
176,296,88805,2,10,L|56:296,2,100
296,296,89662,5,4
416,296,90091,1,4
355,192,90519,1,4
448,112,90947,6,2,L|40:112,1,400
48,168,92019,2,2,L|48:280,1,100
160,216,92661,1,4
280,216,93090,5,2
400,216,93518,1,2
280,216,93947,1,2
160,216,94375,2,10,B|16:216|16:88,3,200
136,104,96089,1,4
376,104,96946,6,2,B|376:328,1,200
256,192,97803,12,4,100373
256,192,100802,5,8
256,192,100909,1,8
256,192,101016,1,8
256,192,101123,1,8
256,192,101230,1,8
312,192,101444,5,2
368,192,101659,1,2
424,192,101873,1,2
480,192,102087,2,2,B|480:32|368:32,1,200
328,32,102730,1,2
264,32,102944,2,2,B|48:32,1,200,6|2
64,88,103587,1,8
64,88,103694,1,8
64,88,103801,1,4
64,208,104229,5,0
64,328,104658,2,2,L|192:328|192:104|336:104|336:176|248:176|248:248|344:248|344:320|472:320,1,1000
448,200,107229,2,10,L|448:80,2,100
264,200,108300,5,2
264,200,108514,2,2,L|264:128|200:128|200:216|208:216,1,200
200,192,109371,2,2,L|200:264|264:264|264:184,1,200
440,40,110656,6,2,L|216:40,1,200
256,192,111513,12,4,114084
256,192,114512,5,8
256,192,114619,1,8
256,192,114726,1,8
256,192,114833,1,8
256,192,114941,1,8
192,192,115155,5,2
128,192,115369,1,2
64,192,115583,1,2
0,192,115797,1,2
0,248,116012,1,2
0,304,116226,1,2
56,304,116440,1,2
96,256,116654,2,2,B|400:256,1,300,6|2
400,256,117511,1,4
472,160,117940,5,0
472,40,118368,2,2,L|360:40|360:136|288:136|288:64|152:64|152:136|248:136|248:208|104:208|104:64,1,1000
200,8,120939,2,10,L|88:8,2,100
392,8,122010,5,2
392,8,122224,2,2,L|272:8|272:104,1,200
304,88,123081,2,2,L|440:88|440:8,1,200
488,288,139148,5,8
424,288,139362,1,8
360,288,139576,1,8
296,288,139791,2,8,L|96:288,1,200
32,288,140433,2,8,L|32:168,1,100
208,24,141504,2,8,B|208:232,1,200
208,280,142147,1,8
328,280,142576,5,8
384,280,142790,1,8
440,280,143004,1,8
496,280,143218,2,8,L|496:80,1,200
496,16,143861,2,8,L|376:16,1,100
272,224,144932,2,8,L|72:224,1,200
24,224,145575,1,8
24,344,146003,5,8
80,344,146217,1,8
136,344,146432,1,8
192,344,146646,2,8,L|408:344,1,200
448,344,147288,2,8,L|448:232,1,100
456,0,148360,2,8,L|232:0,1,200
192,0,149002,1,8
88,56,149431,5,8
88,112,149645,2,8,L|8:112|8:160|88:160|88:160|88:160,1,200
200,136,150502,2,8,L|304:136,1,100
416,112,151145,2,8,L|504:112|504:160|416:160,1,200
440,216,151787,1,8
256,192,166354,12,4,168068
40,40,168497,6,8,B|248:40,2,200
256,192,169782,12,4,171496
472,344,171924,6,8,B|256:344,2,200
256,192,173210,12,4,174923
136,192,175352,5,8
256,192,175780,1,8
376,192,176209,1,8
256,192,176637,12,4,178351
72,64,179208,6,2,B|296:64,1,200
256,192,180065,12,4,182636
256,192,183064,5,8
256,192,183171,1,8
256,192,183278,1,8
256,192,183385,1,8
256,192,183492,1,8
312,192,183707,5,2
368,192,183921,1,2
424,192,184135,1,2
480,192,184349,2,2,B|480:40|368:40,1,200
336,80,184992,1,2
296,40,185206,2,2,B|72:40,1,200,6|2
24,40,185849,1,8
24,40,185956,1,8
24,40,186063,1,4
24,160,186492,5,0
24,280,186920,2,2,B|328:280,1,300
328,216,187777,1,2
368,168,187991,1,2
368,104,188205,1,2
304,104,188420,1,2
240,104,188634,2,2,B|120:104,1,100
80,104,189062,2,2,B|0:104|8:208|64:240|128:208,1,200
160,216,189705,1,8
160,216,189812,1,8
160,216,189919,1,8
48,48,192918,5,2
464,336,193347,5,2
256,192,193775,12,4,196346
192,152,196774,5,8
224,152,196881,1,8
256,152,196989,1,8
288,152,197096,1,8
320,152,197203,1,8
376,152,197417,5,2
376,208,197631,1,2
312,208,197845,1,2
312,264,198060,1,2
312,320,198274,1,2
248,320,198488,1,2
184,320,198702,1,2
120,320,198917,1,4
56,320,199131,1,8
56,288,199238,1,8
56,256,199345,1,8
56,192,199559,1,2
56,128,199774,1,4
176,128,200202,5,0
296,128,200630,2,2,L|296:48|384:48|384:176|248:176|248:232|400:232|440:232|440:88|336:88|336:176,1,1000
336,280,203201,1,8
312,304,203308,1,8
336,320,203415,1,8
360,304,203522,1,8
336,280,203630,1,8
256,192,204272,12,4,205772
