osu file format v5

[General]
AudioFilename: La Danza Delle Streghe.mp3
AudioLeadIn: 0
PreviewTime: -1
Countdown: 1
SampleSet: Normal
StackLeniency: 0.7
Mode: 0
LetterboxInBreaks: 1
EditorBookmarks: 200563

[Metadata]
Title:La Danza Delle Streghe
Artist:Gabry Ponte
Creator:beatmastermap
Version:Hard
Source:
Tags:

[Difficulty]
HPDrainRate:6
CircleSize:5
OverallDifficulty:7
SliderMultiplier:1.7
SliderTickRate:1

[Events]
//Background and Video events
0,0,"sfondo.JPG"
//Break Periods
2,12122,14879
2,93551,95237
2,124007,138186
//Storyboard Layer 0 (Background)
//Storyboard Layer 1 (Failing)
//Storyboard Layer 2 (Passing)
//Storyboard Layer 3 (Foreground)
//Storyboard Sound Samples
//Background Colour Transformations
3,100,163,162,255

[TimingPoints]
2135,428.571428571429,4,1,0,100,1,0
70625,-200,4,1,0,100,0,0
94625,-100,4,1,0,100,0,0
193706,428.571428571429,4,2,0,100,1,0
205706,428.571428571429,4,2,0,0,1,0

[Colours]
Combo1 : 255,255,255
Combo2 : 0,64,128
Combo3 : 0,64,0
Combo4 : 128,128,128

[HitObjects]
64,64,2135,6,0,L|224:64|224:64|224:128|224:128|128:160|128:160|128:256|128:256|224:256,1,510
336,320,3849,6,0,L|432:224|432:224|272:96|272:96|272:272,1,510
224,320,5349,5,0
160,320,5563,1,0
96,320,5777,6,0,L|96:80|96:80|288:80,1,425
352,80,7063,1,0
416,80,7277,6,0,L|416:256|416:256|336:160|336:160|336:272|336:272|304:272,1,425
128,304,8992,6,0,L|144:288|144:288|160:304|160:304|176:288|176:288|192:304|192:304|208:288|208:288|224:304|224:304|240:288|240:288|256:304|256:304|272:288|272:288|288:304|288:304|304:288|304:288|320:304|320:304|336:288|336:288|352:304|352:304|368:288|368:288|384:304|384:304|400:288|400:288|384:272|384:272|400:256|400:256|384:240|384:240|400:224|400:224|384:208|384:208|400:192,1,510
416,64,10706,6,0,L|160:64|160:64|64:320,1,510
160,240,15849,5,0
160,96,16278,1,0
288,96,16706,1,0
416,96,17135,1,0
416,224,17564,5,0
304,304,17992,1,0
176,304,18421,1,2
112,304,18635,1,2
48,304,18849,1,2
48,160,19278,1,0
128,48,19706,5,0
256,48,20135,6,2,L|256:144,1,85
320,128,20564,5,2
432,64,20992,6,8,L|432:240,1,170
304,288,21849,6,8,L|128:288,1,170
80,176,22706,6,2,L|80:80,2,85
80,240,23349,1,8
80,304,23563,2,8,L|176:304,1,85
176,240,23992,6,2,L|256:288,1,85
288,224,24421,6,8,L|320:304,1,85
384,304,24849,6,4,L|448:304|448:304|448:192,1,170
416,64,25706,6,2,L|368:64,2,42.5
416,128,26135,2,8,L|240:128,1,170
192,80,26778,5,2
128,96,26992,1,2
64,112,27206,1,8
48,176,27421,1,8
48,240,27635,1,2
48,304,27849,2,4,L|224:304,1,170
352,304,28706,1,2
80,288,29563,6,8,L|80:240,2,42.5
144,288,29992,1,2
272,288,30421,6,8,L|272:240,2,42.5
336,288,30849,1,2
464,336,31278,5,2
464,272,31492,1,2
464,208,31706,1,8
448,144,31921,1,8
400,96,32135,1,2
336,80,32349,1,2
272,80,32563,1,4
128,80,32992,6,2,L|80:80,2,42.5
128,144,33421,1,8
128,272,33849,6,2,L|80:272,2,42.5
128,336,34278,1,8
256,336,34706,5,8
256,272,34921,1,8
320,272,35135,1,2
320,208,35349,1,2
384,208,35563,1,8
384,144,35778,1,2
448,144,35992,2,0,L|448:240,1,85,2|4
448,304,36421,6,8,L|352:304,1,85
304,336,36849,6,8,L|304:240,1,85
352,192,37278,6,2,L|256:192,1,85
208,240,37706,6,8,L|208:144,1,85
256,96,38135,6,2,L|160:96,1,85
112,48,38563,6,8,L|112:144,1,85
160,192,38992,6,2,L|64:192,1,85
32,256,39421,6,8,L|128:256,1,85
112,320,39849,5,2
240,320,40278,1,2
368,320,40706,1,2
432,256,41135,1,8
432,192,41349,6,0,L|464:192,4,21.25
432,128,41778,5,0
384,80,41992,1,0
320,64,42206,1,0
256,64,42421,1,0
192,64,42635,1,0
128,64,42849,1,0
64,64,43063,1,0
64,128,43278,6,2,L|64:304,1,170
192,336,44135,6,8,L|368:336,1,170
448,224,44992,6,2,C|432:128|368:64,1,170
320,80,45635,6,8,C|224:80,2,85
384,80,46278,1,2
352,144,46492,1,2
288,144,46706,6,8,C|192:144|160:64,1,170
64,160,47563,6,0,C|64:64,2,85
64,224,48206,1,8
64,288,48421,1,2
128,288,48635,2,8,C|224:288,1,85
352,288,49278,1,4
464,208,49706,6,2,C|448:144|416:144,2,85
352,288,50563,5,4
208,288,50992,2,8,C|96:288|128:224,1,170
112,176,51635,6,8,C|64:176,2,42.5
208,80,52278,5,2
336,80,52706,6,8,C|384:80,2,42.5
336,144,53135,1,2
416,256,53563,1,2
288,320,53992,1,2
144,304,54421,1,2
64,192,54849,1,2
96,128,55063,6,8,C|96:32,2,85
160,128,55706,1,2
288,128,56135,1,4
64,320,56992,5,2
128,320,57206,1,2
192,320,57421,1,2
256,320,57635,2,8,C|432:320,1,170
432,256,58278,1,2
432,192,58492,6,8,C|480:192,2,42.5
432,128,58921,5,2
432,64,59135,1,2
368,64,59349,1,8
304,64,59563,2,4,C|128:64,1,170
80,192,60421,6,2,C|80:288,2,85
208,192,61278,6,8,C|208:288,2,85
208,320,62135,5,2
272,320,62349,1,2
336,320,62563,1,2
464,320,62992,2,4,C|464:144,1,170
368,64,63849,5,2
304,64,64063,1,2
240,64,64278,1,2
176,64,64492,1,8
112,64,64706,1,2
48,64,64921,1,8
48,128,65135,1,2
48,192,65349,6,8,C|48:288,1,85
48,336,65778,6,2,C|144:336,1,85
192,352,66206,6,8,C|192:256,1,85
144,208,66635,6,2,C|240:208,1,85
288,256,67063,6,8,C|288:160,1,85
416,112,67706,5,6
272,112,68135,1,2
128,112,68563,1,2
64,224,68992,2,4,C|416:224,1,340
432,96,70706,5,8
288,96,71563,1,8
144,96,72421,1,8
80,96,72849,1,2
64,160,73278,1,4
64,288,74135,5,8
192,288,74992,1,8
320,288,75849,1,8
384,288,76278,1,2
448,288,76706,2,4,C|448:112,1,170
304,128,78421,5,8
160,128,79278,1,4
96,128,79706,1,4
64,256,80564,5,8
128,256,80992,1,8
96,304,81421,1,2
160,304,81849,2,2,C|336:304,1,170
464,304,83564,5,4
400,192,84421,5,8
336,80,85278,1,8
192,80,86135,1,8
128,80,86564,1,2
64,80,86992,1,8
64,144,87421,5,4
64,208,87849,5,8
192,208,88706,1,8
320,208,89564,1,8
448,208,90421,1,2
448,144,90849,2,8,C|448:48,1,85
384,64,91706,6,2,C|288:64,1,85
224,64,92564,6,2,C|128:64,1,85
64,64,93421,1,4
448,288,96206,6,0,C|448:320,4,21.25
448,224,96635,5,0
448,160,96849,1,0
448,96,97064,1,0
400,48,97278,1,0
336,48,97492,1,0
272,48,97706,1,0
208,48,97921,1,0
144,48,98135,2,2,C|32:176,1,170
96,304,98992,6,8,C|208:176,1,170
208,304,99849,6,2,C|384:304,1,170
384,240,100492,6,8,C|480:240,2,85
384,176,101135,1,2
384,112,101349,6,8,C|288:112,2,85
384,48,101992,1,2
240,48,102421,1,2
96,48,102849,6,8,C|96:224,1,170
192,304,103706,6,2,C|288:304|336:240,1,170
400,128,104564,6,8,C|352:128,2,42.5
400,192,104992,5,2
256,192,105421,1,8
192,192,105635,1,8
128,192,105849,1,8
64,320,106278,5,2
192,320,106706,1,2
320,320,107135,1,2
416,224,107564,6,8,C|416:176,2,42.5
352,224,107992,6,2,C|256:224,2,85
352,80,108849,5,8
208,80,109278,1,8
64,80,109706,2,4,C|64:208|176:160|176:272|320:240,1,510
48,320,111849,5,8
112,320,112064,1,8
176,320,112278,1,8
176,176,112706,5,2
112,176,112921,1,2
48,176,113135,1,2
48,32,113564,5,8
112,32,113778,1,8
176,32,113992,1,8
240,32,114206,6,2,C|240:128,1,85
192,176,114635,6,8,C|288:176,1,85
416,176,115278,5,2
416,176,115492,1,2
416,176,115706,1,2
416,304,116135,5,8
416,304,116349,1,8
416,304,116564,1,8
272,304,116992,5,2
272,304,117206,1,2
272,304,117421,1,2
208,304,117635,6,8,C|208:208,2,85
144,304,118278,6,4,C|144:128,1,170
32,48,119135,6,8,C|208:48,1,170
336,48,119992,6,2,C|416:96|432:176,1,170
416,304,120849,6,2,C|336:352|256:304,1,170
128,320,121706,6,8,C|128:144,1,170
240,64,122564,5,8
240,192,122992,1,8
240,320,123421,1,8
368,320,123849,1,4
80,64,139278,5,8
208,64,139706,1,8
336,64,140135,6,2,C|336:240,1,170
448,304,140992,6,8,C|272:304,1,170
144,304,141849,6,2,C|144:208,2,85
272,304,142706,6,8,C|448:304,1,170
448,176,143564,6,2,C|448:80,2,85
352,80,144421,6,8,C|176:80,1,170
64,144,145278,6,8,C|64:320,1,170
192,304,146135,6,2,C|192:208,2,85
320,304,146992,6,8,C|416:304,2,85
320,160,147849,6,2,C|320:64,2,85
400,272,148706,6,8,C|400:176,1,85
448,128,149135,6,2,C|352:128,1,85
304,176,149564,6,8,C|304:80,1,85
352,32,149992,6,2,C|256:32,1,85
192,32,150421,6,8,C|192:128,1,85
224,176,150849,6,2,C|128:176,1,85
80,224,151278,6,8,C|80:128,1,85
32,64,151706,2,2,C|128:64,1,85
117,64,152135,6,4,C|160:176|128:224,1,170
240,304,152992,6,8,C|192:304,2,42.5
304,304,153421,1,2
432,256,153849,6,8,C|432:304,2,42.5
432,192,154278,1,8
432,64,154706,5,8
368,64,154921,1,8
304,64,155135,1,8
240,64,155349,1,2
176,64,155564,1,2
112,64,155778,1,8
48,64,155992,2,4,C|48:240,1,170,4|8
48,304,156635,5,8
112,304,156849,1,8
240,304,157278,6,2,C|192:304,2,42.5
304,304,157706,1,8
432,304,158135,5,8
432,240,158349,1,8
432,176,158564,1,2
432,112,158778,1,2
432,48,158992,1,8
368,48,159206,1,2
304,48,159421,2,4,C|128:48,1,170
64,48,160064,6,8,C|64:144,1,85
128,128,160492,6,2,C|128:224,1,85
64,208,160921,6,8,C|64:304,1,85
128,288,161349,6,2,C|224:288,1,85
208,224,161778,6,8,C|304:224,1,85
288,288,162206,6,2,C|384:288,1,85
432,320,162635,6,8,C|432:224,1,85
432,160,163064,1,2
432,96,163278,1,8
288,96,163706,1,8
144,96,164135,1,8
48,192,164564,1,8
48,256,164778,2,0,C|80:256,4,21.25
48,320,165206,5,0
112,320,165421,1,0
176,320,165635,1,0
240,320,165849,1,0
304,320,166064,1,0
368,320,166278,1,0
432,320,166492,1,0
496,320,166706,2,2,B|496:208|496:208|432:208,1,170
304,256,167564,6,8,B|112:256,1,170
64,144,168421,6,2,B|64:80|112:48|192:48,1,170
320,48,169278,6,8,B|320:144,2,85
384,48,169921,6,2,B|384:144,2,85
448,48,170564,6,8,B|448:144,2,85
384,48,171206,5,2
320,48,171421,1,2
176,48,171849,6,8,B|96:48|96:48|96:144,1,170
224,144,172706,6,4,B|224:224|224:224|128:224,1,170
64,96,173564,5,8
64,160,173778,1,8
64,224,173992,5,2
64,352,174421,6,2,B|176:304|272:304|400:352,1,340
416,208,175706,1,4
352,80,176135,6,8,B|400:80,2,42.5
288,80,176563,6,2,B|96:80,1,170
64,80,177421,6,8,B|64:256,1,170
64,304,178278,6,2,B|240:304,1,170
368,304,179135,6,4,B|448:240|416:144,1,170
160,64,180421,5,8
96,64,180635,1,8
32,64,180849,1,8
32,128,181063,6,2,B|128:128,1,85
176,128,181492,6,2,B|224:128,2,42.5
176,192,181921,6,8,B|80:192,1,85
48,320,182563,5,8
176,320,182992,1,8
304,320,183421,1,4
432,320,183849,5,2
432,256,184063,1,2
432,192,184278,1,2
432,128,184492,2,8,B|384:128,2,42.5
432,64,184921,6,2,B|336:64,1,85
208,64,185563,5,8
96,144,185992,1,8
64,272,186421,2,4,B|144:336|240:288,1,170
352,336,187278,6,8,B|352:240,1,85
400,288,187706,2,2,B|400:192,1,85
448,240,188135,2,8,B|448:144,1,85
400,192,188563,6,2,B|400:96,1,85
352,144,188992,2,8,B|352:48,1,85
304,96,189421,2,2,B|304:48|304:48|256:48,1,85
192,48,189849,6,8,B|192:144,1,85
128,96,190278,2,2,B|128:192,1,85
64,144,190706,1,8
64,272,191135,1,8
192,272,191563,1,8
320,272,191992,1,8
448,272,192421,1,4
128,64,194135,5,0
128,192,194563,1,0
128,320,194991,1,0
256,320,195420,5,0
384,320,195848,5,0
384,192,196277,1,0
384,64,196706,1,0
256,64,197134,6,0,L|80:64,1,170
80,192,197991,2,0,L|256:192,1,170
256,320,198848,2,0,L|80:320,1,170
48,192,199706,5,0
48,192,200134,1,0
256,192,200563,12,0,206134
