osu file format v6

[General]
AudioFilename: Gabry Ponte - De Musica Tonante.mp3
AudioLeadIn: 0
PreviewTime: 13690
Countdown: 1
SampleSet: Normal
StackLeniency: 0.7
Mode: 0
LetterboxInBreaks: 1

[Editor]
DistanceSpacing: 1.20000004768372
BeatDivisor: 8
GridSize: 8

[Metadata]
Title:De Musica Tonante
Artist:Gabry Ponte
Creator:beatmastermap
Version:Insane
Source:
Tags:

[Difficulty]
HPDrainRate:6
CircleSize:5
OverallDifficulty:6
SliderMultiplier:1.7
SliderTickRate:1

[Events]
//Background and Video events
0,0,"1024x768px0.jpg"
//Break Periods
2,27474,30604
2,87036,97173
2,140028,142721
//Storyboard Layer 0 (Background)
//Storyboard Layer 1 (Fail)
//Storyboard Layer 2 (Pass)
//Storyboard Layer 3 (Foreground)
//Storyboard Sound Samples
//Background Colour Transformations
3,100,163,162,255

[TimingPoints]
14136,437.956204379562,4,1,0,59,1,0
59245,-100,4,2,0,59,0,1
72814,-100,4,2,0,59,0,0
101719,-100,4,2,0,59,0,0
115295,-200,4,2,0,59,0,1
115733,-100,4,2,0,59,0,0
122303,-200,4,2,0,59,0,0
122741,-100,4,2,0,59,0,0
129310,-200,4,2,0,59,0,1
129748,-100,4,1,0,59,0,0
143333,-100,4,2,0,59,0,0
171354,-100,4,2,0,59,0,0
173544,-100,4,2,0,59,0,1
199821,-100,4,1,0,59,0,0

[Colours]
Combo1 : 41,90,203
Combo2 : 55,211,33
Combo3 : 165,244,0
Combo4 : 21,223,223

[HitObjects]
40,344,14135,1,0
280,344,15011,1,0
280,104,15887,2,0,B|280:288,2,170
40,104,17639,5,0
40,344,18515,1,0
280,344,19391,1,0
400,344,19829,1,0
400,224,20267,1,0
128,224,21143,5,0
400,224,22019,1,0
128,224,22895,1,0
128,360,23333,1,0
264,360,23771,1,0
264,88,24646,5,0
264,360,25522,1,0
488,192,26398,1,0
352,192,26836,1,0
216,192,27274,1,0
72,336,31654,5,0
208,336,32092,1,0
344,336,32530,1,0
480,336,32968,1,0
480,200,33406,5,0
344,200,33844,1,0
208,200,34281,1,0
72,200,34719,1,0
72,64,35157,5,0
208,64,35595,1,0
344,64,36033,1,0
480,64,36471,1,0
480,344,36909,5,0
72,344,37347,1,0
72,40,37785,1,0
488,40,38661,5,0
416,40,38880,1,0
344,40,39099,1,0
272,40,39318,1,0
200,40,39537,1,0
128,40,39756,1,0
56,40,39975,1,2
56,176,40413,5,0
128,176,40632,1,0
200,176,40851,1,0
272,176,41070,1,0
344,176,41289,1,0
416,176,41508,1,0
488,176,41727,1,2
488,312,42165,5,0
416,312,42384,1,0
344,312,42603,1,0
272,312,42822,1,0
200,312,43041,1,0
128,312,43260,1,0
56,312,43479,1,2
56,56,43917,5,0
464,64,44354,1,0
464,312,44792,1,0
48,192,45668,5,0
48,192,45778,1,0
48,192,45887,1,0
48,120,46106,5,0
48,48,46325,5,0
48,48,46435,1,0
48,48,46544,1,0
184,48,46982,6,2,B|184:128|184:128|280:128,1,170,2|8
384,48,47858,5,0
384,48,47968,1,8
384,112,48187,1,8
384,112,48296,1,0
384,176,48515,1,0
384,240,48734,1,8
312,240,48953,1,8
240,240,49172,1,4
104,240,49610,5,0
104,104,50048,1,0
240,104,50486,1,0
464,336,50924,5,0
48,336,51362,1,0
464,336,51800,1,0
368,80,52676,5,0
336,96,52785,1,8
264,96,53004,1,8
232,80,53114,1,0
160,80,53333,6,0,B|112:128|104:168|160:232,2,170,0|8|0
192,136,54427,1,0
224,192,54646,1,8
288,192,54865,2,0,B|336:240|344:280|288:344,2,170,0|8|0
352,192,55960,5,0
416,192,56179,2,0,B|416:120|416:120|296:120,1,170,0|8
248,120,56836,5,0
176,120,57055,2,0,B|72:120|72:120|72:48,1,170,0|8
496,192,57931,5,0
256,360,58369,1,0
32,192,58807,1,0
256,40,59683,5,0
360,40,59902,1,0
464,40,60121,1,0
464,144,60340,1,0
360,144,60559,6,0,B|296:144|296:144|280:168,1,85
280,264,60997,5,0
384,264,61216,1,0
280,264,61435,1,0
176,264,61654,1,0
176,160,61873,1,0
176,56,62092,5,0
176,160,62311,1,0
280,160,62530,1,0
176,160,62749,1,0
72,160,62968,1,0
72,264,63187,5,0
72,368,63406,2,0,B|168:368,1,85
160,264,63844,6,0,B|256:264,1,85
248,368,64281,5,0
352,368,64500,1,0
352,264,64719,1,0
456,264,64938,5,4
456,56,65376,1,4
248,56,65814,1,4
256,360,66471,5,2
256,360,66581,1,2
256,360,66690,1,2
256,256,66909,5,0
360,256,67128,1,0
464,256,67347,1,0
360,256,67566,1,0
360,152,67785,5,0
464,152,68004,2,0,B|464:48|464:48|384:48,1,170
296,48,68661,6,0,B|200:48,1,85
104,48,69099,5,0
104,152,69318,1,0
104,256,69537,1,0
208,256,69756,1,0
208,152,69975,1,0
312,152,70194,5,0
416,152,70413,1,0
416,256,70632,1,0
312,256,70851,2,0,B|312:344,1,85
208,336,71289,5,0
104,336,71508,1,0
104,128,71946,5,4
304,128,72384,1,4
504,128,72822,1,4
136,312,73698,5,2
344,312,74135,1,2
344,104,74573,1,2
136,104,75011,1,2
344,104,75449,1,0
344,208,75668,5,2
344,208,75778,1,2
344,208,75887,1,2
240,208,76106,5,0
136,208,76325,1,0
344,208,76763,1,4
256,24,77201,5,2
256,224,77639,1,2
456,224,78077,1,2
256,224,78515,1,2
48,224,78953,5,8
48,120,79172,1,8
152,120,79391,1,8
152,224,79610,1,8
151,328,79829,6,4,B|194:328,4,42.5
352,320,80705,5,2
352,120,81143,1,2
168,216,81581,1,2
352,216,82019,1,2
168,216,82457,5,2
56,216,82676,5,8
56,216,82785,1,8
56,216,82895,1,8
56,112,83114,5,2
56,112,83333,1,2
256,112,83771,1,4
456,112,84208,5,0
448,312,84646,1,0
240,312,85084,1,0
32,312,85522,1,0
32,104,85960,5,4
256,16,86398,1,4
480,104,86836,1,4
256,208,98223,12,0,99537
32,192,99975,5,4
256,192,100413,1,4
488,192,100851,1,4
256,56,101727,5,0
360,56,101946,1,0
464,56,102165,1,0
464,160,102384,1,0
360,160,102603,5,0
464,160,102822,1,0
464,264,103041,1,0
464,160,103260,1,0
464,56,103479,5,0
360,56,103698,1,0
256,56,103917,1,0
256,160,104135,1,0
256,264,104354,6,8,B|208:264,1,42.5
160,264,104573,1,2
104,264,104683,1,2
56,264,104792,6,8,B|56:208,1,42.5
56,168,105011,2,2,B|88:136,1,42.5
88,88,105230,1,4
192,88,105449,1,0
296,88,105668,5,0
192,88,105887,1,0
296,88,106106,5,0
296,192,106325,1,0
400,192,106544,1,0
400,88,106763,1,0
400,192,106982,5,0
400,296,107201,1,0
504,296,107420,1,0
400,296,107639,5,0
296,296,107858,1,8
296,296,107968,1,8
248,296,108077,6,8,B|184:296,1,42.5
152,296,108296,1,4
152,88,108734,5,0
152,192,108953,1,0
256,192,109172,1,0
256,88,109391,2,0,B|352:88,1,85
344,192,109829,6,0,B|344:280,1,85
448,280,110267,5,0
448,176,110486,1,0
448,72,110705,5,0
448,176,110924,1,0
448,280,111143,1,0
344,280,111362,1,0
448,176,111581,5,0
448,72,111800,1,0
344,72,112019,1,0
344,176,112238,1,0
448,176,112457,5,0
344,176,112676,1,0
240,176,112895,1,0
240,72,113114,1,0
136,72,113333,1,0
136,176,113552,5,0
32,176,113771,1,0
32,280,113990,1,0
136,280,114208,2,0,B|224:280,1,85
320,280,114646,1,0
424,280,114865,6,4,B|472:280,3,42.5
466,280,115303,2,8,B|488:216|456:184,1,85
464,96,115960,5,0
360,96,116179,1,0
256,96,116398,1,0
256,200,116617,1,0
360,200,116836,5,0
256,200,117055,1,0
152,200,117274,1,0
152,96,117493,1,0
48,96,117712,1,0
48,200,117931,1,0
48,304,118150,5,0
152,304,118369,1,0
256,304,118588,1,0
256,200,118807,1,0
256,304,119026,5,0
360,304,119245,1,0
464,304,119464,1,0
464,200,119683,1,0
360,200,119902,5,0
360,96,120121,1,0
464,96,120340,1,0
416,8,120559,1,0
360,96,120778,1,0
304,8,120997,1,0
248,96,121216,1,0
144,96,121435,5,0
40,96,121654,1,0
40,200,121873,2,4,B|40:248,3,42.5
40,264,122311,2,8,B|104:336,1,85
200,328,122968,5,0
200,224,123187,1,0
200,120,123406,1,0
304,120,123625,1,8
304,224,123844,1,0
304,328,124063,5,0
304,224,124281,1,0
408,224,124500,1,8
408,120,124719,1,0
408,16,124938,5,0
408,120,125157,1,0
304,120,125376,1,8
304,16,125595,1,0
304,120,125814,1,0
200,120,126033,5,0
200,224,126252,1,8
304,224,126471,1,0
304,328,126690,1,0
200,328,126909,1,0
96,328,127128,1,8
96,224,127347,5,0
96,120,127566,1,0
200,120,127785,1,0
304,120,128004,5,8
304,120,128114,1,8
304,120,128223,1,8
304,224,128442,1,2
408,224,128661,1,8
408,328,128880,1,8
248,328,129318,2,4,B|144:304,1,85
80,192,130194,5,0
80,192,130632,1,0
80,56,131070,1,0
216,56,131508,1,0
216,192,131946,1,0
352,192,132384,5,0
352,56,132822,1,0
488,56,133260,6,0,B|488:240,1,170
408,328,134136,2,0,B|224:328,1,170
104,328,135011,6,0,B|56:264|64:184|112:160,1,170
232,168,135887,2,0,B|232:96|232:96|280:96|280:96|280:32,1,170
416,48,136763,5,0
368,176,137201,1,0
320,304,137639,1,0
184,304,138077,5,0
320,304,138515,1,4
456,304,138953,1,4
456,168,139391,6,4,B|392:120|352:144|320:48,1,170
64,192,143771,5,0
64,296,143990,1,0
168,296,144208,1,0
272,296,144427,6,8,B|304:256|304:256|336:296|336:296|416:296|416:296|416:208,1,255
416,120,145303,1,0
416,120,145522,1,0
312,120,145741,5,0
208,120,145960,1,0
104,120,146179,1,0
104,224,146398,5,0
104,224,146617,1,0
208,224,146836,1,8
312,224,147055,1,0
416,224,147274,6,8,B|392:192|392:192|440:160|440:160|392:128|392:128|440:96|440:96|432:24|432:24|392:64|392:64,1,340
288,64,148369,2,4,B|96:64,1,170
120,168,149026,5,4
256,320,149464,5,4
392,168,149902,5,4
32,352,150778,5,2
136,352,150997,1,2
136,248,151216,1,2
32,248,151435,1,2
32,144,151654,1,2
136,144,151873,1,2
240,144,152092,5,8
344,144,152311,1,0
448,144,152530,2,8,B|448:216|448:216|328:216,1,170
281,295,153187,6,8,B|305:319|305:319|449:319,1,170
442,320,153844,1,8
440,216,154063,5,0
440,112,154281,1,0
336,112,154500,1,0
232,112,154719,1,0
232,216,154938,1,0
336,216,155157,1,0
336,112,155376,1,0
232,112,155595,1,8
232,312,156033,6,4,B|48:312,2,170
72,64,157785,6,0,B|72:152,1,85
176,152,158223,2,0,B|176:56,1,85
280,64,158661,2,0,B|280:160,1,85
384,152,159099,2,0,B|384:64,1,85,8|0
488,64,159537,2,0,B|488:160,1,85
488,248,159975,2,0,B|392:248,1,85
400,352,160413,2,0,B|312:352,1,85
288,248,160851,2,0,B|200:248,1,85,8|0
96,248,161289,6,0,B|96:216|96:216|144:176,1,85
96,248,161727,2,0,B|136:248|136:248|168:288,1,85
96,248,162165,2,0,B|48:248|48:248|8:208,1,85
96,248,162603,2,0,B|72:200|72:200|96:168,1,85,8|0
192,176,163041,5,4
392,176,163479,1,4
192,176,163917,1,4
24,176,164792,6,0,B|24:80,2,85
128,176,165449,2,0,B|128:80,1,85
232,96,165887,2,0,B|232:184,2,85
336,96,166544,2,0,B|336:184,3,85
440,184,167420,2,0,B|440:272,3,85
336,264,168296,2,0,B|336:304|336:304|288:304,1,85
288,200,168734,2,0,B|248:200|248:200|248:256,1,85
248,344,169172,2,0,B|208:344|208:344|208:288,1,85
208,192,169610,2,0,B|208:232|208:232|152:232,1,85
64,192,170048,2,4,B|40:184|40:184|88:176|88:176|40:160|40:160|88:144,2,170
456,80,171800,6,0,B|416:136|328:64|384:200,2,170
256,312,173333,5,0
256,312,173442,1,0
256,312,173552,1,0
360,312,173771,5,0
256,312,173990,1,0
152,312,174208,1,0
256,192,174427,1,0
360,192,174646,5,0
464,192,174865,1,0
464,88,175084,1,0
360,88,175303,1,0
264,56,175522,5,0
168,40,175741,1,0
72,64,175960,1,0
32,152,176179,1,0
64,248,176398,1,0
144,312,176617,1,0
240,336,176836,1,0
344,344,177055,5,8
344,240,177274,1,0
344,136,177493,1,0
344,32,177712,1,0
240,32,177931,1,8
240,136,178150,5,0
240,136,178369,1,0
136,136,178588,5,0
136,136,178807,1,8
136,240,179026,5,0
136,240,179245,1,0
240,240,179464,5,0
240,344,179683,1,8
240,344,179792,1,0
240,344,179902,2,0,B|328:344,1,85
464,192,180559,6,8,B|464:104,1,85,8|0
408,192,180997,2,0,B|408:96,1,85,8|0
352,192,181435,2,8,B|352:96,1,85,8|0
296,192,181873,2,0,B|296:96,1,85,8|0
240,104,182311,6,0,B|240:200,1,85,8|0
184,104,182749,2,8,B|184:200,1,85,8|0
128,104,183187,2,8,B|128:200,1,85,8|0
72,104,183625,2,8,B|72:200,1,85,8|0
72,328,184063,6,8,B|72:240,1,85,8|0
128,328,184500,2,0,B|128:232,1,85,8|0
184,328,184938,2,8,B|184:232,1,85,8|0
240,328,185376,2,0,B|240:232,1,85,8|0
296,240,185814,6,0,B|296:336,1,85,8|0
352,240,186252,2,8,B|352:336,1,85,8|0
424,328,186690,1,0
424,328,186800,1,0
424,328,186909,1,0
424,328,187019,1,0
424,328,187128,2,8,B|424:152,1,170
248,56,188004,2,0,B|128:56|120:56|120:56|88:96,1,170,8|8
256,208,188880,2,8,B|216:144|168:136|168:136|168:200,1,170,8|8
256,376,189756,2,8,B|336:336|336:336|336:296|336:296|104:296,1,340
280,160,191070,6,8,B|280:104|280:104|376:104|376:104|440:152|440:152|440:216|440:216|384:216,1,340
88,320,192822,6,8,B|200:320|200:320|72:224|72:224|120:160,1,340
488,192,194573,6,8,B|400:192,1,85
488,128,195011,2,8,B|392:128,1,85
488,64,195449,2,8,B|400:64,1,85
296,64,195887,6,8,B|208:64,1,85
208,168,196325,2,8,B|312:168,1,85
296,272,196763,2,8,B|192:272,1,85
104,272,197201,6,8,B|104:184,1,85
48,272,197639,2,8,B|48:184,1,85
48,80,198077,6,8,B|240:80,1,170
216,184,198734,2,8,B|312:184,1,85
304,80,199172,2,8,B|400:80,2,85
200,80,199829,6,4,B|112:80|112:80|112:176,1,170
200,352,200705,2,4,B|112:352|112:352|112:256,1,170
