osu file format v6

[General]
AudioFilename: Gabry Ponte - De Musica Tonante.mp3
AudioLeadIn: 0
PreviewTime: 13690
Countdown: 1
SampleSet: Soft
StackLeniency: 0.7
Mode: 0
LetterboxInBreaks: 1

[Editor]
DistanceSpacing: 1.5
BeatDivisor: 8
GridSize: 8

[Metadata]
Title:De Musica Tonante
Artist:Gabry Ponte
Creator:beatmastermap
Version:Hard
Source:
Tags:

[Difficulty]
HPDrainRate:3
CircleSize:4
OverallDifficulty:7
SliderMultiplier:1.7
SliderTickRate:1

[Events]
//Background and Video events
0,0,"1024x768px0.jpg"
//Break Periods
2,27474,30754
2,87035,97323
2,129955,142871
2,171124,172652
//Storyboard Layer 0 (Background)
//Storyboard Layer 1 (Fail)
//Storyboard Layer 2 (Pass)
//Storyboard Layer 3 (Foreground)
//Storyboard Sound Samples
//Background Colour Transformations
3,100,163,162,255

[TimingPoints]
14136,437.956204379562,4,1,0,59,1,0
59675,-100,4,2,0,59,0,1
72814,-100,4,2,0,59,0,0
101719,-100,4,2,0,59,0,0
115295,-200,4,2,0,59,0,1
115733,-100,4,2,0,59,0,0
122303,-200,4,2,0,59,0,1
122741,-100,4,2,0,59,0,0
129310,-200,4,2,0,59,0,1
129748,-100,4,1,0,59,0,0
143763,-100,4,2,0,59,0,0
170048,-100,4,1,0,59,0,0
171354,-100,4,2,0,59,0,0
173544,-100,4,2,0,59,0,1
199821,-100,4,1,0,59,0,0

[Colours]
Combo1 : 41,90,203
Combo2 : 55,211,33
Combo3 : 165,244,0
Combo4 : 21,223,223

[HitObjects]
56,312,14135,1,0
328,312,15011,1,0
328,40,15887,2,0,B|368:120|272:120|336:208,2,170
56,48,17639,5,0
56,320,18515,1,0
304,200,19391,2,0,B|272:160|272:160|232:200|232:200|176:160|176:160|184:168,2,170
32,192,21143,5,0
304,192,22019,1,0
32,192,22895,2,0,B|48:168|48:168|64:216|64:216|80:168|80:168|96:216,2,170
304,192,24646,5,0
304,192,25522,1,0
32,192,26398,1,0
168,192,26836,1,0
304,192,27274,1,4
464,320,31654,5,0
328,320,32092,1,0
328,184,32530,1,0
192,184,32968,1,2
192,48,33406,5,0
192,184,33844,1,0
192,320,34281,1,0
328,320,34719,1,2
328,184,35157,5,0
464,184,35595,1,0
464,48,36033,1,0
328,48,36471,1,2
192,48,36909,6,8,B|112:48|72:96|88:160,2,170
88,304,38661,5,0
88,304,39099,1,0
224,304,39537,5,0
224,304,39975,1,2
360,304,40413,5,0
360,304,40851,1,0
496,304,41289,5,0
496,304,41727,1,2
496,168,42165,5,0
360,168,42603,1,0
224,168,43041,1,0
88,168,43479,1,2
88,304,43917,2,8,B|152:248|184:256|248:320,2,170
360,304,45668,5,0
360,168,46106,2,2,B|448:168,2,85
360,32,46982,2,2,B|264:32,2,85
360,168,47858,6,2,B|360:72,2,85
496,168,48734,6,2,B|496:72,2,85
496,240,49391,1,0
496,312,49610,1,0
424,312,49829,1,0
352,312,50048,2,8,B|176:312,1,170
48,312,50924,5,4
48,176,51362,1,4
48,40,51800,1,4
320,48,52676,5,0
320,184,53114,1,0
456,184,53552,1,0
320,184,53990,1,2
184,184,54427,5,0
48,184,54865,2,0,B|48:360,1,170
184,352,55741,2,0,B|384:352,1,170,2|0
488,352,56617,6,0,B|488:160,2,170
328,352,57931,5,4
256,232,58369,1,4
184,352,58807,1,4
392,80,59683,5,0
304,80,59902,1,0
304,168,60121,1,0
216,168,60340,2,8,B|155:95,1,85
80,104,60778,2,0,B|16:168,1,85
16,248,61216,5,2
16,336,61435,1,2
88,296,61654,1,2
176,296,61873,1,2
264,296,62092,1,0
352,296,62311,6,8,B|352:200,1,85
352,128,62749,2,8,B|440:128,1,85
440,40,63187,1,0
440,40,63406,1,0
440,40,63625,1,0
352,40,63844,5,2
352,40,64063,1,2
352,40,64281,1,2
264,40,64500,1,2
176,40,64719,1,0
88,40,64938,5,4
256,192,65376,1,4
432,344,65814,1,4
88,344,66690,5,0
176,344,66909,1,0
176,256,67128,1,2
88,256,67347,1,2
88,168,67566,1,2
176,168,67785,1,2
264,168,68004,6,8,B|352:168,1,85
349,168,68442,2,0,B|408:96,1,85
402,102,68880,2,8,B|496:104,1,85
487,103,69318,2,0,B|488:200,1,85
488,272,69756,5,8
424,328,69975,1,8
344,352,70194,1,0
256,352,70413,1,0
176,328,70632,1,0
112,272,70851,1,0
112,184,71070,6,0,B|224:184,1,85
197,184,71508,2,0,B|296:184,1,85
368,184,71946,5,4
368,352,72384,1,4
368,184,72822,1,4
32,192,73698,5,0
200,192,74136,1,0
32,192,74573,1,0
200,192,75011,1,0
368,192,75449,5,0
368,280,75668,2,0,B|432:280,2,42.5,2|2|2
280,280,76106,2,8,B|192:280,1,85
24,280,76763,1,4
24,112,77201,5,0
192,112,77639,1,0
24,112,78077,1,0
192,112,78515,1,0
360,112,78953,5,2
416,176,79172,1,2
448,256,79391,1,2
448,344,79610,1,2
360,344,79829,2,4,B|360:288,4,42.5
192,344,80705,5,0
112,192,81143,1,0
192,40,81581,1,0
272,192,82019,1,0
440,192,82457,5,2
440,104,82676,2,2,B|496:104,2,42.5
352,104,83114,1,8
264,104,83333,1,8
96,104,83771,1,4
96,272,84208,6,0,B|128:208|176:184|256:208,1,170
344,336,85084,2,0,B|416:280|392:176,1,170
264,80,85960,2,4,B|344:16|432:96,2,170
256,208,98223,12,4,100851
456,48,101727,5,0
368,48,101946,1,0
280,48,102165,2,8,B|192:48,1,85
112,48,102603,2,0,B|64:48|48:96,1,85
96,168,103041,2,0,B|120:216|64:248,1,85
120,312,103479,2,0,B|144:352|208:344,1,85
280,344,103917,5,8
328,272,104136,1,8
280,200,104354,1,0
328,128,104573,1,0
280,56,104792,1,0
232,128,105011,1,0
280,200,105230,1,0
232,272,105449,1,0
280,344,105668,6,8,B|376:344,1,85
365,344,106106,2,0,B|424:352|456:312|456:304,1,85
444,321,106544,2,0,B|480:288|496:248|496:232,1,85
491,251,106982,2,0,B|504:192|488:152,1,85
492,167,107420,2,8,B|480:104|456:88,1,85
459,90,107858,2,4,B|440:56|416:48,4,42.5
320,192,108734,5,0
232,192,108953,1,0
144,192,109172,1,0
232,192,109391,1,0
232,104,109610,2,8,B|232:296,1,170
232,274,110267,6,2,B|168:352,1,85
232,274,110705,6,2,B|288:344,1,85
285,340,111143,5,0
400,312,111362,1,8
320,224,111581,1,0
432,184,111800,1,0
344,104,112019,1,0
456,64,112238,1,8
344,104,112457,5,0
432,184,112676,1,0
320,224,112895,1,0
400,312,113114,1,8
285,340,113333,1,0
232,272,113552,6,0,B|200:216|144:240,1,85
168,320,113990,2,0,B|128:320|96:312|96:272,1,85,8|0
96,200,114427,2,0,B|96:112,1,85
184,112,114865,2,4,B|240:112,4,42.5
352,112,115741,5,8
408,48,115960,1,0
352,112,116179,1,0
440,120,116398,1,0
352,112,116617,1,8
392,192,116836,1,0
352,112,117055,1,0
264,112,117274,6,0,B|176:112,1,85,0|8
96,112,117712,1,0
96,200,117931,1,0
96,288,118150,1,0
184,288,118369,1,8
184,200,118588,5,0
272,200,118807,1,0
272,288,119026,1,0
360,288,119245,1,8
360,200,119464,1,0
448,200,119683,1,0
448,288,119902,5,0
448,200,120121,1,8
448,112,120340,1,0
360,112,120559,1,0
272,112,120778,1,0
184,112,120997,1,8
96,112,121216,5,0
144,184,121435,1,0
192,256,121654,1,0
240,328,121873,2,4,B|192:328,4,42.5
408,328,122749,6,0,B|408:232,1,85,8|0
336,288,123187,2,0,B|336:192,1,85,8|0
264,248,123625,2,0,B|264:152,1,85,8|0
192,288,124063,2,0,B|192:192,1,85,8|0
120,328,124500,2,0,B|120:240,3,85,8|0|8|0
120,160,125376,5,8
120,72,125595,1,0
208,72,125814,1,8
208,160,126033,1,0
296,160,126252,2,2,B|384:160,1,85
344,88,126690,2,2,B|432:88,1,85
429,88,127128,2,2,B|480:160,1,85
478,157,127566,2,2,B|480:256,1,85
480,328,128004,6,8,B|480:288,4,21.25
392,328,128442,2,8,B|296:328,1,85
224,328,128880,1,2
72,328,129318,2,4,B|24:312|16:248,1,85
56,328,143771,5,0
144,328,143990,1,0
144,240,144208,2,8,B|88:216|80:160|96:112|120:88,1,170
176,160,144865,5,0
224,88,145084,1,0
288,48,145303,2,8,B|384:40|400:72|400:144,1,170
399,134,145960,5,0
400,216,146179,1,0
328,176,146398,2,8,B|328:264|232:312,1,170
160,336,147055,5,0
72,336,147274,1,0
72,248,147493,2,8,B|136:248|136:248|136:168|136:168|176:160,1,170
248,160,148150,5,0
248,160,148369,1,0
328,160,148588,2,8,B|432:160,1,85
413,160,149026,2,4,B|440:256|368:320,2,170
88,48,150778,5,0
88,136,150997,2,8,B|88:232,1,85
88,304,151435,1,0
176,304,151654,6,8,B|176:208,1,85
176,136,152092,1,0
176,48,152311,2,8,B|272:48,1,85
264,136,152749,5,0
264,224,152968,2,8,B|264:320,1,85
352,304,153406,5,0
352,216,153625,2,8,B|352:120,1,85
352,48,154063,1,0
440,48,154281,6,8,B|440:144,1,85
440,216,154719,1,0
440,304,154938,2,8,B|344:304,1,85
355,304,155376,2,8,B|248:304,1,85
96,304,156033,2,4,B|48:264|64:176|104:144,2,170
256,8,157785,5,2
256,96,158004,1,2
256,184,158223,1,2
256,272,158442,1,2
256,360,158661,1,2
256,272,158880,1,2
256,184,159099,1,2
344,184,159318,5,2
256,184,159537,1,2
168,184,159756,1,2
80,184,159975,2,8,B|80:272,1,85
80,352,160413,5,2
80,352,160632,1,2
80,352,160851,1,2
168,352,161070,5,2
168,352,161289,1,2
168,352,161508,1,2
256,352,161727,5,2
256,352,161946,1,2
256,352,162165,1,2
344,352,162384,5,2
344,352,162603,1,2
344,352,162822,1,2
432,352,163041,6,4,B|432:192|432:192|240:192,1,340
256,40,164792,5,8
168,40,165011,1,0
168,40,165230,1,0
256,112,165449,5,8
344,112,165668,1,0
344,112,165887,1,0
256,184,166106,5,8
168,184,166325,1,0
168,184,166544,1,0
256,256,166763,5,8
344,256,166982,1,0
344,256,167201,1,0
256,328,167420,5,8
168,328,167639,1,0
168,328,167858,1,0
256,328,168077,5,8
256,256,168296,1,8
256,184,168515,1,8
344,184,168734,5,2
344,184,168953,1,2
344,184,169172,1,2
344,184,169391,1,2
344,184,169610,1,2
256,40,170048,5,4
176,192,170486,1,4
256,344,170924,1,4
448,64,173552,5,8
344,64,173771,1,0
296,152,173990,1,8
344,64,174208,5,0
296,152,174427,1,8
200,184,174646,1,0
296,152,174865,5,8
200,184,175084,1,0
160,280,175303,1,8
248,336,175522,5,0
352,336,175741,1,8
456,336,175960,1,0
456,232,176179,1,8
352,232,176398,1,0
248,232,176617,6,0,B|144:232,1,85,8|0
64,232,177055,1,8
64,128,177274,1,0
64,232,177493,1,8
64,336,177712,1,0
168,336,177931,2,0,B|256:336,1,85,8|0
253,336,178369,2,0,B|352:336,1,85,8|0
338,336,178807,2,0,B|440:336,1,85,8|0
424,232,179245,5,8
424,128,179464,1,0
336,184,179683,5,2
320,184,179792,1,2
304,184,179902,1,2
288,184,180011,1,2
272,184,180121,1,2
72,200,180559,6,10,B|24:232|72:288,2,85
176,200,181216,6,10,B|139:158|187:126,2,85
280,200,181873,6,10,B|232:232|280:288,2,85
384,200,182530,6,10,B|347:158|395:126,2,85
384,200,183187,5,8
280,200,183406,1,8
176,200,183625,1,8
72,200,183844,1,8
72,96,184063,6,2,B|136:56|184:128|256:88,1,170
336,96,184719,1,2
440,96,184938,1,2
336,96,185157,1,2
237,96,185376,2,2,B|184:128|136:56|72:96,1,170
32,184,186033,5,0
88,248,186252,1,0
160,296,186471,1,0
240,320,186690,1,2
256,320,186800,1,2
272,320,186909,1,2
288,320,187019,1,2
304,320,187128,1,2
464,192,187566,5,0
336,192,187785,1,0
208,192,188004,1,0
272,80,188223,1,0
208,192,188442,1,0
144,320,188661,5,0
32,264,188880,1,0
32,136,189099,1,0
144,72,189318,1,0
144,200,189537,1,0
272,200,189756,5,0
400,200,189975,1,0
400,72,190194,2,0,B|312:72,1,85
184,72,190632,2,0,B|184:168,1,85
184,288,191070,5,0
304,328,191289,1,0
424,288,191508,1,0
424,168,191727,5,0
304,112,191946,1,0
184,168,192165,1,0
304,216,192384,5,0
304,216,192603,2,0,B|192:80,1,170
195,84,193260,1,0
195,84,193479,2,0,B|128:152,1,85,0|2
120,160,193807,1,2
104,176,193917,1,2
93,189,194026,1,2
81,200,194135,1,2
312,344,194573,5,4
312,248,194792,2,8,B|416:248,3,85
312,248,195668,2,8,B|224:248,3,85
312,152,196544,5,0
312,24,196763,1,0
312,152,196982,1,0
200,88,197201,1,0
328,88,197420,1,0
216,152,197639,1,0
216,24,197858,1,0
88,24,198077,5,0
48,104,198296,1,0
32,184,198515,1,0
48,272,198734,1,0
112,328,198953,2,12,B|208:328,2,85
280,328,199829,5,4
480,192,200267,1,4
280,56,200705,1,4
72,192,201143,1,4
