osu file format v9

[General]
AudioFilename: Superalma.mp3
AudioLeadIn: 0
PreviewTime: 41021
Countdown: 0
SampleSet: Normal
StackLeniency: 0.7
Mode: 0
LetterboxInBreaks: 1

[Editor]
Bookmarks: 25578,41443,59115
DistanceSpacing: 1.2
BeatDivisor: 4
GridSize: 4

[Metadata]
Title:Superalma
Artist:Gabriela Vega y Maggie Vera
Creator:eldnl
Version:Insane
Source:Shaman King
Tags:Gonzvlo Verdisphena Oversoul

[Difficulty]
HPDrainRate:8
CircleSize:4
OverallDifficulty:7
ApproachRate:8
SliderMultiplier:2
SliderTickRate:2

[Events]
//Background and Video events
0,0,"Shaman King.jpg"
Video,0,"SHKOP.avi"
//Break Periods
//Storyboard Layer 0 (Background)
//Storyboard Layer 1 (Fail)
//Storyboard Layer 2 (Pass)
//Storyboard Layer 3 (Foreground)
//Storyboard Sound Samples
//Background Colour Transformations
3,100,163,162,255

[TimingPoints]
2632,441.257584114727,4,2,0,60,1,0
9585,-100,4,1,0,60,0,0
11443,-100,4,1,0,60,0,0
17636,-100,4,2,0,80,0,0
18076,-100,4,1,0,60,0,0
19401,-100,4,2,0,80,0,0
19841,-100,4,1,0,60,0,0
21166,-100,4,2,0,80,0,0
21606,-100,4,1,0,60,0,0
25467,-100,4,2,0,60,0,0
32526,-100,4,1,0,60,0,0
37710,-100,4,2,0,60,0,0
40034,-100,4,2,0,60,0,0
41019,-100,4,1,0,60,0,0
41462,-100,4,1,0,60,0,1
59112,-100,4,1,0,60,0,1
62201,-100,4,1,0,60,0,1
62643,-100,4,1,0,60,0,0
64953,-100,4,2,0,80,0,0
65614,-100,4,1,0,60,0,0
68482,-100,4,2,0,80,0,0
69144,-100,4,1,0,60,0,0
72011,-100,4,2,0,80,0,0
72673,-100,4,1,0,60,0,0
73114,-100,4,2,0,80,0,0

[Colours]
Combo1 : 221,157,23
Combo2 : 71,196,40
Combo3 : 45,88,228

[HitObjects]
184,96,2631,2,0,B|192:40|256:20|320:40|328:96,1,200,4|0
256,192,3293,1,0
256,208,3404,1,0
256,224,3514,1,0
256,240,3624,1,0
256,256,3735,1,0
256,272,3845,1,0
256,288,3955,2,0,B|272:336,3,50
256,344,4397,6,0,B|203:353|163:317,1,100,4|0
120,208,4838,2,0,B|32:272,2,100,8|2|0
56,104,5500,1,0
56,104,5610,1,2
240,72,5941,5,0
248,56,6051,1,0
256,40,6162,2,0,B|309:31|349:67,1,100
392,176,6603,2,0,B|480:112,2,100,8|2|0
456,280,7265,1,0
456,280,7375,1,2
256,336,7706,5,0
256,336,7927,2,0,B|217:292|219:245|219:245|177:265|121:248,1,200,4|2
256,48,8809,2,0,B|294:91|292:138|292:138|334:118|390:135,1,200,4|2
152,104,9692,6,0,B|48:120,1,100,4|0
360,280,10133,2,0,B|464:264,1,100,4|0
458,264,10464,1,8
360,192,10684,1,8
256,136,10905,1,0
152,192,11126,1,8
152,192,11236,1,0
112,304,11457,6,0,B|60:288|41:238,1,100,4|0
112,80,11898,2,0,B|60:95|41:145,1,100,8|0
152,192,12339,1,0
256,248,12560,2,0,B|256:296,2,50,0|0|8
360,192,13001,5,8
376,192,13111,1,8
392,192,13222,2,0,B|444:215|442:273,1,100
392,192,13663,2,0,B|444:168|442:110,1,100,8|0
442,113,13994,1,0
344,48,14215,1,0
256,128,14435,1,0
248,120,14545,1,8
240,112,14656,1,0
232,104,14766,1,8
224,96,14876,1,0
216,88,14987,6,0,B|120:64,1,100,4|0
16,128,15428,2,0,B|112:152,1,100,8|0
128,160,15759,2,0,B|188:220|155:299,1,150
272,320,16310,2,0,B|368:272,1,100,8|0
448,192,16752,5,0
400,80,16972,2,0,B|304:120,1,100,0|8
296,128,17303,2,0,B|243:146|206:103,1,100
88,80,17745,2,0,B|149:135|134:216,1,150,2|8
288,328,18296,5,8
288,328,18406,1,8
288,328,18517,2,0,B|392:312,1,100
456,216,18958,2,0,B|488:168|456:120,1,100,8|0
457,122,19289,1,8
360,56,19510,2,0,B|304:117|223:102,1,150,2|8
64,176,20061,5,8
64,176,20171,1,8
64,176,20282,2,0,B|32:224|64:272,1,100,0|0
176,320,20723,2,0,B|280:304,1,100,8|0
274,304,21054,1,8
360,224,21275,2,0,B|415:162|496:177,1,150,2|8
208,60,22047,6,0,B|256:36|304:60,2,100,4|0|8
256,168,22709,1,0
256,168,22819,2,0,B|256:316,1,150
148,264,23371,6,0,B|112:264|120:328|80:328,1,100,4|0
364,264,23812,2,0,B|400:264|392:328|432:328,1,100,4|0
256,168,24253,2,0,B|240:144|272:96|256:72,1,100,4|0
424,72,24694,1,0
88,72,25136,1,0
116,240,25577,6,0,B|66:267|86:342|153:382|193:342,1,200,4|2
319,342,26239,2,0,B|359:382|426:342|446:267|396:240,1,200,2|2
256,248,26901,1,2
256,248,27121,1,0
192,144,27342,6,0,B|184:88|256:59|328:88|320:144,1,200,4|2
424,88,28004,1,0
88,88,28445,1,0
256,248,28666,1,2
424,88,28886,1,0
256,104,29107,5,4
424,280,29548,2,0,B|373:287|373:287|338:323,1,100,2|0
88,280,29989,2,0,B|138:287|138:287|173:323,1,100,2|0
256,156,30431,2,0,B|256:256,1,100,2|0
392,152,30872,5,6
120,152,31313,1,2
440,72,31755,1,2
72,72,32196,1,2
384,192,32637,5,4
256,72,32968,1,0
128,192,33299,1,0
256,192,33520,5,4
360,336,33850,1,0
152,336,34181,1,0
64,256,34402,5,4
152,96,34733,1,0
360,96,35064,1,0
448,256,35285,5,4
256,192,35616,1,0
256,192,35946,1,0
256,192,36167,12,0,37491
256,192,37932,12,0,39697
200,160,40138,5,2
192,152,40249,1,0
184,144,40359,1,2
176,136,40469,1,0
168,128,40580,1,2
160,120,40690,1,0
152,112,40800,1,2
144,104,40911,1,0
136,96,41021,6,0,B|80:104|66:158,1,100,4|0
48,280,41462,2,0,B|104:272|118:218,1,100,4|0
216,288,41903,2,0,B|304:336,1,100,8|0
416,304,42345,2,0,B|328:256,1,100,8|0
328,256,42676,1,8
440,112,43007,5,8
432,104,43117,1,8
424,96,43227,2,0,B|368:104|354:158,1,100
208,192,43668,2,0,B|264:184|278:130,1,100,8|0
168,80,44110,2,0,B|64:64,1,100
69,64,44441,1,8
256,296,44992,5,4
400,264,45213,1,0
328,128,45433,1,8
256,264,45654,1,0
112,264,45875,1,4
184,128,46095,1,0
256,264,46316,5,8
256,112,46537,1,0
336,240,46757,1,4
176,240,46978,1,0
112,104,47199,1,8
400,104,47419,1,4
256,296,47860,2,0,B|256:352,2,50,0|0|8
144,344,48302,5,8
152,336,48412,1,8
160,328,48522,2,0,B|152:272|98:258,1,100,4|0
72,120,48964,2,0,B|80:176|134:190,1,100,8|0
200,88,49405,2,0,B|296:64,1,100
297,63,49736,1,8
440,176,50067,5,8
432,184,50177,1,8
424,192,50287,2,0,B|328:216,1,100
256,312,50729,2,0,B|352:288,1,100,8|0
168,232,51170,2,0,B|124:267|139:321,1,100
139,321,51501,1,8
256,64,51832,5,0
120,80,52052,2,0,B|68:101|67:157,1,100,4|0
392,80,52494,2,0,B|443:101|444:157,1,100,4|0
96,232,52935,2,0,B|147:210|148:154,1,100,4|0
416,232,53376,2,0,B|364:210|363:154,1,100,4|0
384,312,53817,5,2
256,352,54038,1,0
128,312,54259,1,2
148,153,54479,1,8
144,144,54590,1,2
256,64,54810,1,2
363,153,55031,1,8
368,144,55141,1,2
256,192,55362,5,8
256,208,55472,1,8
256,224,55582,2,0,B|256:328,1,100,4|0
176,232,56024,2,0,B|187:286|141:318,1,100,8|0
336,232,56465,2,0,B|324:286|370:318,1,100
371,318,56796,1,8
448,152,57127,5,8
440,144,57237,1,8
432,136,57347,2,0,B|444:82|398:50,1,100
80,136,57789,2,0,B|68:82|114:50,1,100,8|0
256,80,58230,2,0,B|256:184,1,100
256,180,58561,1,8
256,80,58892,1,0
256,80,59112,5,4
184,288,59333,1,0
368,168,59554,1,8
144,168,59774,1,0
328,288,59995,1,0
256,192,60216,1,0
256,192,60436,1,8
256,192,60657,12,8,62201
400,320,62422,5,8
392,312,62532,1,8
384,304,62643,2,0,B|330:317|296:273,1,100,4|0
232,168,63084,2,0,B|285:154|319:198,1,100,8|0
208,240,63525,2,0,B|144:320,1,100,4|0
24,336,63966,2,0,B|88:256,1,100,8|0
40,144,64408,6,0,B|0:103|41:37|117:18|143:68,1,200,4|8
264,72,65069,1,2
272,80,65180,1,0
280,88,65290,1,2
288,96,65400,1,0
296,104,65511,1,0
408,144,65731,1,8
424,264,65952,5,8
416,272,66062,1,8
408,280,66173,2,0,B|312:312,1,100,4|0
200,264,66614,2,0,B|296:232,1,100,8|0
184,272,67055,2,0,B|130:285|96:241,1,100,4|0
32,136,67496,2,0,B|85:122|119:166,1,100,8|0
200,72,67938,6,0,B|225:22|301:41|342:107|302:148,1,200,4|8
376,240,68600,1,2
384,248,68710,1,0
392,256,68820,1,2
400,264,68930,1,0
408,272,69041,1,0
296,312,69261,1,8
176,288,69482,6,0,B|122:301|88:257,2,100,8|4|0
120,184,70144,2,0,B|85:139|31:152,1,100,8|0
120,72,70585,2,0,B|208:128,1,100,4|0
320,104,71026,2,0,B|232:48,1,100,8|0
432,152,71468,6,0,B|472:193|431:259|355:278|329:228,1,200,4|8
216,272,72130,1,2
208,280,72240,1,0
200,288,72350,1,2
192,296,72461,1,0
184,304,72571,1,0
64,312,72791,1,8
64,312,73012,1,0
48,192,73233,5,6
464,192,74115,1,6
256,192,74998,12,4,76763
