osu file format v12

[General]
AudioFilename: Shaman King.mp3
AudioLeadIn: 0
PreviewTime: 41425
Countdown: 0
SampleSet: Soft
StackLeniency: 0.7
Mode: 2
LetterboxInBreaks: 0
WidescreenStoryboard: 0

[Editor]
Bookmarks: 4870,26203,42203,56425,70647,77758
DistanceSpacing: 1
BeatDivisor: 4
GridSize: 4
TimelineZoom: 1

[Metadata]
Title:La Eterna Luz (TV Size)
TitleUnicode:La Eterna Luz (TV Size)
Artist:Gabriela Vega y Maggie Vera
ArtistUnicode:Gabriela Vega y Maggie Vera
Creator:seicHmsc
Version:newtoniorock8's Salad
Source:Shaman King
Tags:newtoniorock8 yoh hao anna opening
BeatmapID:335981
BeatmapSetID:130826

[Difficulty]
HPDrainRate:4
CircleSize:2
OverallDifficulty:6
ApproachRate:6
SliderMultiplier:1.2
SliderTickRate:1

[Events]
//Background and Video events
0,0,"BG.jpg",0,0
//Break Periods
//Storyboard Layer 0 (Background)
//Storyboard Layer 1 (Fail)
//Storyboard Layer 2 (Pass)
//Storyboard Layer 3 (Foreground)
//Storyboard Sound Samples
//Background Colour Transformations
3,100,163,162,255

[TimingPoints]
1322,444.444444444444,4,2,0,80,1,0
12876,-100,4,1,0,80,0,0
13099,-100,4,2,0,80,0,0
14654,-100,4,1,0,80,0,0
14765,-100,4,2,0,80,0,0
16432,-100,4,1,0,80,0,0
16543,-100,4,2,0,80,0,0
18210,-100,4,1,0,80,0,0
18321,-100,4,2,0,80,0,0
19988,-100,4,1,0,80,0,0
20099,-100,4,2,0,80,0,0
21765,-100,4,1,0,80,0,0
21876,-100,4,2,0,80,0,0
23543,-100,4,1,0,80,0,0
23654,-100,4,2,0,80,0,0
25321,-100,4,1,0,80,0,0
25432,-100,4,2,0,80,0,0
26210,-100,4,1,0,85,0,0
26321,-100,4,2,0,80,0,0
26654,-100,4,1,0,80,0,0
26765,-100,4,2,0,80,0,0
27543,-100,4,1,0,80,0,0
27654,-100,4,2,0,80,0,0
29765,-100,4,1,0,80,0,0
29876,-100,4,2,0,80,0,0
30210,-100,4,1,0,80,0,0
30321,-100,4,2,0,80,0,0
31099,-100,4,1,0,80,0,0
31210,-100,4,2,0,80,0,0
33765,-100,4,1,0,80,0,0
33876,-100,4,2,0,80,0,0
34654,-100,4,1,0,80,0,0
34765,-100,4,2,0,80,0,0
36432,-100,4,1,0,80,0,0
36543,-100,4,2,0,80,0,0
42210,-100,4,1,0,75,0,1
42321,-100,4,2,0,80,0,1
43543,-100,4,1,0,80,0,1
43654,-100,4,2,0,80,0,1
45321,-100,4,1,0,80,0,1
45432,-100,4,2,0,80,0,1
46210,-100,4,1,0,80,0,1
46321,-100,4,2,0,80,0,1
47099,-100,4,1,0,80,0,1
47210,-100,4,2,0,80,0,1
47988,-100,4,1,0,80,0,1
48099,-100,4,2,0,80,0,1
48876,-100,4,1,0,80,0,1
48988,-100,4,2,0,80,0,1
49321,-100,4,2,0,80,0,1
49765,-100,4,1,0,80,0,1
49876,-100,4,2,0,80,0,1
50654,-100,4,1,0,80,0,1
50765,-100,4,2,0,80,0,1
52432,-100,4,1,0,80,0,1
52543,-100,4,2,0,80,0,1
53321,-100,4,1,0,80,0,1
53432,-100,4,2,0,80,0,1
54210,-100,4,1,0,80,0,1
54321,-100,4,2,0,80,0,1
55543,-100,4,1,0,70,0,0
56432,-100,4,1,0,75,0,1
56543,-100,4,2,0,80,0,1
57765,-100,4,1,0,80,0,1
57876,-100,4,2,0,80,0,1
59543,-100,4,1,0,80,0,1
59654,-100,4,2,0,80,0,1
60432,-100,4,1,0,80,0,1
60543,-100,4,2,0,80,0,1
61321,-100,4,1,0,80,0,1
61432,-100,4,2,0,80,0,1
63099,-100,4,1,0,80,0,1
63210,-100,4,2,0,80,0,1
66654,-100,4,1,0,80,0,1
66765,-100,4,2,0,80,0,1
67543,-100,4,1,0,80,0,1
67654,-100,4,2,0,80,0,1
68432,-100,4,1,0,80,0,1
68543,-100,4,2,0,80,0,1
70210,-100,4,1,0,80,0,1
70321,-100,4,2,0,80,0,1
71988,-100,4,1,0,80,0,1
72099,-100,4,2,0,80,0,1
72876,-100,4,1,0,80,0,1
72988,-100,4,2,0,80,0,1
73765,-100,4,1,0,80,0,1
73876,-83.3333333333333,4,2,0,80,0,1
77765,-100,4,2,0,80,0,0
84876,-100,4,1,0,70,0,0
93543,-100,4,2,0,5,0,0

[Colours]
Combo1 : 0,255,128
Combo2 : 255,128,64

[HitObjects]
356,112,4210,6,0,L|292:160,1,60
156,112,4654,2,0,L|220:160,1,60,0|4,0:0|0:0,0:0:0:0:
120,264,5321,6,0,B|56:300|56:300|172:300,1,180
356,112,6210,2,2,L|292:160,1,60,0|2,0:0|0:0,0:0:0:0:
156,112,6654,2,0,L|220:160,1,60
392,264,7099,6,0,B|456:300|456:300|340:300,1,180
200,296,7988,1,2,0:0:0:0:
312,296,8210,1,2,0:0:0:0:
136,236,8432,6,0,L|40:188,2,90,0|2|0,0:0|0:0|0:0,0:0:0:0:
376,236,9321,2,0,L|472:188,2,90,0|2|0,0:0|0:0|0:0,0:0:0:0:
224,192,10210,5,0,0:0:0:0:
104,192,10432,1,0,0:0:0:0:
92,192,10543,1,2,0:0:0:0:
256,192,10765,1,0,0:0:0:0:
268,192,10876,1,2,0:0:0:0:
256,192,11099,12,4,11988,0:0:0:0:
168,152,12210,6,0,L|104:196,2,60,0|2|0,0:0|0:0|0:0,0:0:0:0:
256,288,12876,1,0,0:0:0:0:
344,288,13099,1,0,0:0:0:0:
432,288,13321,1,0,0:0:0:0:
344,288,13543,1,0,0:0:0:0:
160,224,13765,6,2,L|100:224,2,60,2|0|2,0:0|0:0|0:0,0:0:0:0:
248,224,14432,1,0,0:0:0:0:
336,224,14654,1,0,0:0:0:0:
52,192,15765,5,2,0:0:0:0:
188,192,15988,1,2,0:0:0:0:
120,128,16210,1,0,0:0:0:0:
248,260,16432,1,0,0:0:0:0:
400,188,16654,5,0,0:0:0:0:
308,184,16876,2,2,L|288:156,2,30
248,260,17321,5,0,0:0:0:0:
112,188,17543,1,0,0:0:0:0:
204,184,17765,2,2,L|224:156,2,30
376,72,18210,6,0,L|300:116,1,60,0|2,0:0|0:0,0:0:0:0:
136,72,18654,2,0,L|212:116,1,60,0|2,0:0|0:0,0:0:0:0:
352,240,19321,5,2,0:0:0:0:
256,240,19543,1,0,0:0:0:0:
160,240,19765,1,2,0:0:0:0:
304,240,19988,1,0,0:0:0:0:
352,240,20210,1,0,0:0:0:0:
304,240,20321,5,0,0:0:0:0:
352,240,20655,1,2,0:0:0:0:
304,148,20876,1,0,0:0:0:0:
444,148,21099,1,2,0:0:0:0:
444,148,21210,1,0,0:0:0:0:
272,148,21432,1,0,0:0:0:0:
88,152,21765,1,0,0:0:0:0:
132,192,22876,5,2,0:0:0:0:
256,192,23099,1,0,0:0:0:0:
380,192,23321,1,2,0:0:0:0:
220,192,23543,1,0,0:0:0:0:
316,192,23765,2,2,L|352:216,1,30
204,280,24099,2,2,L|184:312,1,30
380,192,24654,5,2,0:0:0:0:
256,192,24876,1,0,0:0:0:0:
132,192,25099,1,2,0:0:0:0:
292,192,25321,1,0,0:0:0:0:
196,192,25543,2,2,L|160:216,1,30
308,280,25876,2,2,L|328:312,1,30
428,272,26210,6,0,P|384:232|304:216,1,120,4|0,0:0|0:0,0:0:0:0:
84,272,27099,2,0,P|128:232|208:216,1,120
276,216,27988,5,2,0:0:0:0:
424,216,28321,1,2,0:0:0:0:
88,216,28654,1,2,0:0:0:0:
327,215,29765,6,0,P|384:231|428:272,1,120,4|0,0:0|0:0,0:0:0:0:
186,215,30654,2,0,P|129:231|84:272,1,120,4|0,0:0|0:0,0:0:0:0:
236,216,31543,5,2,0:0:0:0:
88,216,31876,1,2,0:0:0:0:
424,216,32210,1,2,0:0:0:0:
300,216,32654,2,0,L|360:216,2,60,0|2|0,0:0|0:0|0:0,0:0:0:0:
185,215,33321,6,0,P|128:231|84:272,1,120,4|0,0:0|0:0,0:0:0:0:
326,215,34210,2,0,P|383:231|428:272,1,120,4|0,0:0|0:0,0:0:0:0:
88,192,35099,5,2,0:0:0:0:
256,192,35432,1,2,0:0:0:0:
424,192,35765,1,2,0:0:0:0:
300,284,36210,5,2,0:0:0:0:
200,284,36432,1,0,0:0:0:0:
356,284,36654,1,2,0:0:0:0:
260,284,36877,2,0,B|88:284|88:284|280:284,1,360,0|0,0:0|0:0,0:0:0:0:
84,272,38654,5,2,0:0:0:0:
326,215,39099,2,0,P|383:231|428:272,1,120,0|0,0:0|0:0,0:0:0:0:
256,192,39988,12,2,41321,0:0:0:0:
256,192,41543,5,2,0:0:0:0:
256,240,41765,1,2,0:0:0:0:
256,280,41988,1,2,0:0:0:0:
136,288,42210,6,0,L|24:284,2,90,4|2|0,0:0|0:0|0:0,0:0:0:0:
256,344,43099,1,0,0:0:0:0:
256,344,43321,1,2,0:0:0:0:
376,288,43543,1,0,0:0:0:0:
376,288,43765,1,2,0:0:0:0:
192,344,43988,2,0,B|52:256|52:256|136:256,1,240
256,252,45099,5,0,0:0:0:0:
388,204,45321,1,0,0:0:0:0:
256,164,45543,1,2,0:0:0:0:
132,104,45765,2,0,L|76:220,1,120
256,252,46432,5,2,0:0:0:0:
380,104,46654,2,0,L|436:220,1,120
256,252,47543,5,0,0:0:0:0:
56,252,47988,1,0,0:0:0:0:
456,252,48432,1,0,0:0:0:0:
396,252,48654,5,0,0:0:0:0:
336,252,48876,1,0,0:0:0:0:
276,252,49099,1,0,0:0:0:0:
92,152,49321,2,0,L|208:96,1,120
420,152,50210,6,0,L|304:96,1,120
160,248,50876,1,0,0:0:0:0:
256,192,51099,12,0,52432,0:0:0:0:
311,99,52876,6,0,L|420:152,1,120,2|0,0:0|0:0,0:0:0:0:
200,99,53765,6,0,L|92:152,1,120,2|0,0:0|0:0,0:0:0:0:
176,228,54654,6,0,L|176:308,1,60,0|2,0:0|0:0,0:0:0:0:
336,228,55099,2,0,L|336:308,1,60,0|2,0:0|0:0,0:0:0:0:
132,192,55765,5,0,0:0:0:0:
260,192,55988,1,0,0:0:0:0:
196,192,56210,1,0,0:0:0:0:
376,288,56432,2,0,L|488:284,2,90
256,344,57321,5,0,0:0:0:0:
256,344,57543,1,2,0:0:0:0:
136,288,57765,1,0,0:0:0:0:
136,288,57988,1,2,0:0:0:0:
320,344,58210,2,0,B|460:256|460:256|376:256,1,240
256,252,59321,5,0,0:0:0:0:
124,204,59543,1,0,0:0:0:0:
256,164,59765,1,2,0:0:0:0:
380,104,59988,2,0,L|436:220,1,120
256,252,60654,5,2,0:0:0:0:
132,104,60877,2,0,L|76:220,1,120
256,252,61765,5,0,0:0:0:0:
456,252,62210,1,2,0:0:0:0:
56,252,62654,1,0,0:0:0:0:
116,252,62876,5,0,0:0:0:0:
176,252,63099,1,0,0:0:0:0:
236,252,63321,1,0,0:0:0:0:
352,192,63543,2,0,L|448:192,1,90,0|2,0:0|0:0,0:0:0:0:
192,112,64210,2,0,L|300:112,1,90,0|2,0:0|0:0,0:0:0:0:
36,192,64876,5,0,0:0:0:0:
36,192,65099,1,2,0:0:0:0:
256,192,65321,12,0,66654,0:0:0:0:
201,99,67099,6,0,L|92:152,1,120,2|0,0:0|0:0,0:0:0:0:
312,99,67988,6,0,L|420:152,1,120,2|0,0:0|0:0,0:0:0:0:
340,236,68654,6,0,L|340:304,1,60,0|2,0:0|0:0,0:0:0:0:
172,236,69099,2,0,L|172:304,1,60,0|2,0:0|0:0,0:0:0:0:
392,140,69543,5,0,0:0:0:0:
256,140,69765,1,0,0:0:0:0:
124,140,69988,1,0,0:0:0:0:
256,140,70210,1,0,0:0:0:0:
392,140,70432,1,0,0:0:0:0:
224,260,70654,2,0,B|140:260|140:260|328:260|328:260|224:260,1,360
172,184,72432,6,0,L|36:184,1,120,0|4,0:0|0:0,0:0:0:0:
340,184,73321,2,0,L|476:184,1,120,0|4,0:0|0:0,0:0:0:0:
176,236,74210,5,4,0:0:0:0:
36,232,74543,1,0,0:0:0:0:
224,236,74876,1,0,0:0:0:0:
360,236,75099,5,4,0:0:0:0:
176,236,75432,1,0,0:0:0:0:
272,236,75765,1,0,0:0:0:0:
100,144,75988,5,4,0:0:0:0:
412,144,76321,1,0,0:0:0:0:
256,192,76654,12,4,77765,0:0:0:0:
392,264,78210,6,0,B|456:300|456:300|340:300,1,180,0|2,0:0|0:0,0:0:0:0:
156,112,79099,2,0,L|220:160,1,60
356,112,79543,2,0,L|292:160,1,60
120,264,79988,6,0,B|56:300|56:300|172:300,1,180,0|2,0:0|0:0,0:0:0:0:
312,296,80876,1,0,0:0:0:0:
200,296,81099,1,2,0:0:0:0:
376,236,81321,6,0,L|472:188,2,90,0|2|0,0:0|0:0|0:0,0:0:0:0:
136,236,82210,2,0,L|40:188,2,90,0|2|0,0:0|0:0|0:0,0:0:0:0:
288,192,83099,5,2,0:0:0:0:
408,192,83321,1,0,0:0:0:0:
420,192,83432,1,2,0:0:0:0:
256,192,83654,1,0,0:0:0:0:
244,192,83765,1,2,0:0:0:0:
256,192,83988,12,4,84876,0:0:0:0:
256,120,85210,5,0,0:0:0:0:
104,192,85543,1,0,0:0:0:0:
256,276,85876,1,0,0:0:0:0:
408,192,86210,1,4,0:0:0:0:
192,192,86876,5,0,0:0:0:0:
308,192,87099,1,0,0:0:0:0:
272,192,87210,1,0,0:0:0:0:
380,192,87432,1,4,0:0:0:0:
256,192,87988,12,0,93543,0:0:0:0:
