osu file format v12

[General]
AudioFilename: Shaman King.mp3
AudioLeadIn: 0
PreviewTime: 41425
Countdown: 0
SampleSet: Soft
StackLeniency: 0.7
Mode: 2
LetterboxInBreaks: 0
WidescreenStoryboard: 0

[Editor]
Bookmarks: 4870,26203,42203,56425,70647,77758
DistanceSpacing: 0.9
BeatDivisor: 4
GridSize: 4
TimelineZoom: 1

[Metadata]
Title:La Eterna Luz (TV Size)
TitleUnicode:La Eterna Luz (TV Size)
Artist:Gabriela Vega y Maggie Vera
ArtistUnicode:Gabriela Vega y Maggie Vera
Creator:seicHmsc
Version:Rain
Source:Shaman King
Tags:newtoniorock8 yoh hao anna opening
BeatmapID:329768
BeatmapSetID:130826

[Difficulty]
HPDrainRate:7
CircleSize:4
OverallDifficulty:9
ApproachRate:9
SliderMultiplier:1.8
SliderTickRate:2

[Events]
//Background and Video events
0,0,"BG.jpg",0,0
//Break Periods
//Storyboard Layer 0 (Background)
//Storyboard Layer 1 (Fail)
//Storyboard Layer 2 (Pass)
//Storyboard Layer 3 (Foreground)
//Storyboard Sound Samples
//Background Colour Transformations
3,100,163,162,255

[TimingPoints]
1322,444.444444444444,4,2,0,80,1,0
12876,-100,4,1,0,80,0,0
13099,-100,4,2,0,80,0,0
14654,-100,4,1,0,80,0,0
14765,-100,4,2,0,80,0,0
16432,-100,4,1,0,80,0,0
16543,-100,4,2,0,80,0,0
18210,-100,4,1,0,80,0,0
18321,-100,4,2,0,80,0,0
19988,-100,4,1,0,80,0,0
20099,-100,4,2,0,80,0,0
21765,-100,4,1,0,80,0,0
21876,-100,4,2,0,80,0,0
23543,-100,4,1,0,80,0,0
23654,-100,4,2,0,80,0,0
25321,-100,4,1,0,80,0,0
25432,-100,4,2,0,80,0,0
26210,-100,4,1,0,85,0,0
26321,-100,4,2,0,80,0,0
26654,-100,4,1,0,80,0,0
26765,-100,4,2,0,80,0,0
27543,-100,4,1,0,80,0,0
27654,-100,4,2,0,80,0,0
29765,-100,4,1,0,80,0,0
29876,-100,4,2,0,80,0,0
30210,-100,4,1,0,80,0,0
30321,-100,4,2,0,80,0,0
31099,-100,4,1,0,80,0,0
31210,-100,4,2,0,80,0,0
33765,-100,4,1,0,80,0,0
33876,-100,4,2,0,80,0,0
34654,-100,4,1,0,80,0,0
34765,-100,4,2,0,80,0,0
36432,-100,4,1,0,80,0,0
36543,-100,4,2,0,80,0,0
38654,-100,4,1,0,80,0,0
38877,-100,4,2,0,50,0,0
39099,-100,4,1,0,80,0,0
39321,-100,4,2,0,50,0,0
39544,-100,4,1,0,80,0,0
39766,-100,4,2,0,50,0,0
39988,-100,4,1,0,80,0,0
40210,-100,4,2,0,50,0,0
40432,-100,4,1,0,85,0,0
41543,-100,4,1,0,70,0,0
42210,-100,4,1,0,75,0,1
42321,-100,4,2,0,80,0,1
43543,-100,4,1,0,80,0,1
43654,-100,4,2,0,80,0,1
44432,-100,4,1,0,80,0,1
44543,-100,4,2,0,80,0,1
45321,-100,4,1,0,80,0,1
45432,-100,4,2,0,80,0,1
46210,-100,4,1,0,80,0,1
46321,-100,4,2,0,80,0,1
47099,-100,4,1,0,80,0,1
47210,-100,4,2,0,80,0,1
47988,-100,4,1,0,80,0,1
48099,-100,4,2,0,80,0,1
48876,-100,4,1,0,80,0,1
48988,-100,4,2,0,80,0,1
49765,-100,4,1,0,80,0,1
49876,-100,4,2,0,80,0,1
50654,-100,4,1,0,80,0,1
50765,-100,4,2,0,80,0,1
51543,-100,4,1,0,80,0,1
51654,-100,4,2,0,80,0,1
52432,-100,4,1,0,80,0,1
52543,-100,4,2,0,80,0,1
53321,-100,4,1,0,80,0,1
53432,-100,4,2,0,80,0,1
54210,-100,4,1,0,80,0,1
54321,-100,4,2,0,80,0,1
55543,-100,4,1,0,70,0,0
56432,-100,4,1,0,75,0,1
56543,-100,4,2,0,80,0,1
57765,-100,4,1,0,80,0,1
57876,-100,4,2,0,80,0,1
58654,-100,4,1,0,80,0,1
58765,-100,4,2,0,80,0,1
59543,-100,4,1,0,80,0,1
59654,-100,4,2,0,80,0,1
60432,-100,4,1,0,80,0,1
60543,-100,4,2,0,80,0,1
60876,-90.0900900900901,4,2,0,80,0,1
61321,-100,4,1,0,80,0,1
61432,-100,4,2,0,80,0,1
63099,-100,4,1,0,80,0,1
63210,-100,4,2,0,80,0,1
66654,-100,4,1,0,80,0,1
66765,-100,4,2,0,80,0,1
67543,-100,4,1,0,80,0,1
67654,-100,4,2,0,80,0,1
68432,-100,4,1,0,80,0,1
68543,-100,4,2,0,80,0,1
70210,-100,4,1,0,80,0,1
70321,-100,4,2,0,80,0,1
71099,-100,4,1,0,80,0,1
71210,-100,4,2,0,80,0,1
71988,-100,4,1,0,80,0,1
72099,-100,4,2,0,80,0,1
72876,-100,4,1,0,80,0,1
72988,-100,4,2,0,80,0,1
73765,-100,4,1,0,80,0,1
73876,-100,4,2,0,80,0,1
77765,-100,4,2,0,80,0,0
84876,-100,4,1,0,70,0,0
93765,-100,4,2,0,30,0,0

[Colours]
Combo1 : 0,255,128
Combo2 : 255,128,64

[HitObjects]
166,280,4210,6,0,L|66:280,1,90,2|0,0:0|0:0,0:0:0:0:
272,240,4654,1,2,0:0:0:0:
76,192,4877,2,0,L|166:192,1,90,4|0,0:0|0:0,0:0:0:0:
256,192,5210,2,0,L|166:192,1,90,2|0,0:0|0:0,0:0:0:0:
256,192,5543,1,2,0:0:0:0:
436,192,5765,1,0,0:0:0:0:
256,192,5988,5,2,0:0:0:0:
76,192,6210,2,0,L|172:192,1,90,0|2,0:0|0:0,0:0:0:0:
346,192,6654,2,0,L|252:192,1,90,4|0,0:0|0:0,0:0:0:0:
346,192,6988,2,0,L|440:192,1,90,2|0,0:0|0:0,0:0:0:0:
346,192,7321,1,2,0:0:0:0:
166,192,7543,2,0,L|72:192,1,90,0|2,0:0|0:0,0:0:0:0:
256,192,7988,2,0,L|350:192,1,90,0|2,0:0|0:0,0:0:0:0:
166,192,8432,5,4,0:0:0:0:
256,192,8765,1,0,0:0:0:0:
436,192,9099,1,2,0:0:0:0:
346,192,9321,1,4,0:0:0:0:
166,192,9654,1,0,0:0:0:0:
76,192,9988,1,2,0:0:0:0:
256,192,10210,6,0,L|352:192,1,90,4|0,0:0|0:0,0:0:0:0:
166,192,10543,2,0,L|72:192,1,90,2|0,0:0|0:0,0:0:0:0:
256,192,10876,1,2,0:0:0:0:
76,192,11099,2,0,L|128:192,1,45,2|0,0:0|0:0,0:0:0:0:
166,192,11321,1,2,0:0:0:0:
76,192,11432,1,2,0:0:0:0:
346,192,11543,2,0,L|294:192,1,45,2|0,0:0|0:0,0:0:0:0:
256,192,11765,1,2,0:0:0:0:
346,192,11876,1,2,0:0:0:0:
166,192,11988,5,4,0:0:0:0:
76,192,12210,1,2,0:0:0:0:
211,192,12432,1,0,0:0:0:0:
346,192,12654,1,2,0:0:0:0:
256,192,12876,2,0,L|160:192,1,90
256,192,13210,2,0,L|360:192,1,90,2|0,0:0|0:0,0:0:0:0:
256,192,13543,1,2,0:0:0:0:
436,192,13765,6,0,L|344:192,1,90,2|0,0:0|0:0,0:0:0:0:
256,192,14099,2,0,L|352:192,1,90,2|0,0:0|0:0,0:0:0:0:
436,192,14432,1,2,0:0:0:0:
256,192,14654,2,0,L|204:192,1,45,0|0,0:0|0:0,0:0:0:0:
168,192,14876,1,0,0:0:0:0:
256,192,14988,1,2,0:0:0:0:
76,192,15210,1,0,0:0:0:0:
346,192,15432,6,0,L|346:138,1,45
168,192,15765,1,2,0:0:0:0:
76,192,15988,1,2,0:0:0:0:
168,192,16210,1,0,0:0:0:0:
346,192,16432,1,0,0:0:0:0:
256,192,16654,1,2,0:0:0:0:
436,192,16876,6,0,L|488:192,2,45,0|0|2,0:0|0:0|0:0,0:0:0:0:
256,192,17321,1,0,0:0:0:0:
436,192,17543,1,2,0:0:0:0:
168,192,17765,2,0,L|124:192,2,45,0|0|2,0:0|0:0|0:0,0:0:0:0:
346,192,18210,1,0,0:0:0:0:
168,192,18432,1,2,0:0:0:0:
436,192,18654,1,0,0:0:0:0:
436,192,18877,1,2,0:0:0:0:
436,192,19099,6,0,L|340:192,1,90,4|2,0:0|0:0,0:0:0:0:
166,192,19543,2,0,L|256:192,1,90,0|2,0:0|0:0,0:0:0:0:
436,192,19988,2,0,L|340:192,1,90
256,192,20321,2,0,L|356:192,1,90,2|0,0:0|0:0,0:0:0:0:
436,192,20654,1,2,0:0:0:0:
256,192,20876,6,0,L|152:192,1,90,2|0,0:0|0:0,0:0:0:0:
256,192,21210,2,0,L|356:192,1,90,2|0,0:0|0:0,0:0:0:0:
256,192,21543,1,2,0:0:0:0:
76,192,21765,2,0,L|76:144,2,45,0|0|2,0:0|0:0|0:0,0:0:0:0:
166,192,22099,1,0,0:0:0:0:
346,192,22321,2,0,L|346:148,2,45,2|0|2,0:0|0:0|0:0,0:0:0:0:
256,192,22654,5,0,0:0:0:0:
436,192,22876,1,2,0:0:0:0:
256,192,23099,1,0,0:0:0:0:
76,192,23321,1,2,0:0:0:0:
256,192,23543,2,0,L|352:192,1,90,0|0,0:0|0:0,0:0:0:0:
166,192,23876,2,0,L|72:192,1,90,2|0,0:0|0:0,0:0:0:0:
256,192,24210,1,2,0:0:0:0:
436,192,24432,5,0,0:0:0:0:
256,192,24654,1,2,0:0:0:0:
76,192,24876,1,0,0:0:0:0:
256,192,25099,1,2,0:0:0:0:
436,192,25321,2,0,L|344:192,1,90,0|0,0:0|0:0,0:0:0:0:
166,192,25654,2,0,L|256:192,1,90,2|0,0:0|0:0,0:0:0:0:
436,192,25988,1,2,0:0:0:0:
76,192,26210,5,4,0:0:0:0:
256,192,26432,2,0,L|356:192,1,90,2|0,0:0|0:0,0:0:0:0:
166,192,26876,2,0,L|76:192,1,90,0|0,0:0|0:0,0:0:0:0:
256,192,27321,2,0,L|356:192,1,90,2|0,0:0|0:0,0:0:0:0:
166,192,27765,1,0,0:0:0:0:
346,192,27988,6,0,L|256:192,1,90,4|0,0:0|0:0,0:0:0:0:
76,192,28321,2,0,L|166:192,1,90,2|0,0:0|0:0,0:0:0:0:
346,192,28654,1,2,0:0:0:0:
256,192,28876,12,0,29543,0:0:0:0:
436,192,29765,5,4,0:0:0:0:
256,192,29987,2,0,L|156:192,1,90,2|0,0:0|0:0,0:0:0:0:
346,192,30433,2,0,L|436:192,1,90
256,192,30876,2,0,L|156:192,1,90,2|0,0:0|0:0,0:0:0:0:
346,192,31320,1,0,0:0:0:0:
166,192,31543,6,0,L|256:192,1,90,4|0,0:0|0:0,0:0:0:0:
436,192,31876,2,0,L|346:192,1,90,2|0,0:0|0:0,0:0:0:0:
166,192,32209,1,2,0:0:0:0:
256,192,32432,12,0,33099,0:0:0:0:
76,192,33321,5,4,0:0:0:0:
166,192,33543,1,0,0:0:0:0:
346,192,33765,1,0,0:0:0:0:
436,192,34210,1,0,0:0:0:0:
346,192,34432,1,0,0:0:0:0:
166,192,34654,1,0,0:0:0:0:
76,192,35099,5,2,0:0:0:0:
391,192,35432,1,2,0:0:0:0:
76,192,35765,1,2,0:0:0:0:
166,192,35988,1,0,0:0:0:0:
346,192,36210,1,2,0:0:0:0:
256,192,36432,1,0,0:0:0:0:
76,192,36654,1,0,0:0:0:0:
436,192,36876,5,4,0:0:0:0:
480,192,36988,2,0,L|480:144,1,45
436,192,37210,1,0,0:0:0:0:
256,192,37321,1,2,0:0:0:0:
212,192,37433,2,0,L|212:144,1,45
256,192,37655,1,0,0:0:0:0:
346,192,37765,5,2,0:0:0:0:
390,192,37877,2,0,L|390:144,1,45
346,192,38099,1,0,0:0:0:0:
166,192,38210,1,2,0:0:0:0:
122,192,38322,2,0,L|122:144,1,45
166,192,38544,1,0,0:0:0:0:
256,324,38655,5,4,0:0:0:0:
364,324,38877,1,0,0:0:0:0:
148,324,39099,1,4,0:0:0:0:
392,248,39321,1,0,0:0:0:0:
120,248,39544,1,4,0:0:0:0:
364,324,39766,1,0,0:0:0:0:
148,324,39988,1,4,0:0:0:0:
256,192,40210,1,0,0:0:0:0:
256,192,40432,5,4,0:0:0:0:
256,192,40765,1,0,0:0:0:0:
256,192,41099,1,0,0:0:0:0:
256,192,41321,1,4,0:0:0:0:
436,80,41543,5,0,0:0:0:0:
392,80,41654,1,0,0:0:0:0:
348,80,41765,1,0,0:0:0:0:
212,192,41876,1,0,0:0:0:0:
256,192,41988,1,0,0:0:0:0:
300,192,42099,1,0,0:0:0:0:
436,80,42210,5,4,0:0:0:0:
166,192,42543,1,2,0:0:0:0:
256,192,42876,1,2,0:0:0:0:
436,192,43099,2,0,L|334:192,1,90,0|2,0:0|0:0,0:0:0:0:
166,192,43543,2,0,L|268:192,1,90
144,192,43876,2,0,L|42:192,1,90,2|0,0:0|0:0,0:0:0:0:
166,192,44210,1,2,0:0:0:0:
372,192,44432,6,0,L|492:192,1,90
352,192,44765,2,0,L|248:192,1,90,2|0,0:0|0:0,0:0:0:0:
372,192,45099,1,2,0:0:0:0:
166,192,45321,1,0,0:0:0:0:
372,192,45543,1,0,0:0:0:0:
166,192,45765,6,0,L|64:192,1,90,4|2,0:0|0:0,0:0:0:0:
282,192,46210,1,0,0:0:0:0:
76,192,46432,2,0,L|166:192,1,90
372,192,46876,2,0,L|282:192,1,90,2|0,0:0|0:0,0:0:0:0:
76,192,47321,1,0,0:0:0:0:
372,192,47543,6,0,L|424:192,2,45,4|0|0,0:0|0:0|0:0,0:0:0:0:
168,192,47988,2,0,L|116:192,2,45
372,192,48432,1,2,0:0:0:0:
168,192,48654,2,0,L|76:192,1,90
270,192,49099,1,2,0:0:0:0:
460,192,49321,6,0,L|364:192,1,90,4|0,0:0|0:0,0:0:0:0:
168,192,49765,2,0,L|264:192,1,90
368,192,50099,2,0,L|272:192,1,90,2|0,0:0|0:0,0:0:0:0:
168,192,50432,1,2,0:0:0:0:
368,192,50654,6,0,L|472:192,1,90
340,192,50988,2,0,L|236:192,1,90,2|0,0:0|0:0,0:0:0:0:
132,192,51321,2,0,L|228:192,1,90,2|0,0:0|0:0,0:0:0:0:
460,192,51765,2,0,L|460:144,2,45,2|0|0,0:0|0:0|0:0,0:0:0:0:
222,192,52210,2,0,L|222:118,2,45
460,192,52654,1,2,0:0:0:0:
222,192,52876,5,4,0:0:0:0:
132,192,53099,1,2,0:0:0:0:
312,192,53321,1,0,0:0:0:0:
132,192,53543,1,0,0:0:0:0:
222,192,53765,1,0,0:0:0:0:
44,192,53988,1,2,0:0:0:0:
222,192,54210,1,0,0:0:0:0:
400,192,54432,1,0,0:0:0:0:
222,192,54654,6,0,L|120:192,1,90,4|0,0:0|0:0,0:0:0:0:
248,192,54988,2,0,L|338:192,1,90,2|0,0:0|0:0,0:0:0:0:
222,192,55321,1,2,0:0:0:0:
444,192,55543,1,0,0:0:0:0:
400,192,55654,1,0,0:0:0:0:
356,192,55765,1,0,0:0:0:0:
312,192,55876,1,0,0:0:0:0:
180,52,55988,5,0,0:0:0:0:
136,52,56099,1,0,0:0:0:0:
92,52,56210,1,0,0:0:0:0:
224,52,56321,1,0,0:0:0:0:
356,52,56432,5,4,0:0:0:0:
92,52,56765,1,2,0:0:0:0:
356,52,57099,2,0,L|448:52,1,90,2|0,0:0|0:0,0:0:0:0:
268,52,57543,1,2,0:0:0:0:
90,332,57765,2,0,L|180:332,1,90
92,332,58099,1,2,0:0:0:0:
336,332,58321,5,0,0:0:0:0:
248,332,58432,2,0,L|338:332,1,90,2|0,0:0|0:0,0:0:0:0:
92,332,58876,1,0,0:0:0:0:
180,332,58988,2,0,L|90:332,1,90,2|0,0:0|0:0,0:0:0:0:
336,52,59321,2,0,L|440:52,1,90,2|0,0:0|0:0,0:0:0:0:
224,52,59765,1,2,0:0:0:0:
426,52,59988,6,0,L|336:52,1,90,4|2,0:0|0:0,0:0:0:0:
132,52,60432,2,0,L|222:52,1,90
426,52,60876,2,0,L|208:52,1,199.80000487793
426,52,61544,1,2,0:0:0:0:
226,52,61765,6,0,L|320:52,1,90,4|0,0:0|0:0,0:0:0:0:
196,52,62099,2,0,L|104:52,1,90,2|0,0:0|0:0,0:0:0:0:
226,52,62432,1,2,0:0:0:0:
424,52,62654,1,0,0:0:0:0:
226,52,62876,1,2,0:0:0:0:
108,52,63099,1,0,0:0:0:0:
226,52,63321,1,2,0:0:0:0:
424,52,63543,5,4,0:0:0:0:
120,52,63765,2,0,L|120:108,1,45,0|2,0:0|0:0,0:0:0:0:
408,52,64210,1,4,0:0:0:0:
108,52,64432,2,0,L|108:108,1,45,0|2,0:0|0:0,0:0:0:0:
396,52,64876,1,4,0:0:0:0:
96,52,65098,2,0,L|96:108,1,45,0|2,0:0|0:0,0:0:0:0:
256,192,65432,12,0,66210,0:0:0:0:
204,76,66432,6,0,L|108:76,1,90,2|0,0:0|0:0,0:0:0:0:
300,76,66876,1,2,0:0:0:0:
488,76,67099,6,0,L|384:76,1,90,4|2,0:0|0:0,0:0:0:0:
204,76,67543,2,0,L|308:76,1,90
488,76,67988,2,0,L|384:76,1,90,0|2,0:0|0:0,0:0:0:0:
204,76,68432,2,0,L|308:76,1,90
116,76,68876,6,0,L|20:76,1,90
144,76,69210,2,0,L|240:76,1,90,2|0,0:0|0:0,0:0:0:0:
116,76,69543,1,2,0:0:0:0:
296,76,69765,1,0,0:0:0:0:
296,76,69988,1,2,0:0:0:0:
476,76,70210,1,0,0:0:0:0:
296,76,70432,5,2,0:0:0:0:
208,76,70543,1,0,0:0:0:0:
120,76,70654,2,0,L|28:232,1,180,4|0,0:0|0:0,0:0:0:0:
208,76,71321,1,2,0:0:0:0:
28,231,71543,2,0,L|84:132,1,90,0|2,0:0|0:0,0:0:0:0:
296,76,71988,1,0,0:0:0:0:
72,232,72210,5,2,0:0:0:0:
160,232,72321,1,0,0:0:0:0:
248,232,72432,2,0,L|340:76,1,180,4|0,0:0|0:0,0:0:0:0:
160,232,73099,1,2,0:0:0:0:
340,77,73321,2,0,L|284:176,1,90,0|2,0:0|0:0,0:0:0:0:
72,232,73766,1,0,0:0:0:0:
295,155,73988,1,2,0:0:0:0:
64,156,74210,5,4,0:0:0:0:
384,156,74543,1,0,0:0:0:0:
136,36,74876,1,2,0:0:0:0:
400,156,75099,5,4,0:0:0:0:
80,156,75432,1,0,0:0:0:0:
328,36,75765,1,2,0:0:0:0:
64,156,75988,5,4,0:0:0:0:
384,156,76321,1,0,0:0:0:0:
136,36,76654,1,2,0:0:0:0:
400,156,76876,5,4,0:0:0:0:
310,272,77099,2,0,L|410:272,1,90,2|0,0:0|0:0,0:0:0:0:
192,272,77543,1,2,0:0:0:0:
400,184,77766,6,0,L|310:184,1,90,4|0,0:0|0:0,0:0:0:0:
192,184,78099,2,0,L|282:184,1,90,2|0,0:0|0:0,0:0:0:0:
164,184,78432,1,2,0:0:0:0:
40,184,78654,1,0,0:0:0:0:
220,184,78877,5,2,0:0:0:0:
400,184,79099,2,0,L|304:184,1,90,0|2,0:0|0:0,0:0:0:0:
130,184,79543,2,0,L|224:184,1,90,4|2,0:0|0:0,0:0:0:0:
100,184,79877,2,0,L|6:184,1,90
130,184,80210,1,2,0:0:0:0:
310,184,80432,2,0,L|404:184,1,90,0|2,0:0|0:0,0:0:0:0:
220,184,80877,2,0,L|126:184,1,90,0|2,0:0|0:0,0:0:0:0:
310,184,81321,5,4,0:0:0:0:
40,184,81654,1,0,0:0:0:0:
310,184,81988,1,2,0:0:0:0:
76,184,82210,1,4,0:0:0:0:
346,184,82543,1,0,0:0:0:0:
76,184,82877,1,2,0:0:0:0:
310,184,83099,6,0,L|436:184,1,90,4|2,0:0|0:0,0:0:0:0:
220,184,83432,2,0,L|120:184,1,90
310,184,83765,1,2,0:0:0:0:
130,184,83988,1,2,0:0:0:0:
176,184,84099,2,0,L|176:132,1,45,0|2,0:0|0:0,0:0:0:0:
88,144,84321,1,2,0:0:0:0:
310,184,84432,1,2,0:0:0:0:
264,184,84543,2,0,L|264:132,1,45,0|2,0:0|0:0,0:0:0:0:
352,144,84765,1,2,0:0:0:0:
130,184,84876,5,4,0:0:0:0:
436,180,85210,1,4,0:0:0:0:
148,184,85543,1,4,0:0:0:0:
454,100,85877,1,4,0:0:0:0:
168,184,86210,1,4,0:0:0:0:
184,184,86876,5,0,0:0:0:0:
364,184,87099,2,0,L|364:132,1,45
128,184,87432,1,0,0:0:0:0:
128,184,87988,1,4,0:0:0:0:
256,192,88210,12,0,93765,0:0:0:0:
