osu file format v12

[General]
AudioFilename: Shaman King.mp3
AudioLeadIn: 0
PreviewTime: 41425
Countdown: 0
SampleSet: Soft
StackLeniency: 0.7
Mode: 2
LetterboxInBreaks: 0
WidescreenStoryboard: 0

[Editor]
Bookmarks: 4870,26203,42203,56425,70647,77758
DistanceSpacing: 1
BeatDivisor: 4
GridSize: 4
TimelineZoom: 1

[Metadata]
Title:La Eterna Luz (TV Size)
TitleUnicode:La Eterna Luz (TV Size)
Artist:Gabriela Vega y Maggie Vera
ArtistUnicode:Gabriela Vega y Maggie Vera
Creator:seicHmsc
Version:Platter
Source:Shaman King
Tags:newtoniorock8 yoh hao anna opening
BeatmapID:330095
BeatmapSetID:130826

[Difficulty]
HPDrainRate:6
CircleSize:4
OverallDifficulty:6
ApproachRate:8
SliderMultiplier:1.6
SliderTickRate:2

[Events]
//Background and Video events
0,0,"BG.jpg",0,0
//Break Periods
//Storyboard Layer 0 (Background)
//Storyboard Layer 1 (Fail)
//Storyboard Layer 2 (Pass)
//Storyboard Layer 3 (Foreground)
//Storyboard Sound Samples
//Background Colour Transformations
3,100,163,162,255

[TimingPoints]
1322,444.444444444444,4,2,0,80,1,0
12876,-100,4,1,0,80,0,0
13099,-100,4,2,0,80,0,0
14654,-100,4,1,0,80,0,0
14765,-100,4,2,0,80,0,0
16432,-100,4,1,0,80,0,0
16543,-100,4,2,0,80,0,0
18210,-100,4,1,0,80,0,0
18321,-100,4,2,0,80,0,0
19988,-100,4,1,0,80,0,0
20099,-100,4,2,0,80,0,0
21765,-100,4,1,0,80,0,0
21876,-100,4,2,0,80,0,0
23543,-100,4,1,0,80,0,0
23654,-100,4,2,0,80,0,0
25321,-100,4,1,0,80,0,0
25432,-100,4,2,0,80,0,0
26210,-100,4,1,0,85,0,0
26321,-100,4,2,0,80,0,0
26654,-100,4,1,0,80,0,0
26765,-100,4,2,0,80,0,0
27543,-100,4,1,0,80,0,0
27654,-100,4,2,0,80,0,0
29765,-100,4,1,0,80,0,0
29876,-100,4,2,0,80,0,0
30210,-100,4,1,0,80,0,0
30321,-100,4,2,0,80,0,0
31099,-100,4,1,0,80,0,0
31210,-100,4,2,0,80,0,0
33765,-100,4,1,0,80,0,0
33876,-100,4,2,0,80,0,0
34654,-100,4,1,0,80,0,0
34765,-100,4,2,0,80,0,0
36432,-100,4,1,0,80,0,0
36543,-100,4,2,0,80,0,0
38654,-100,4,1,0,80,0,0
40432,-100,4,1,0,85,0,0
41543,-100,4,1,0,70,0,0
42210,-100,4,1,0,75,0,1
42321,-100,4,2,0,80,0,1
43543,-100,4,1,0,80,0,1
43654,-100,4,2,0,80,0,1
44432,-100,4,1,0,80,0,1
44543,-100,4,2,0,80,0,1
45321,-100,4,1,0,80,0,1
45432,-100,4,2,0,80,0,1
46210,-100,4,1,0,80,0,1
46321,-100,4,2,0,80,0,1
47099,-100,4,1,0,80,0,1
47210,-100,4,2,0,80,0,1
47988,-100,4,1,0,80,0,1
48099,-100,4,2,0,80,0,1
48876,-100,4,1,0,80,0,1
48988,-100,4,2,0,80,0,1
49765,-100,4,1,0,80,0,1
49876,-100,4,2,0,80,0,1
50654,-100,4,1,0,80,0,1
50765,-100,4,2,0,80,0,1
51543,-100,4,1,0,80,0,1
51654,-100,4,2,0,80,0,1
52432,-100,4,1,0,80,0,1
52543,-100,4,2,0,80,0,1
53321,-100,4,1,0,80,0,1
53432,-100,4,2,0,80,0,1
54210,-100,4,1,0,80,0,1
54321,-100,4,2,0,80,0,1
55543,-100,4,1,0,70,0,0
56432,-100,4,1,0,75,0,1
56543,-100,4,2,0,80,0,1
57765,-100,4,1,0,80,0,1
57876,-100,4,2,0,80,0,1
58654,-100,4,1,0,80,0,1
58765,-100,4,2,0,80,0,1
59543,-100,4,1,0,80,0,1
59654,-100,4,2,0,80,0,1
60432,-100,4,1,0,80,0,1
60543,-100,4,2,0,80,0,1
61321,-100,4,1,0,80,0,1
61432,-100,4,2,0,80,0,1
63099,-100,4,1,0,80,0,1
63210,-100,4,2,0,80,0,1
66654,-100,4,1,0,80,0,1
66765,-100,4,2,0,80,0,1
67543,-100,4,1,0,80,0,1
67654,-100,4,2,0,80,0,1
68432,-100,4,1,0,80,0,1
68543,-100,4,2,0,80,0,1
70210,-100,4,1,0,80,0,1
70321,-100,4,2,0,80,0,1
71099,-100,4,1,0,80,0,1
71210,-100,4,2,0,80,0,1
71988,-100,4,1,0,80,0,1
72099,-100,4,2,0,80,0,1
72876,-100,4,1,0,80,0,1
72988,-100,4,2,0,80,0,1
73765,-100,4,1,0,80,0,1
73876,-83.3333333333333,4,2,0,80,0,1
77765,-83.3333333333333,4,2,0,80,0,0
84876,-100,4,1,0,70,0,0
93765,-100,4,2,0,30,0,0

[Colours]
Combo1 : 0,255,128
Combo2 : 255,128,64

[HitObjects]
252,192,4210,6,0,L|172:192,1,80,0|0,0:0|0:0,0:0:0:0:
252,192,4654,1,2,0:0:0:0:
332,192,4877,2,0,L|456:192,2,120,4|2|2,0:0|0:0|0:0,0:0:0:0:
452,192,5765,1,0,0:0:0:0:
252,192,5988,6,0,L|160:192,1,80,2|0,0:0|0:0,0:0:0:0:
12,192,6432,1,2,0:0:0:0:
172,192,6654,2,0,L|304:192,2,120,4|2|2,0:0|0:0|0:0,0:0:0:0:
292,192,7543,1,0,0:0:0:0:
172,80,7765,6,0,L|252:80,1,80,2|0,0:0|0:0,0:0:0:0:
332,80,8210,1,2,0:0:0:0:
172,80,8432,2,0,L|36:80,2,120,4|0|2,0:0|0:0|0:0,0:0:0:0:
332,80,9321,2,0,L|468:80,2,120,4|0|2,0:0|0:0|0:0,0:0:0:0:
172,80,10210,6,0,L|89:80,1,80,4|0,0:0|0:0,0:0:0:0:
132,100,10543,2,0,L|49:100,1,80,2|0,0:0|0:0,0:0:0:0:
92,120,10876,1,2,0:0:0:0:
256,80,11099,6,0,L|299:101,1,40,2|0,0:0|0:0,0:0:0:0:
327,115,11321,2,0,L|377:139,1,40,2|2,0:0|0:0,0:0:0:0:
256,80,11543,2,0,L|213:101,1,40,2|0,0:0|0:0,0:0:0:0:
185,115,11765,2,0,L|135:139,1,40,2|2,0:0|0:0,0:0:0:0:
256,312,11988,6,0,L|336:312,1,80,4|2,0:0|0:0,0:0:0:0:
176,312,12432,2,0,L|92:312,1,80,0|2,0:0|0:0,0:0:0:0:
256,312,12876,1,0,0:0:0:0:
468,312,13210,1,2,0:0:0:0:
336,312,13543,1,2,0:0:0:0:
176,312,13765,6,0,L|92:312,1,80,2|0,0:0|0:0,0:0:0:0:
176,312,14099,2,0,L|260:312,1,80,2|0,0:0|0:0,0:0:0:0:
176,312,14432,1,2,0:0:0:0:
336,312,14654,2,0,L|336:256,1,40,0|0,0:0|0:0,0:0:0:0:
416,312,14988,1,2,0:0:0:0:
416,312,15210,1,0,0:0:0:0:
336,312,15432,2,0,L|336:256,1,40,0|0,0:0|0:0,0:0:0:0:
96,72,15765,5,2,0:0:0:0:
16,72,15988,1,2,0:0:0:0:
176,72,16210,1,0,0:0:0:0:
336,72,16432,1,0,0:0:0:0:
256,72,16654,1,2,0:0:0:0:
96,312,16876,6,0,L|56:312,2,40,0|0|2,0:0|0:0|0:0,0:0:0:0:
296,312,17321,1,0,0:0:0:0:
136,312,17543,1,2,0:0:0:0:
336,312,17765,2,0,L|376:312,2,40,0|0|2,0:0|0:0|0:0,0:0:0:0:
136,312,18210,5,0,0:0:0:0:
296,312,18432,1,2,0:0:0:0:
96,312,18654,1,0,0:0:0:0:
256,312,18876,1,2,0:0:0:0:
56,312,19099,6,0,L|56:220,1,80,4|2,0:0|0:0,0:0:0:0:
136,236,19543,1,0,0:0:0:0:
296,312,19765,2,0,L|296:224,1,80,2|0,0:0|0:0,0:0:0:0:
216,236,20210,2,0,L|216:184,1,40,0|2,0:0|0:0,0:0:0:0:
296,312,20654,1,2,0:0:0:0:
456,236,20876,6,0,L|376:236,1,80,2|0,0:0|0:0,0:0:0:0:
296,236,21210,2,0,L|380:236,1,80,2|0,0:0|0:0,0:0:0:0:
456,236,21543,1,2,0:0:0:0:
296,236,21765,2,0,L|296:180,1,40,0|0,0:0|0:0,0:0:0:0:
216,236,22099,1,0,0:0:0:0:
216,236,22321,1,2,0:0:0:0:
296,236,22543,2,0,L|296:180,1,40,2|0,0:0|0:0,0:0:0:0:
56,236,22876,6,0,L|56:156,1,80,2|0,0:0|0:0,0:0:0:0:
216,236,23321,1,2,0:0:0:0:
376,236,23543,2,0,L|376:132,1,80,0|0,0:0|0:0,0:0:0:0:
336,160,23876,2,0,L|336:68,1,80,2|0,0:0|0:0,0:0:0:0:
296,80,24210,1,2,0:0:0:0:
136,236,24432,5,0,0:0:0:0:
376,236,24654,2,0,L|376:156,1,80,2|0,0:0|0:0,0:0:0:0:
216,236,25099,1,2,0:0:0:0:
56,236,25321,2,0,L|56:132,1,80,0|0,0:0|0:0,0:0:0:0:
96,160,25654,2,0,L|96:68,1,80,2|0,0:0|0:0,0:0:0:0:
136,80,25988,1,2,0:0:0:0:
296,236,26210,6,0,L|296:144,1,80,4|2,0:0|0:0,0:0:0:0:
392,156,26654,1,0,0:0:0:0:
200,156,26876,2,0,L|200:244,1,80,0|0,0:0|0:0,0:0:0:0:
296,236,27321,1,2,0:0:0:0:
104,236,27543,2,0,L|104:156,1,80,0|0,0:0|0:0,0:0:0:0:
200,156,27988,5,4,0:0:0:0:
424,156,28321,1,2,0:0:0:0:
200,156,28654,1,2,0:0:0:0:
256,192,28876,12,0,29543,0:0:0:0:
216,236,29765,6,0,L|216:144,1,80,4|2,0:0|0:0,0:0:0:0:
120,156,30209,1,0,0:0:0:0:
312,156,30433,2,0,L|312:244,1,80,0|0,0:0|0:0,0:0:0:0:
216,236,30876,1,2,0:0:0:0:
408,236,31098,2,0,L|408:156,1,80,0|0,0:0|0:0,0:0:0:0:
312,156,31543,5,4,0:0:0:0:
88,156,31876,1,2,0:0:0:0:
312,156,32209,1,2,0:0:0:0:
256,192,32432,12,0,33099,0:0:0:0:
96,192,33321,5,4,0:0:0:0:
416,192,33765,1,0,0:0:0:0:
76,192,34210,1,0,0:0:0:0:
436,192,34654,1,0,0:0:0:0:
96,192,35099,5,2,0:0:0:0:
356,192,35432,1,2,0:0:0:0:
96,192,35765,1,2,0:0:0:0:
276,192,35988,2,0,L|356:192,1,80,0|2,0:0|0:0,0:0:0:0:
176,192,36432,2,0,L|96:192,1,80,0|0,0:0|0:0,0:0:0:0:
276,192,36876,5,4,0:0:0:0:
456,192,37099,2,0,L|516:192,2,40,0|0|2,0:0|0:0|0:0,0:0:0:0:
256,128,37543,1,0,0:0:0:0:
436,128,37766,2,0,L|496:128,2,40,2|0|0,0:0|0:0|0:0,0:0:0:0:
236,60,38210,1,2,0:0:0:0:
416,60,38433,2,0,L|476:60,2,40,0|0|4,0:0|0:0|0:0,0:0:0:0:
256,192,38876,12,0,40210,0:0:0:0:
256,192,40432,5,4,0:0:0:0:
256,192,40765,1,0,0:0:0:0:
256,192,41099,1,0,0:0:0:0:
256,192,41321,1,4,0:0:0:0:
96,192,41543,6,0,L|136:192,1,40,0|0,0:0|0:0,0:0:0:0:
176,192,41765,1,0,0:0:0:0:
96,192,41876,2,0,L|40:192,1,40,0|0,0:0|0:0,0:0:0:0:
16,192,42099,1,0,0:0:0:0:
96,192,42210,5,4,0:0:0:0:
336,192,42543,1,2,0:0:0:0:
176,192,42876,2,0,L|96:192,1,80,2|0,0:0|0:0,0:0:0:0:
256,192,43321,2,0,L|344:192,1,80,2|0,0:0|0:0,0:0:0:0:
176,192,43765,2,0,L|176:144,1,40,0|2,0:0|0:0,0:0:0:0:
96,192,44099,6,0,L|96:140,1,40,0|2,0:0|0:0,0:0:0:0:
256,192,44432,2,0,L|344:192,1,80,0|0,0:0|0:0,0:0:0:0:
256,192,44765,2,0,L|164:192,1,80,2|0,0:0|0:0,0:0:0:0:
256,192,45099,1,2,0:0:0:0:
444,192,45321,1,0,0:0:0:0:
256,192,45543,1,0,0:0:0:0:
444,192,45765,6,0,L|444:104,1,80,4|2,0:0|0:0,0:0:0:0:
350,192,46210,1,0,0:0:0:0:
162,192,46432,2,0,L|162:104,1,80,0|0,0:0|0:0,0:0:0:0:
256,192,46876,1,2,0:0:0:0:
444,192,47099,1,0,0:0:0:0:
256,192,47321,1,0,0:0:0:0:
444,192,47543,6,0,L|444:108,1,80,4|0,0:0|0:0,0:0:0:0:
444,192,47988,1,0,0:0:0:0:
350,192,48432,1,2,0:0:0:0:
162,192,48654,2,0,L|76:192,1,80,0|0,0:0|0:0,0:0:0:0:
256,192,49099,1,2,0:0:0:0:
82,192,49321,6,0,L|162:192,1,80,4|0,0:0|0:0,0:0:0:0:
350,192,49765,2,0,L|260:192,1,80,0|0,0:0|0:0,0:0:0:0:
310,158,50099,1,2,0:0:0:0:
176,192,50321,2,0,L|176:144,1,40,0|2,0:0|0:0,0:0:0:0:
392,192,50654,6,0,L|302:192,1,80,0|0,0:0|0:0,0:0:0:0:
352,158,50988,1,2,0:0:0:0:
218,192,51210,2,0,L|218:144,1,40,0|2,0:0|0:0,0:0:0:0:
432,192,51543,1,0,0:0:0:0:
256,192,51765,2,0,L|256:144,1,40,2|0,0:0|0:0,0:0:0:0:
432,288,52210,5,0,0:0:0:0:
256,288,52432,1,0,0:0:0:0:
432,288,52654,1,2,0:0:0:0:
256,288,52876,2,0,L|96:288,1,160,4|0,0:0|0:0,0:0:0:0:
256,288,53543,1,0,0:0:0:0:
96,288,53765,2,0,L|256:288,1,160,0|0,0:0|0:0,0:0:0:0:
96,288,54432,1,0,0:0:0:0:
256,288,54654,6,0,L|176:288,1,80,4|0,0:0|0:0,0:0:0:0:
256,288,54988,2,0,L|340:288,1,80,2|0,0:0|0:0,0:0:0:0:
256,288,55321,1,2,0:0:0:0:
432,288,55543,1,0,0:0:0:0:
256,288,55765,1,0,0:0:0:0:
432,288,55988,2,0,L|432:240,2,40,0|0|0,0:0|0:0|0:0,0:0:0:0:
96,288,56432,5,4,0:0:0:0:
176,288,56765,1,2,0:0:0:0:
336,288,57099,1,2,0:0:0:0:
256,288,57321,1,0,0:0:0:0:
96,288,57543,1,2,0:0:0:0:
176,288,57765,1,0,0:0:0:0:
336,288,57988,2,0,L|336:240,1,40,0|2,0:0|0:0,0:0:0:0:
416,288,58321,6,0,L|416:232,1,40,0|2,0:0|0:0,0:0:0:0:
256,288,58654,1,0,0:0:0:0:
336,288,58876,2,0,L|336:244,1,40,0|2,0:0|0:0,0:0:0:0:
256,288,59321,2,0,L|176:288,1,80,2|0,0:0|0:0,0:0:0:0:
336,288,59765,1,2,0:0:0:0:
176,288,59988,6,0,L|256:288,1,80,4|2,0:0|0:0,0:0:0:0:
336,288,60432,1,0,0:0:0:0:
188,192,60654,2,0,L|108:192,1,80,0|0,0:0|0:0,0:0:0:0:
28,192,61098,1,0,0:0:0:0:
208,96,61321,2,0,L|288:96,1,80,0|2,0:0|0:0,0:0:0:0:
368,96,61765,5,4,0:0:0:0:
28,192,62210,1,0,0:0:0:0:
368,96,62654,2,0,L|284:96,1,80,0|2,0:0|0:0,0:0:0:0:
128,96,63099,2,0,L|216:96,1,80,0|2,0:0|0:0,0:0:0:0:
368,96,63543,6,0,L|456:96,1,80,4|0,0:0|0:0,0:0:0:0:
408,96,63876,1,2,0:0:0:0:
116,192,64210,2,0,L|28:192,1,80,4|0,0:0|0:0,0:0:0:0:
76,192,64543,1,2,0:0:0:0:
408,288,64876,2,0,L|496:288,1,80,4|0,0:0|0:0,0:0:0:0:
448,288,65209,1,2,0:0:0:0:
256,192,65432,12,0,66210,0:0:0:0:
176,192,66432,6,0,L|256:192,1,80,2|0,0:0|0:0,0:0:0:0:
336,192,66876,1,2,0:0:0:0:
176,192,67099,6,0,L|88:192,1,80,4|2,0:0|0:0,0:0:0:0:
256,192,67543,2,0,L|420:192,1,160,0|0,0:0|0:0,0:0:0:0:
256,192,68210,1,2,0:0:0:0:
416,192,68432,2,0,L|316:192,1,80,0|0,0:0|0:0,0:0:0:0:
176,192,68876,6,0,L|256:192,1,80,0|0,0:0|0:0,0:0:0:0:
336,192,69210,2,0,L|248:192,1,80,2|0,0:0|0:0,0:0:0:0:
176,192,69543,1,2,0:0:0:0:
336,192,69765,1,0,0:0:0:0:
336,192,69988,1,2,0:0:0:0:
176,192,70210,1,0,0:0:0:0:
336,192,70432,5,2,0:0:0:0:
384,192,70543,1,0,0:0:0:0:
432,192,70654,2,0,L|464:356,1,160,4|0,0:0|0:0,0:0:0:0:
288,192,71321,2,0,L|303:274,1,80,2|0,0:0|0:0,0:0:0:0:
464,192,71765,2,0,L|479:274,1,80,2|0,0:0|0:0,0:0:0:0:
240,192,72210,5,2,0:0:0:0:
192,192,72321,1,0,0:0:0:0:
144,192,72432,2,0,L|112:356,1,160,4|0,0:0|0:0,0:0:0:0:
288,192,73099,2,0,L|273:274,1,80,2|0,0:0|0:0,0:0:0:0:
112,192,73543,2,0,L|97:274,1,80,2|0,0:0|0:0,0:0:0:0:
273,270,73988,1,2,0:0:0:0:
444,272,74210,5,4,0:0:0:0:
388,272,74543,1,0,0:0:0:0:
332,272,74876,1,2,0:0:0:0:
132,192,75099,5,4,0:0:0:0:
204,192,75432,1,0,0:0:0:0:
276,192,75765,1,2,0:0:0:0:
96,120,75988,5,4,0:0:0:0:
8,120,76321,1,0,0:0:0:0:
96,120,76654,1,2,0:0:0:0:
316,192,76876,5,4,0:0:0:0:
220,192,77099,2,0,L|124:192,1,95.9999970703126,2|0,0:0|0:0,0:0:0:0:
28,192,77543,1,2,0:0:0:0:
220,192,77765,2,0,L|364:192,2,143.999995605469,4|2|2,0:0|0:0|0:0,0:0:0:0:
124,192,78654,1,0,0:0:0:0:
316,192,78876,6,0,L|412:192,1,95.9999970703126,2|0,0:0|0:0,0:0:0:0:
220,192,79321,1,2,0:0:0:0:
412,192,79543,2,0,L|256:192,2,143.999995605469,4|0|2,0:0|0:0|0:0,0:0:0:0:
220,192,80432,2,0,L|124:192,1,95.9999970703126,0|2,0:0|0:0,0:0:0:0:
316,192,80876,2,0,L|420:192,1,95.9999970703126,0|2,0:0|0:0,0:0:0:0:
220,192,81321,6,0,L|68:192,2,143.999995605469,4|0|2,0:0|0:0|0:0,0:0:0:0:
28,192,82210,2,0,L|172:192,2,143.999995605469,4|0|2,0:0|0:0|0:0,0:0:0:0:
220,192,83099,6,0,L|320:192,1,95.9999970703126,4|2,0:0|0:0,0:0:0:0:
268,192,83432,2,0,L|368:192,1,95.9999970703126,0|0,0:0|0:0,0:0:0:0:
316,192,83765,1,2,0:0:0:0:
96,192,83988,6,0,L|48:192,3,47.9999985351563
144,192,84432,2,0,L|196:192,3,47.9999985351563
96,192,84876,5,4,0:0:0:0:
364,192,85210,1,4,0:0:0:0:
116,192,85543,1,4,0:0:0:0:
384,192,85877,1,4,0:0:0:0:
136,192,86210,1,4,0:0:0:0:
404,192,86876,5,0,0:0:0:0:
324,192,87099,2,0,L|324:144,1,40,0|0,0:0|0:0,0:0:0:0:
164,192,87432,1,0,0:0:0:0:
164,192,87988,1,4,0:0:0:0:
256,192,88210,12,0,93765,0:0:0:0:
