osu file format v12

[General]
AudioFilename: Shaman King.mp3
AudioLeadIn: 0
PreviewTime: 41425
Countdown: 0
SampleSet: Soft
StackLeniency: 0.7
Mode: 2
LetterboxInBreaks: 0
WidescreenStoryboard: 0

[Editor]
Bookmarks: 4870,26203,42203,56425,70647,77758
DistanceSpacing: 1
BeatDivisor: 4
GridSize: 4
TimelineZoom: 1

[Metadata]
Title:La Eterna Luz (TV Size)
TitleUnicode:La Eterna Luz (TV Size)
Artist:Gabriela Vega y Maggie Vera
ArtistUnicode:Gabriela Vega y Maggie Vera
Creator:seicHmsc
Version:Cup
Source:Shaman King
Tags:newtoniorock8 yoh hao anna opening
BeatmapID:330205
BeatmapSetID:130826

[Difficulty]
HPDrainRate:3
CircleSize:2
OverallDifficulty:2
ApproachRate:4
SliderMultiplier:1.2
SliderTickRate:2

[Events]
//Background and Video events
0,0,"BG.jpg",0,0
//Break Periods
//Storyboard Layer 0 (Background)
//Storyboard Layer 1 (Fail)
//Storyboard Layer 2 (Pass)
//Storyboard Layer 3 (Foreground)
//Storyboard Sound Samples
//Background Colour Transformations
3,100,163,162,255

[TimingPoints]
1322,444.444444444444,4,2,0,80,1,0
12876,-100,4,1,0,80,0,0
13099,-100,4,2,0,80,0,0
16432,-100,4,1,0,80,0,0
16543,-100,4,2,0,80,0,0
18210,-100,4,1,0,80,0,0
18321,-100,4,2,0,80,0,0
19988,-100,4,1,0,80,0,0
20099,-100,4,2,0,80,0,0
21765,-100,4,1,0,80,0,0
21876,-100,4,2,0,80,0,0
23543,-100,4,1,0,80,0,0
23654,-100,4,2,0,80,0,0
25321,-100,4,1,0,80,0,0
25432,-100,4,2,0,80,0,0
26210,-100,4,1,0,85,0,0
26654,-100,4,1,0,80,0,0
26765,-100,4,2,0,80,0,0
27543,-100,4,1,0,80,0,0
27654,-100,4,2,0,80,0,0
29765,-100,4,1,0,80,0,0
30321,-100,4,2,0,80,0,0
31099,-100,4,1,0,80,0,0
31210,-100,4,2,0,80,0,0
33765,-100,4,1,0,80,0,0
33876,-100,4,2,0,80,0,0
34654,-100,4,1,0,80,0,0
34765,-100,4,2,0,80,0,0
36432,-100,4,1,0,80,0,0
36543,-100,4,2,0,80,0,0
39988,-100,4,1,0,85,0,0
42210,-100,4,1,0,75,0,1
42321,-100,4,2,0,80,0,1
43543,-100,4,1,0,80,0,1
43654,-100,4,2,0,80,0,1
44432,-100,4,1,0,80,0,1
44543,-100,4,2,0,80,0,1
45321,-100,4,1,0,80,0,1
45432,-100,4,2,0,80,0,1
46210,-100,4,1,0,80,0,1
46321,-100,4,2,0,80,0,1
47099,-100,4,1,0,80,0,1
47210,-100,4,2,0,80,0,1
47988,-100,4,1,0,80,0,1
48099,-100,4,2,0,80,0,1
48876,-100,4,1,0,80,0,1
48988,-100,4,2,0,80,0,1
49765,-100,4,1,0,80,0,1
49876,-100,4,2,0,80,0,1
50654,-100,4,1,0,80,0,1
50765,-100,4,2,0,80,0,1
51543,-100,4,1,0,80,0,1
51654,-100,4,2,0,80,0,1
52432,-100,4,1,0,80,0,1
52543,-100,4,2,0,80,0,1
53321,-100,4,1,0,80,0,1
53432,-100,4,2,0,80,0,1
54210,-100,4,1,0,80,0,1
54321,-100,4,2,0,80,0,1
55543,-100,4,1,0,70,0,0
56432,-100,4,1,0,75,0,1
56543,-100,4,2,0,80,0,1
57765,-100,4,1,0,80,0,1
57876,-100,4,2,0,80,0,1
58654,-100,4,1,0,80,0,1
58765,-100,4,2,0,80,0,1
59543,-100,4,1,0,80,0,1
59654,-100,4,2,0,80,0,1
60432,-100,4,1,0,80,0,1
60543,-100,4,2,0,80,0,1
61321,-100,4,1,0,80,0,1
61432,-100,4,2,0,80,0,1
63099,-100,4,1,0,80,0,1
63210,-100,4,2,0,80,0,1
66654,-100,4,1,0,80,0,1
66765,-100,4,2,0,80,0,1
67543,-100,4,1,0,80,0,1
67654,-100,4,2,0,80,0,1
68432,-100,4,1,0,80,0,1
68543,-100,4,2,0,80,0,1
69321,-100,4,1,0,80,0,1
69432,-100,4,2,0,80,0,1
70210,-100,4,1,0,80,0,1
70321,-100,4,2,0,80,0,1
73765,-100,4,1,0,80,0,1
73876,-83.3333333333333,4,2,0,80,0,1
77765,-100,4,2,0,80,0,0
84876,-100,4,1,0,70,0,0
93765,-100,4,2,0,30,0,0

[Colours]
Combo1 : 0,255,128
Combo2 : 255,128,64

[HitObjects]
76,192,4211,6,0,L|148:192,1,60,0|0,0:0|0:0,0:0:0:0:
256,192,4878,2,0,L|440:192,1,180,4|2,0:0|0:0,0:0:0:0:
316,192,5989,6,0,L|244:192,1,60,2|0,0:0|0:0,0:0:0:0:
136,192,6655,2,0,P|72:232|140:268,1,180,4|0,0:0|0:0,0:0:0:0:
256,272,7766,2,0,L|332:272,1,60,2|0,0:0|0:0,0:0:0:0:
436,272,8433,6,0,L|436:88,1,180,4|2,0:0|0:0,0:0:0:0:
376,92,9322,2,0,L|376:276,1,180,4|2,0:0|0:0,0:0:0:0:
316,272,10211,1,4,0:0:0:0:
256,192,10655,12,0,11544,0:0:0:0:
256,192,11989,5,4,0:0:0:0:
136,192,12433,2,0,L|16:192,1,120,0|0,0:0|0:0,0:0:0:0:
136,192,13322,1,0,0:0:0:0:
256,192,13766,2,0,L|440:192,1,180,2|2,0:0|0:0,0:0:0:0:
256,192,15100,5,0,0:0:0:0:
136,192,15544,2,0,L|136:72,1,120,0|2,0:0|0:0,0:0:0:0:
256,192,16433,1,0,0:0:0:0:
36,192,16877,2,0,L|36:68,1,120,0|0,0:0|0:0,0:0:0:0:
156,72,17766,5,0,0:0:0:0:
276,72,18211,2,0,L|312:124,3,60,0|2|0|2,0:0|0:0|0:0|0:0,0:0:0:0:
432,120,19322,2,0,L|468:172,1,60,2|0,0:0|0:0,0:0:0:0:
310,121,19989,1,0,0:0:0:0:
76,120,20877,6,0,L|196:120,1,120,2|0,0:0|0:0,0:0:0:0:
316,120,21766,1,0,0:0:0:0:
196,120,22211,2,0,L|76:120,1,120,0|0,0:0|0:0,0:0:0:0:
196,120,23100,5,0,0:0:0:0:
316,120,23544,2,0,L|383:187,2,90,0|2|2,0:0|0:0|0:0,0:0:0:0:
196,120,24655,6,0,L|196:52,1,60,2|0,0:0|0:0,0:0:0:0:
356,120,25322,2,0,L|423:187,2,90,0|2|2,0:0|0:0|0:0,0:0:0:0:
256,120,26211,5,4,0:0:0:0:
88,120,26655,1,0,0:0:0:0:
256,120,27100,1,0,0:0:0:0:
88,120,27544,1,0,0:0:0:0:
256,192,27989,12,0,29322,0:0:0:0:
256,120,29766,5,4,0:0:0:0:
424,120,30210,1,0,0:0:0:0:
256,120,30655,1,0,0:0:0:0:
424,120,31099,1,0,0:0:0:0:
256,192,31544,12,0,32877,0:0:0:0:
256,192,33322,6,0,L|128:192,1,120,4|0,0:0|0:0,0:0:0:0:
16,192,34211,2,0,L|140:192,1,120,0|0,0:0|0:0,0:0:0:0:
256,192,35100,6,0,L|352:192,2,90,2|2|2,0:0|0:0|0:0,0:0:0:0:
56,192,36211,2,0,L|120:192,1,60,2|0,0:0|0:0,0:0:0:0:
256,192,36877,6,0,L|256:264,1,60,4|0,0:0|0:0,0:0:0:0:
316,248,37322,2,0,L|316:176,1,60,2|0,0:0|0:0,0:0:0:0:
376,188,37766,2,0,L|376:268,1,60,2|0,0:0|0:0,0:0:0:0:
436,248,38211,1,2,0:0:0:0:
256,192,38655,12,0,39989,0:0:0:0:
256,192,40433,5,4,0:0:0:0:
256,192,40766,1,0,0:0:0:0:
256,192,41100,1,0,0:0:0:0:
256,192,41322,1,4,0:0:0:0:
436,192,42211,6,0,L|312:192,1,120,4|0,0:0|0:0,0:0:0:0:
196,192,43100,1,0,0:0:0:0:
316,192,43544,2,0,L|436:192,1,120,0|0,0:0|0:0,0:0:0:0:
316,192,44433,1,0,0:0:0:0:
196,192,44877,2,0,L|128:192,2,60,0|2|0,0:0|0:0|0:0,0:0:0:0:
316,192,45766,5,4,0:0:0:0:
196,192,46211,2,0,L|72:192,1,120,0|0,0:0|0:0,0:0:0:0:
196,192,47100,1,0,0:0:0:0:
316,192,47544,5,4,0:0:0:0:
316,192,47989,1,0,0:0:0:0:
196,192,48433,1,2,0:0:0:0:
196,192,48877,1,0,0:0:0:0:
76,192,49322,5,4,0:0:0:0:
196,192,49766,2,0,L|292:192,2,90,0|2|2,0:0|0:0|0:0,0:0:0:0:
136,192,50655,2,0,L|24:192,2,90,0|2|2,0:0|0:0|0:0,0:0:0:0:
196,192,51544,5,0,0:0:0:0:
316,192,51989,2,0,L|448:192,1,120,0|0,0:0|0:0,0:0:0:0:
316,192,52877,5,4,0:0:0:0:
196,192,53322,1,0,0:0:0:0:
316,192,53766,1,0,0:0:0:0:
196,192,54211,1,0,0:0:0:0:
76,192,54655,5,4,0:0:0:0:
196,192,55100,1,0,0:0:0:0:
76,192,55544,2,0,L|76:72,1,120,0|0,0:0|0:0,0:0:0:0:
256,192,56433,6,0,L|376:192,2,120,4|0|0,0:0|0:0|0:0,0:0:0:0:
136,192,57766,1,0,0:0:0:0:
256,192,58211,6,0,L|384:192,1,120,0|0,0:0|0:0,0:0:0:0:
496,192,59100,1,0,0:0:0:0:
376,192,59544,1,0,0:0:0:0:
256,192,59989,6,0,L|256:72,1,120,4|0,0:0|0:0,0:0:0:0:
136,72,60877,2,0,L|136:200,1,120,0|0,0:0|0:0,0:0:0:0:
256,192,61766,6,0,L|256:256,1,60,4|0,0:0|0:0,0:0:0:0:
316,252,62211,2,0,L|316:184,1,60,0|2,0:0|0:0,0:0:0:0:
376,192,62655,1,0,0:0:0:0:
256,192,63100,1,0,0:0:0:0:
136,192,63544,5,4,0:0:0:0:
76,192,63766,2,0,L|76:240,1,30,0|2,0:0|0:0,0:0:0:0:
256,192,64211,1,4,0:0:0:0:
316,192,64433,2,0,L|316:236,1,30,0|2,0:0|0:0,0:0:0:0:
136,192,64877,1,4,0:0:0:0:
76,192,65099,2,0,L|76:240,1,30,0|2,0:0|0:0,0:0:0:0:
256,192,65544,12,0,66655,0:0:0:0:
196,192,67100,6,0,L|324:192,1,120,4|0,0:0|0:0,0:0:0:0:
436,192,67989,1,0,0:0:0:0:
316,192,68433,1,0,0:0:0:0:
196,192,68877,6,0,L|76:192,1,120,0|0,0:0|0:0,0:0:0:0:
196,192,69766,2,0,L|324:192,1,120,0|0,0:0|0:0,0:0:0:0:
196,192,70655,1,4,0:0:0:0:
256,192,71100,12,0,73766,0:0:0:0:
256,192,74211,6,0,L|256:76,2,107.999996704102,4|0|2,0:0|0:0|0:0,0:0:0:0:
156,192,75100,6,0,L|156:76,2,107.999996704102,4|0|2,0:0|0:0|0:0,0:0:0:0:
56,192,75989,6,0,L|56:76,2,107.999996704102,4|0|2,0:0|0:0|0:0,0:0:0:0:
156,192,76877,5,4,0:0:0:0:
276,192,77322,1,0,0:0:0:0:
396,192,77766,6,0,L|208:192,1,180,4|2,0:0|0:0,0:0:0:0:
336,192,78877,2,0,L|336:124,1,60,2|0,0:0|0:0,0:0:0:0:
216,192,79544,6,0,L|396:192,1,180,4|2,0:0|0:0,0:0:0:0:
276,192,80655,2,0,L|276:124,1,60,2|0,0:0|0:0,0:0:0:0:
396,192,81322,6,0,L|200:192,1,180,4|2,0:0|0:0,0:0:0:0:
156,192,82211,2,0,L|336:192,1,180,4|2,0:0|0:0,0:0:0:0:
396,192,83100,6,0,L|488:192,2,90,4|0|2,0:0|0:0|0:0,0:0:0:0:
336,192,83989,2,0,L|336:124,1,60,2|2,0:0|0:0,0:0:0:0:
276,136,84433,2,0,L|276:208,1,60,2|2,0:0|0:0,0:0:0:0:
216,196,84877,5,4,0:0:0:0:
36,192,85544,1,4,0:0:0:0:
216,196,86211,1,4,0:0:0:0:
36,192,86877,2,0,L|36:112,1,60,0|0,0:0|0:0,0:0:0:0:
84,132,87211,2,0,L|84:208,1,60
264,196,87989,1,4,0:0:0:0:
256,192,88433,12,0,93766,0:0:0:0:
