osu file format v9

[General]
AudioFilename: Inuyasha Ending 5.mp3
AudioLeadIn: 1500
PreviewTime: 38997
Countdown: 0
SampleSet: Soft
StackLeniency: 0.7
Mode: 0
LetterboxInBreaks: 0

[Editor]
DistanceSpacing: 0.6
BeatDivisor: 4
GridSize: 4

[Metadata]
Title:Cancion de Verdad (TV Size)
Artist:Gabriela Vega
Creator:lovhin456
Version:Hard
Source:InuYasha
Tags:Shinjitsu no Uta Kuroneko-sHerald

[Difficulty]
HPDrainRate:6
CircleSize:4
OverallDifficulty:6
ApproachRate:7
SliderMultiplier:1.5
SliderTickRate:1

[Events]
//Background and Video events
Video,-421,"Inuyasha - ED 05 NC.avi"
0,0,"BG1.jpg"
//Break Periods
//Storyboard Layer 0 (Background)
//Storyboard Layer 1 (Fail)
//Storyboard Layer 2 (Pass)
//Storyboard Layer 3 (Foreground)
//Storyboard Sound Samples
//Background Colour Transformations
3,100,0,0,0

[TimingPoints]
635,387.096774193548,3,2,1,100,1,0
37796,-100,3,1,1,70,0,0
38957,-100,3,2,1,100,0,1
55989,-100,3,2,1,100,0,0
57538,-100,3,2,1,100,0,1
74570,-100,3,1,0,100,0,1
74957,-100,3,2,1,100,0,1
75344,-100,3,1,0,100,0,1
76118,-200,3,2,1,100,0,0
80376,-100,3,2,1,100,0,0
81538,-100,3,2,1,60,0,0
83086,-100,3,2,1,40,0,0
84828,-100,3,2,1,30,0,0
86620,387.096774193548,3,2,1,100,1,0
87781,-100,3,2,0,100,0,0
88942,-100,3,2,1,100,0,0
90103,-100,3,2,0,100,0,0
91265,-100,3,2,1,100,0,0
92426,-100,3,2,0,100,0,0
93587,-100,3,2,1,100,0,0
94749,-100,3,2,0,20,0,0

[Colours]
Combo1 : 145,151,179
Combo2 : 212,116,117
Combo3 : 252,197,160
Combo4 : 150,120,177
Combo5 : 231,143,118
SliderBorder : 255,255,255

[HitObjects]
456,312,635,2,0,B|368:332|336:244,1,150
276,184,1409,1,2
216,120,1796,2,0,B|140:84|76:144,1,150,8|0
152,196,2570,2,0,B|152:280|236:308,1,150,0|8
320,284,3344,5,0
388,224,3731,1,2
392,136,4118,1,8
324,76,4505,2,0,B|324:12|228:12|228:80,1,150
276,152,5280,5,8
200,204,5667,1,0
128,152,6054,1,2
128,64,6441,2,0,B|44:64|-4:176|52:268|128:268,1,300,8|0
188,332,7602,1,8
260,280,7989,5,0
348,280,8376,1,2
304,200,8764,1,8
392,200,9151,2,0,B|468:200,1,75
468,200,9538,1,0
440,116,9925,5,8
256,56,10312,1,0
72,124,10699,1,2
44,208,11086,1,8
132,196,11473,2,0,B|208:240|180:324,1,150
264,356,12247,1,8
352,332,12634,5,0
432,288,13022,1,2
476,208,13409,1,8
476,120,13796,2,0,B|400:120,1,75
400,120,14183,1,0
336,56,14570,6,0,B|272:112|200:56,1,150,8|0
124,104,15344,1,2
64,172,15731,1,8
64,172,16118,2,0,B|36:264|120:292,1,150
188,348,16893,1,8
260,296,17280,5,0
336,248,17667,1,2
412,292,18054,1,8
336,248,18441,2,0,B|336:172,1,75
336,172,18828,1,0
268,116,19215,1,8
184,148,19602,2,0,B|120:92|48:152,1,150
48,152,20183,5,8
48,196,20376,2,0,B|184:196|184:316|316:316,1,300,8|0
404,316,21538,1,8
436,284,21731,1,0
436,284,21925,2,0,B|316:284|316:144|180:144,1,300,0|8
128,72,23086,1,0
76,148,23473,1,2
128,220,23860,1,8
184,148,24247,2,0,B|260:148,1,75
260,148,24634,1,0
232,236,25022,6,0,B|232:328|324:328,1,150,8|0
324,240,25796,1,0
324,328,26183,1,8
324,240,26570,2,0,B|412:240|460:144|412:48|324:48,1,300,0|8
236,36,27731,6,0,B|160:36,1,75
160,36,28118,1,0
168,124,28505,2,0,B|100:156|20:124,1,150,8|0
60,208,29280,1,2
60,208,29667,6,0,B|8:284|68:348,1,150,8|0
208,332,30441,2,0,B|144:376|64:344,1,150,0|8
64,344,31215,1,0
396,212,31989,5,8
356,132,32376,2,0,B|356:16|152:16|152:132,1,300,0|8
340,324,34312,6,0,B|416:324,1,75,8|0
416,324,34699,1,0
188,76,35280,1,0
188,76,35473,2,0,B|120:128|48:80,1,150,8|0
288,76,36441,5,0
288,76,36634,2,0,B|376:76|424:176|372:268|288:268,1,300,8|0
244,188,37796,2,0,B|244:152,2,37.5
192,188,38183,2,0,B|152:188,5,37.5
212,308,38957,5,4
212,308,39344,2,0,B|284:356|356:300,1,150,2|0
424,248,40118,2,0,B|476:184|424:108,2,150,8|2|0
360,184,41280,5,8
348,96,41667,1,2
276,40,42054,1,0
188,40,42441,2,0,B|124:40|44:144|124:248|196:248,1,300,8|0
192,336,43602,5,4
272,292,43989,1,2
272,204,44376,1,0
272,112,44764,2,0,B|328:112|328:192|392:192,1,150,8|2
480,192,45538,1,0
392,192,45925,6,0,B|364:272|272:272,2,150,4|2|0
392,102,47086,1,8
356,74,47280,1,8
320,102,47473,1,0
284,74,47667,1,0
248,102,47860,1,8
248,192,48247,5,4
184,256,48634,1,2
96,264,49022,1,0
84,176,49409,2,0,B|64:92|148:56,1,150,8|2
208,56,50054,1,8
208,56,50183,1,0
296,56,50570,6,0,B|372:40|464:108|424:224|332:236,1,300,8|0
312,148,51731,2,0,B|224:128|188:204,1,150,8|2
204,264,52376,1,8
204,264,52505,1,0
160,344,52893,2,0,B|40:344|-32:196|32:36|160:36,1,450,8|8
240,64,54441,5,2
240,124,54699,1,8
240,124,54828,1,8
328,124,55215,1,8
360,92,55409,1,8
392,124,55602,1,2
384,168,55796,1,0
340,168,55989,1,8
388,244,56376,6,0,B|464:244,2,75,8|8|2
388,288,56957,1,0
388,332,57151,1,8
300,332,57538,5,4
212,332,57925,2,0,B|132:332|76:228|128:140|224:140,1,300,2|8
220,140,59086,1,2
220,140,59344,2,0,B|220:88,1,50,8|0
40,92,59860,5,4
128,92,60247,1,2
84,172,60634,1,0
16,232,61022,2,0,B|84:284|152:228,1,150,8|2
212,228,61667,1,8
212,228,61796,1,0
184,312,62183,5,8
272,320,62570,1,2
360,320,62957,1,0
360,320,63344,2,0,B|360:236|420:188|420:188|356:140|356:56,1,300,8|0
272,88,64505,5,8
212,88,64764,1,8
212,88,64893,1,2
124,88,65280,1,0
168,168,65667,1,8
168,168,65860,1,8
168,168,66054,1,2
168,256,66441,1,8
96,308,66828,5,4
168,360,67215,1,2
240,308,67602,1,0
324,276,67989,2,0,B|396:232|368:140,1,150
344,92,68634,1,0
344,92,68764,1,8
264,52,69151,5,4
176,44,69538,1,2
88,72,69925,1,0
40,148,70312,1,8
36,236,70699,1,2
80,316,71086,1,0
152,260,71473,2,0,B|152:356|240:408|328:356|328:260,1,300,8|0
416,256,72635,5,8
468,184,73022,1,2
436,100,73409,1,8
348,88,73796,2,0,B|308:12|220:36,1,150,8|8
132,48,74570,5,0
248,188,74957,1,8
68,212,75344,1,4
188,348,75731,1,4
188,348,76118,6,0,B|248:300|316:380|316:380|376:300|448:340,1,300,2|0
452,296,78054,1,0
456,252,78441,2,0,B|496:196|464:136|388:108|336:164,1,225,2|2
308,128,79989,1,0
308,128,80376,1,0
256,192,80764,12,2,85022
256,44,86620,5,8
168,44,87007,1,2
168,44,87200,1,0
168,132,87587,1,0
168,132,87781,1,8
92,180,88168,1,2
92,180,88361,1,0
128,264,88749,5,0
160,296,88942,1,8
184,296,89039,1,0
208,296,89136,1,0
232,296,89232,1,0
256,296,89329,1,0
344,296,89716,1,0
376,328,89910,1,0
408,296,90103,5,8
456,220,90490,2,0,B|480:160|396:128|369:191,1,150,2|2
280,196,91265,1,8
212,140,91652,1,2
212,96,91845,1,0
132,52,92232,1,0
132,52,92426,5,8
44,52,92813,1,2
44,97,93007,1,0
44,188,93394,1,0
88,188,93587,2,0,B|88:316|252:364|396:320|396:188,1,450,8|0
