osu file format v9

[General]
AudioFilename: Inuyasha Ending 5.mp3
AudioLeadIn: 1500
PreviewTime: 38997
Countdown: 0
SampleSet: Soft
StackLeniency: 0.7
Mode: 0
LetterboxInBreaks: 0

[Editor]
Bookmarks: 51739,65288,91868
DistanceSpacing: 0.8
BeatDivisor: 6
GridSize: 8

[Metadata]
Title:Cancion de Verdad (TV Size)
Artist:Gabriela Vega
Creator:lovhin456
Version:Cancion de Kuro
Source:InuYasha
Tags:Shinjitsu no Uta Kuroneko-sHerald

[Difficulty]
HPDrainRate:7
CircleSize:5
OverallDifficulty:6
ApproachRate:8
SliderMultiplier:1.5
SliderTickRate:1

[Events]
//Background and Video events
Video,-421,"Inuyasha - ED 05 NC.avi"
0,0,"BG1.jpg"
//Break Periods
//Storyboard Layer 0 (Background)
//Storyboard Layer 1 (Fail)
//Storyboard Layer 2 (Pass)
//Storyboard Layer 3 (Foreground)
//Storyboard Sound Samples
//Background Colour Transformations
3,100,0,0,0

[TimingPoints]
635,387.096774193548,3,2,2,80,1,0
2893,-100,3,2,0,60,0,0
3022,-100,3,2,2,80,0,0
5215,-100,3,2,0,60,0,0
5344,-100,3,2,2,80,0,0
7538,-100,3,2,0,60,0,0
7667,-100,3,2,2,80,0,0
9860,-100,3,2,0,60,0,0
9989,-100,3,2,2,80,0,0
12183,-100,3,2,0,60,0,0
12312,-100,3,2,2,80,0,0
14505,-100,3,2,0,60,0,0
14634,-100,3,2,2,80,0,0
16828,-100,3,2,0,60,0,0
16957,-100,3,2,2,80,0,0
19151,-100,3,2,0,60,0,0
19280,-100,3,2,2,80,0,0
22634,-100,3,2,0,60,0,0
22764,-100,3,2,2,80,0,0
24957,-100,3,2,0,60,0,0
25086,-100,3,2,2,80,0,0
27280,-100,3,2,0,60,0,0
27409,-100,3,2,2,80,0,0
29602,-100,3,2,0,60,0,0
29731,-100,3,2,2,80,0,0
31925,-100,3,2,0,60,0,0
32054,-100,3,2,2,80,0,0
37796,-100,3,1,1,80,0,0
38957,-100,3,2,2,100,0,1
40054,-100,3,2,0,75,0,1
40183,-100,3,2,2,100,0,1
42376,-100,3,2,0,75,0,1
42505,-100,3,2,2,100,0,1
44699,-100,3,2,0,70,0,1
44828,-100,3,2,2,100,0,1
49344,-100,3,2,0,75,0,1
49473,-100,3,2,2,100,0,1
51667,-100,3,2,0,75,0,1
51796,-100,3,2,2,100,0,1
55989,-100,3,1,0,100,0,0
57538,-100,3,2,2,100,0,1
58634,-100,3,2,0,75,0,1
58764,-100,3,2,2,100,0,1
60957,-100,3,2,0,75,0,1
61086,-100,3,2,2,100,0,1
63280,-100,3,2,0,75,0,1
63409,-100,3,2,2,100,0,1
63667,-100,3,2,0,75,0,1
63796,-100,3,2,2,100,0,1
64828,-100,3,2,0,75,0,1
64957,-100,3,2,2,100,0,1
67925,-100,3,2,0,75,0,1
68054,-100,3,2,2,100,0,1
74570,-100,3,1,0,100,0,1
76118,-100,3,2,2,100,0,0
80376,-200,3,2,2,100,0,0
81538,-100,3,2,2,60,0,0
83086,-100,3,2,2,40,0,0
84828,-100,3,2,2,30,0,0
86620,387.096774193548,3,2,2,60,1,0
87652,-100,3,2,0,60,0,0
87781,-100,3,2,2,60,0,0
90039,-100,3,2,0,60,0,0
90168,-100,3,2,2,60,0,0
92361,-100,3,2,0,60,0,0
92490,-100,3,2,2,60,0,0
93781,-100,3,2,0,50,0,0
94233,-100,3,2,0,30,0,0
94749,-100,3,2,0,10,0,0

[Colours]
Combo1 : 145,151,179
Combo2 : 212,116,117
Combo3 : 252,197,160
Combo4 : 150,120,177
Combo5 : 231,143,118
SliderBorder : 255,255,255

[HitObjects]
128,88,635,1,2
208,128,1022,1,0
136,176,1409,1,0
216,216,1796,2,0,B|184:256|128:272|80:232,2,150,8|0|0
304,256,2957,1,8
384,296,3344,5,0
376,208,3731,1,8
296,168,4118,2,0,B|328:128|384:112|432:152,2,150,8|0|0
376,208,5280,5,8
336,288,5667,1,0
256,336,6054,1,0
176,288,6441,1,8
136,208,6828,1,2
200,40,7602,1,8
224,128,7989,5,0
296,72,8376,1,2
320,160,8764,1,8
256,328,9538,1,0
168,304,9925,6,0,B|128:256|144:200|216:208,1,150,8|8
297,207,10699,2,0,B|368:200|384:256|344:304,1,150,0|0
256,272,11473,1,2
256,272,12247,1,8
296,192,12634,6,0,B|392:208|424:136,2,150,0|8|8
304,104,13796,1,2
256,32,14183,1,2
208,104,14570,5,8
216,192,14957,2,0,B|120:208|88:136,2,150,8|0|0
256,272,16118,2,0,B|352:288|384:216,1,150,0|0
304,176,16893,1,8
208,176,17280,5,0
256,272,17667,2,0,B|160:288|128:216,1,150,0|8
256,32,18634,5,0
256,32,18828,1,2
408,144,19215,1,8
104,144,19796,1,0
104,144,19989,1,2
104,144,20183,6,0,B|80:184|104:216,1,75,0|8
80,320,20764,2,0,B|152:384|216:320,1,150,8|0
256,232,21538,1,0
256,288,21731,1,2
298,322,21925,2,0,B|360:384|432:320,1,150
352,272,22699,1,8
304,200,23086,5,2
208,200,23473,1,2
160,272,23860,1,8
368,88,24828,5,0
368,88,25022,1,8
256,40,25409,1,0
144,88,25796,1,2
88,192,26183,2,0,B|104:240|176:256|208:208,1,150,8|0
192,328,26957,1,2
320,328,27344,1,8
303,207,27731,6,0,B|336:256|408:240|424:192,2,150,0|0|8
320,88,28893,1,2
192,88,29280,1,2
256,192,29667,5,8
256,312,30054,1,0
192,208,30441,1,8
320,208,30828,1,8
256,112,31215,5,2
256,112,31602,1,2
96,88,31989,6,0,B|176:152|120:216,1,150,8|0
184,320,32764,2,0,B|256:280|328:320,1,150,8|8
416,88,33538,2,0,B|336:152|392:216,1,150,2|2
256,192,34312,12,0,35086
256,192,35473,12,0,36247
256,192,36634,12,4,38570
216,48,38957,5,4
256,160,39344,2,0,B|224:216|168:216|136:160,1,150,0|8
256,160,40118,2,0,B|288:216|344:216|376:160,1,150,8|0
424,104,40764,1,8
424,104,40893,1,8
296,48,41280,5,0
256,160,41667,1,0
200,264,42054,1,8
200,264,42441,2,0,B|216:320|296:320|312:264,1,150,8|0
376,224,43086,1,8
376,224,43215,1,8
312,120,43602,6,0,B|296:64|216:64|200:120,1,150,4|0
184,240,44376,1,8
256,336,44764,1,8
256,336,45151,1,0
328,240,45538,1,8
392,136,45925,2,0,B|400:80|320:56|288:120,1,150,4|0
256,64,46505,1,0
222,116,46699,2,0,B|192:56|112:80|120:136,1,150,8|4
168,176,47280,1,0
288,176,47667,1,8
344,176,47860,1,8
456,80,48247,5,4
408,256,48634,1,2
256,352,49022,1,2
104,256,49409,1,8
56,80,49796,1,2
176,56,50054,1,8
176,56,50183,1,8
336,56,50570,5,4
328,208,50957,2,0,B|280:240|328:272|368:304|328:336,1,150,0|8
184,336,51731,2,0,B|144:304|184:272|232:240|184:208,1,150,8|0
256,144,52376,1,8
256,144,52505,1,8
256,192,52893,12,8,55602
256,96,55989,5,4
256,144,56376,1,0
256,192,56764,1,4
256,240,57151,1,0
256,352,57538,5,4
176,200,57925,2,0,B|216:112|152:64,1,150,0|8
358,64,58699,2,0,B|296:112|336:200,1,150,8|0
256,232,59344,1,8
256,272,59473,1,8
344,184,59860,6,0,B|344:136|376:120,1,75
360,56,60247,2,0,B|320:72|288:48,1,75
223,48,60634,2,0,B|192:72|152:56,1,75
136,120,61022,2,0,B|168:136|168:184,1,75,8|0
218,217,61409,2,0,B|298:217,1,75,0|0
293,217,61796,1,8
432,232,62183,6,0,B|368:304|304:304,1,150,4|0
256,336,62764,1,0
206,303,62957,2,0,B|144:304|80:232,1,150,8|8
48,184,63538,1,0
32,128,63731,2,0,B|120:96|152:184,1,150,8|8
200,144,64312,1,0
184,88,64505,2,0,B|256:48|328:88,1,150,4|8
312,144,65086,1,0
360,182,65280,2,0,B|392:96|480:128,1,150,8|0
464,184,66054,1,4
256,312,66828,6,0,B|336:352,2,75,4|0|0
256,192,67602,2,0,B|176:232,2,75,8|0|8
256,72,68376,1,0
32,152,69151,5,8
112,280,69538,1,2
256,328,69925,1,8
256,328,70312,1,2
400,280,70699,1,8
480,152,71086,1,10
256,192,71473,12,8,74183
256,288,74570,5,0
256,240,74957,1,0
256,192,75344,1,4
256,144,75731,1,4
288,72,76118,5,2
264,48,76505,1,2
176,144,76893,1,0
200,168,77280,1,2
224,192,77667,1,2
184,312,78441,5,0
208,328,78828,1,2
240,336,79215,1,2
272,336,79602,1,2
304,328,79989,1,2
328,312,80376,1,2
256,192,80764,12,2,85022
256,80,86620,5,4
200,168,86942,2,0,B|144:240,1,75,0|2
256,296,87523,2,0,B|256:200,1,75,0|8
358,227,88103,2,0,B|312:168,1,75,0|8
256,64,88749,1,0
256,128,88942,5,2
256,160,89039,1,2
256,192,89136,1,2
256,224,89232,1,2
48,192,89910,5,0
48,192,90103,2,0,B|56:280|128:320,3,150,8|8|8|4
256,224,91652,5,2
256,224,91845,1,2
464,192,92232,1,8
464,192,92426,2,0,B|456:280|384:320,1,150,8|0
390,316,93007,1,8
256,224,93394,1,2
256,192,93587,12,0,94749
