osu file format v5

[General]
AudioFilename: Time To Rock.mp3
AudioLeadIn: 0
PreviewTime: -1
Countdown: 1
SampleSet: Soft
StackLeniency: 0.7
Mode: 0
LetterboxInBreaks: 1
EditorBookmarks: 82584,97504,98382

[Metadata]
Title:Time To Rock
Artist:Gabri Ponte
Creator:beatmastermap
Version:Hard
Source:
Tags:

[Difficulty]
HPDrainRate:9
CircleSize:4
OverallDifficulty:7
SliderMultiplier:2
SliderTickRate:1

[Events]
//Background and Video events
0,0,"wallpaper-dj.jpg"
//Break Periods
2,40655,41311
2,82783,96604
//Storyboard Layer 0 (Background)
//Storyboard Layer 1 (Failing)
//Storyboard Layer 2 (Passing)
//Storyboard Layer 3 (Foreground)
//Storyboard Sound Samples
//Background Colour Transformations
3,100,163,162,255

[TimingPoints]
42211,438.839179979526,4,2,0,100,1

[Colours]
Combo1 : 192,192,192
Combo2 : 255,255,128
Combo3 : 255,128,128
Combo4 : 128,255,255

[HitObjects]
136,72,14125,1,0
376,72,14783,1,0
376,312,15441,1,0
216,312,15880,1,0
64,120,16538,5,0
64,280,16977,2,0,B|144:216,2,100
128,328,17636,1,0
368,328,18294,5,0
368,88,18952,1,0
208,88,19391,1,0
104,304,20049,6,0,B|216:304,2,100
104,224,20707,1,0
104,144,20927,1,0
104,64,21146,1,0
344,64,21804,5,0
432,288,22463,1,0
272,288,22902,1,0
112,288,23340,1,0
112,128,23779,6,0,B|216:128,2,100
112,48,24438,1,0
192,48,24657,1,0
272,48,24876,2,0,B|272:152,1,100
272,224,25315,6,0,B|272:272|272:272|336:272,1,100
400,272,25754,1,0
400,192,25973,1,0
400,112,26193,1,0
400,32,26412,6,0,B|288:32|288:32|288:128,1,200
288,200,27071,1,0
288,280,27290,1,0
208,288,27509,2,0,B|96:288,1,100
104,208,27948,2,0,B|104:104,1,100
184,112,28387,5,0
184,192,28606,1,0
184,272,28826,1,0
232,328,29045,1,0
312,336,29265,2,0,B|312:232,2,100
392,336,29923,5,0
440,272,30142,1,0
448,192,30362,1,0
448,112,30581,1,0
368,112,30801,2,0,B|288:112,1,75
272,112,31020,2,0,B|152:112,1,100
88,112,31459,5,0
88,192,31678,1,0
88,272,31898,1,0
88,192,32117,1,0
88,112,32337,1,0
168,112,32556,2,0,B|168:288|168:288|216:288,1,200
272,288,33214,5,0
352,288,33434,1,0
408,136,33873,6,0,B|344:136,2,50
408,56,34311,1,0
328,56,34531,1,0
328,136,34750,2,0,B|224:136,1,100
224,56,35189,6,0,B|160:56,2,50
144,56,35628,5,0
64,56,35847,1,0
64,136,36067,6,0,B|64:256,1,100
144,232,36506,6,0,B|144:296,1,50
184,280,36725,2,0,B|240:280,1,50
272,288,36944,2,0,B|272:80,1,200
352,88,37603,5,0
432,88,37822,1,0
432,168,38042,2,0,B|432:232,2,50
432,248,38480,5,0
432,328,38700,1,0
352,328,38919,1,0
272,328,39139,2,0,B|272:224,1,100
272,144,39577,5,0
192,144,39797,1,0
112,144,40016,1,0
112,224,40236,2,0,B|168:224,2,50
72,72,42211,5,0
72,112,42320,1,0
72,152,42430,1,0
72,232,42649,6,0,B|72:344,1,100
152,328,43088,6,0,B|256:328,1,100
328,328,43527,6,0,B|328:272,2,50
368,328,43856,5,0
408,328,43966,6,0,B|408:224,1,100
408,184,44295,5,0
408,144,44405,6,0,B|296:144,2,100
408,104,44953,1,0
392,64,45063,1,0
312,56,45282,6,0,B|248:56,2,50
312,136,45721,5,0
232,136,45941,1,0
152,136,46160,2,0,B|152:208,2,50
152,96,46489,5,0
112,96,46599,1,0
48,144,46818,1,0
48,224,47038,6,0,B|48:336,1,100
128,320,47477,2,0,B|336:320,1,200
392,272,48135,6,0,B|456:272,2,50
392,232,48464,6,0,B|392:72,1,150
312,80,49013,6,0,B|248:80,2,50
312,120,49342,6,0,B|312:280,1,150
232,272,49890,5,0
192,272,50000,1,0
152,272,50110,1,0
152,192,50329,5,0
152,112,50548,1,0
72,104,50768,2,0,B|72:224,1,100
72,280,51207,2,0,B|72:336,2,50
136,328,51646,5,0
176,328,51755,1,0
216,328,51865,1,0
296,328,52084,5,0
376,328,52304,1,0
456,328,52523,5,0
456,288,52633,1,0
456,248,52743,1,0
456,288,52852,1,0
456,328,52962,1,0
456,288,53072,1,0
456,248,53181,1,0
456,168,53401,6,0,B|456:64,1,100
376,72,53840,5,0
296,72,54059,6,0,B|80:72,1,200
80,192,54827,5,0
80,312,55156,6,0,B|144:312,2,50
80,272,55485,5,0
120,272,55595,1,0
160,272,55705,1,0
240,272,55924,6,0,B|296:272,3,50
368,272,56473,6,0,B|368:160,1,100
288,176,56912,5,0
208,176,57131,1,0
128,176,57350,1,0
128,96,57570,6,0,B|200:96,2,50
48,96,58009,5,0
48,176,58228,2,0,B|48:280,1,100
48,336,58667,1,0
88,336,58777,5,0
128,336,58886,1,0
208,336,59106,1,0
288,336,59325,1,0
448,336,59764,1,0
448,176,60203,1,0
448,96,60422,6,0,B|392:96,2,50
384,144,60861,5,0
304,144,61081,1,0
224,144,61300,2,0,B|120:144,1,100
104,304,61958,5,0
144,304,62068,1,0
184,304,62178,1,0
264,304,62397,6,0,B|320:304,2,50
264,224,62836,6,0,B|376:224,1,100
416,280,63275,6,0,B|416:104,1,150
416,88,63714,5,0
336,88,63933,6,0,B|216:88,1,100
240,128,64262,6,0,B|240:184,2,50
200,128,64591,5,0
120,128,64811,5,0
40,120,65030,6,0,B|40:336,1,200
120,320,65688,6,0,B|184:320,2,50
200,320,66127,5,0
280,320,66347,6,0,B|280:272,1,25
280,256,66511,6,0,B|344:256,1,50
336,240,66676,6,0,B|368:200,1,50
448,200,67005,5,0
448,280,67224,1,0
448,280,67444,1,0
448,200,67663,1,0
448,120,67883,1,0
368,120,68102,1,0
288,120,68321,1,0
208,128,68541,6,0,B|112:128,1,75
112,128,68760,2,0,B|112:280|112:280|160:280,1,175
152,280,69199,6,0,B|208:280,2,50
152,320,69528,1,0
184,336,69638,1,0
264,336,69857,2,0,B|376:336,1,100
440,336,70296,1,0
440,256,70516,1,0
360,256,70735,6,0,B|360:184,2,50
280,256,71174,1,0
200,256,71393,1,0
120,256,71613,1,0
40,256,71832,2,0,B|40:152,1,100
120,152,72271,2,0,B|120:96,2,50
200,152,72710,5,0
280,152,72929,1,0
360,152,73149,1,0
440,152,73368,1,0
440,232,73588,2,0,B|376:232,2,50
440,312,74026,2,0,B|328:312,1,100
296,312,74355,5,0
256,312,74465,1,0
256,312,74575,1,0
216,312,74685,2,0,B|104:312|104:312|104:216,1,200
104,184,75233,5,0
104,144,75343,2,0,B|208:144,1,100
280,144,75782,1,0
280,224,76001,6,0,B|344:224,2,50
280,264,76330,1,0
280,304,76440,1,0
320,304,76550,1,0
400,304,76769,2,0,B|400:248,2,50
440,304,77098,2,0,B|440:184,1,100
144,80,78195,6,0,B|144:136,2,50
64,80,78634,1,0
56,240,79073,2,0,B|280:240,1,200
440,88,80170,6,0,B|368:88,2,50
440,168,80609,1,0
440,248,80828,2,0,B|424:232|424:232|408:248|408:248|392:232|392:232|376:248|376:248|360:232|360:232|344:248|344:248|328:232|328:232|312:248|312:248|296:232|296:232|280:248|280:248|264:232|264:232|248:248|248:248|232:232|232:232|216:248|216:248|200:232|200:232|184:248|184:248|168:232|168:232|152:248|152:248|136:232|136:232|120:248|120:248|104:232|104:232|120:216|120:216|104:200|104:200|120:184|120:184|104:168|104:168|120:152|120:152|104:136|104:136|120:120|120:120|136:136|136:136|152:120|152:120|168:136|168:136|184:120|184:120|200:136|200:136|216:120|216:120|232:136|232:136|248:120|240:120,1,800
96,64,97504,6,0,B|96:280|344:336,1,400
416,232,98821,5,0
408,72,99260,1,0
248,72,99698,1,0
88,72,100137,1,0
88,232,100576,1,0
232,168,101015,1,0
376,96,101454,1,0
280,224,101893,1,0
400,320,102331,1,0
424,160,102770,5,0
288,64,103209,1,0
264,224,103648,1,0
136,128,104087,1,0
120,288,104526,1,0
272,328,104965,1,0
416,264,105403,1,0
264,200,105842,1,0
144,88,106281,1,0
104,240,106720,1,0
240,328,107159,5,0
80,328,107598,1,0
80,184,107982,1,0
256,184,108475,1,0
416,184,108914,1,0
312,56,109353,1,0
152,64,109792,1,0
56,192,110231,1,0
80,352,110669,6,0,B|392:352|392:352|392:48,1,600
232,80,112425,6,0,B|160:80,2,50
232,160,112864,1,0
152,160,113083,1,0
72,160,113302,6,0,B|72:96,2,50
72,200,113632,1,0
72,240,113741,1,0
72,320,113961,1,0
152,320,114180,1,0
232,320,114400,2,0,B|352:320,1,100
408,320,114838,2,0,B|408:208,1,100
408,136,115277,5,0
408,56,115497,1,0
336,96,115716,1,0
256,96,115935,2,0,B|136:96,1,100
72,96,116374,6,0,B|72:160,2,50
72,176,116813,1,0
72,216,116923,1,0
72,256,117033,1,0
72,336,117252,2,0,B|288:336,1,200
352,336,117910,6,0,B|352:272,2,50
432,336,118349,1,0
432,256,118569,1,0
432,176,118788,2,0,B|432:72,1,100
352,80,119227,5,0
312,80,119336,1,0
272,80,119446,2,0,B|64:80,1,200
72,160,120104,5,0
72,240,120324,1,0
72,320,120543,2,0,B|136:320,2,50
152,320,120982,5,0
232,320,121202,2,0,B|344:320|344:320|344:208,1,200
416,272,121860,5,0
416,192,122079,1,0
416,112,122299,1,0
416,192,122518,1,0
416,272,122737,1,0
336,264,122957,6,0,B|336:208,2,50
256,264,123396,1,0
176,264,123615,2,0,B|176:160,1,100
176,80,124054,5,0
96,80,124273,1,0
96,160,124493,2,0,B|96:264,1,100
328,320,125371,5,0
360,296,125480,1,0
392,272,125590,1,0
416,240,125700,1,0
424,200,125809,1,0
432,160,125919,1,0
432,120,126029,1,0
432,80,126138,2,0,B|280:80,1,150
200,80,126687,6,0,B|200:144,2,50
120,80,127126,5,0
64,136,127345,1,0
64,216,127565,1,0
64,296,127784,6,0,B|128:296,2,50
144,296,128223,6,0,B|368:296,1,200
424,296,128881,1,0
424,256,128991,1,0
424,296,129101,1,0
424,256,129210,1,0
424,216,129320,2,0,B|424:104,1,100
368,56,129759,5,0
296,80,129978,2,0,B|280:72|280:72|280:88|280:88|264:80|264:80|264:96|264:96|248:88|248:88|248:104|248:104|232:96|232:96|232:112|232:112|216:104|216:104|216:120|216:120|200:112|200:112|200:128|200:128|208:128,1,200
120,128,130637,6,0,C|56:128,2,50
120,208,131075,6,0,C|48:208,2,50
120,288,131514,5,0
200,288,131734,6,0,L|248:288|248:288|248:152,1,200
288,136,132282,5,0
328,136,132392,1,0
408,136,132611,1,0
408,216,132831,1,0
352,272,133050,1,0
296,328,133270,5,0
216,328,133489,2,0,L|80:328|80:328|80:264,1,200
80,184,134147,6,0,L|144:184,2,50
80,144,134476,6,0,L|80:72,1,50
112,64,134696,5,0
160,96,134806,1,0
160,136,134915,6,0,L|160:208,1,50
128,216,135135,5,0
96,240,135244,6,0,L|96:336|96:336|96:32,1,400
136,32,136232,6,0,L|208:32,3,50
264,32,136780,5,0
264,112,137000,2,0,L|360:112|360:112|360:184|360:184|312:184,1,200
328,264,137658,5,0
280,328,137877,1,0
200,336,138097,1,0
120,336,138316,1,0
120,296,138426,2,0,L|120:232,2,50
80,296,138755,6,0,L|48:296|48:296|48:112,1,200
104,72,139413,5,0
184,72,139633,1,0
344,72,140072,5,0
376,224,140510,6,0,L|432:224,2,50
376,304,140949,2,0,L|168:304,1,200
176,264,141498,2,0,L|176:160,1,100
176,120,141827,1,0
96,120,142046,1,0
96,200,142266,6,0,L|320:200,1,200
