osu file format v13

[General]
AudioFilename: feat. V3 GUMI (Power)-Runaway Lolita Holic [myfreemp3.eu].mp3
AudioLeadIn: 0
PreviewTime: 210825
Countdown: 0
SampleSet: Soft
StackLeniency: 0.7
Mode: 0
LetterboxInBreaks: 1
WidescreenStoryboard: 0

[Editor]
Bookmarks: 54186,104080,114774,124316,137395,140695,165980,174885,176197
DistanceSpacing: 2
BeatDivisor: 8
GridSize: 16
TimelineZoom: 4.439998

[Metadata]
Title:Rampaging Lolitaholic
TitleUnicode:暴走ロリィタホリック
Artist:GUMI
ArtistUnicode:GUMI
Creator:Ayalize
Version:Lolita!
Source:Lolita Machiavellism
Tags:GUMI lolita holic lolitaholic rampaging Machiavellism Kairiki Bear ロリィタマキャヴェリズム
BeatmapID:461800
BeatmapSetID:194470

[Difficulty]
HPDrainRate:6.6
CircleSize:4.3
OverallDifficulty:8
ApproachRate:9
SliderMultiplier:1.7
SliderTickRate:1

[Events]
//Background and Video events
0,0,"bg.jpg",0,0
//Break Periods
2,28543,32480
2,85030,89677
//Storyboard Layer 0 (Background)
//Storyboard Layer 1 (Fail)
//Storyboard Layer 2 (Pass)
//Storyboard Layer 3 (Foreground)
//Storyboard Sound Samples
//Background Colour Transformations
3,100,255,0,128

[TimingPoints]
554,315.789473684211,4,2,0,100,1,0
5251,-100,4,3,6,100,0,0
5330,-100,4,1,1,100,0,0
9937,-100,4,3,6,100,0,0
10454,-100,4,1,1,100,0,0
11567,-100,4,3,6,100,0,0
11647,-100,4,1,1,100,0,0
12800,-100,4,3,6,100,0,0
12919,-100,4,1,1,100,0,0
14072,-100,4,3,6,100,0,0
14191,-100,4,1,1,100,0,0
15662,-100,4,3,6,100,0,0
20711,-100,4,1,1,100,0,0
21642,-100,4,2,0,100,0,0
21944,-100,4,3,6,100,0,0
23216,-100,4,3,6,100,0,0
23335,-100,4,1,1,100,0,0
25681,-100,4,3,6,100,0,0
26993,-100,4,3,6,100,0,0
32996,-100,4,3,6,11,0,0
33115,-100,4,1,1,100,0,0
48103,-100,4,3,6,100,0,0
48580,-100,4,1,1,100,0,0
49693,-100,4,3,6,100,0,0
50369,-100,4,1,1,100,0,0
51005,-100,4,3,6,100,0,0
53510,-100,4,3,1,100,0,0
54186,-100,4,3,6,100,0,1
54742,-100,4,1,1,100,0,1
56850,-100,4,3,6,100,0,1
57009,-100,4,3,5,100,0,1
57168,-100,4,3,6,100,0,1
57287,-100,4,1,1,100,0,1
59831,-100,4,1,1,100,0,0
59911,-100,4,3,6,100,0,1
60308,-100,4,1,1,100,0,1
64880,-100,4,1,1,100,0,0
64960,-100,4,3,6,100,0,1
65198,-100,4,1,1,100,0,1
69810,-100,4,1,1,100,0,0
69929,-100,4,1,1,100,0,1
69969,-100,4,3,6,100,0,1
70247,-100,4,1,1,100,0,1
76608,-100,4,3,6,56,0,1
79794,-100,4,1,1,100,0,0
84520,-100,4,3,6,55,0,0
84878,-100,4,1,1,100,0,0
92391,-83.3333333333333,4,1,1,100,0,0
92391,-76.9230769230769,4,1,1,100,0,0
92630,-100,4,1,1,100,0,0
103722,-100,4,3,6,100,0,0
103722,-100,4,3,6,100,0,0
103841,-100,4,1,1,100,0,0
104080,-133.333333333333,4,2,1,100,0,0
107499,-100,4,1,1,100,0,0
108811,-100,4,3,6,45,0,0
109009,-100,4,1,1,100,0,0
111673,-100,4,3,6,100,0,0
114058,-100,4,3,6,100,0,0
114734,-100,4,3,6,100,0,0
114734,-100,4,3,6,100,0,0
114774,-100,4,1,1,100,0,1
115331,-100,4,1,1,100,0,1
120459,-100,4,1,1,100,0,0
120578,-100,4,1,1,100,0,1
124262,-100,4,3,6,100,0,1
124316,-100,4,3,6,100,0,1
124435,-100,4,2,1,100,0,1
124554,-100,4,3,6,100,0,1
124912,-100,4,2,1,100,0,1
125031,-100,4,3,6,100,0,1
125389,-100,4,2,1,100,0,1
125508,-100,4,2,1,100,0,0
125548,-100,4,3,6,100,0,0
125667,-100,4,1,1,100,0,1
130597,-100,4,3,6,100,0,0
130716,-100,4,3,6,100,0,1
131233,-100,4,1,1,100,0,1
137405,-100,4,1,1,100,0,0
160891,-133.333333333333,4,2,1,100,0,0
161845,-133.333333333333,4,2,2,100,0,0
165980,-133.333333333333,4,2,1,100,0,0
173613,-133.333333333333,4,1,1,100,0,0
175998,-100,4,1,1,100,0,0
179815,-100,4,3,6,100,0,0
182479,-100,4,1,1,100,0,0
188720,-100,4,1,1,100,0,1
190748,-100,4,3,6,100,0,1
190907,-100,4,3,5,100,0,1
190986,-100,4,3,6,100,0,1
191145,-100,4,1,1,100,0,1
191503,-83.3333333333333,4,1,1,100,0,1
191901,-66.6666666666667,4,1,1,100,0,1
192139,-100,4,1,1,100,0,1
192497,-66.6666666666667,4,1,1,100,0,1
193133,-100,4,1,1,100,0,1
193730,-100,4,1,1,100,0,0
193809,-100,4,3,6,100,0,1
194366,-100,4,1,1,100,0,1
195439,-133.333333333333,4,1,1,100,0,1
198818,-100,4,3,6,100,0,0
198898,-100,4,3,6,100,0,1
199403,-100,4,1,1,100,0,1
203907,-100,4,3,6,100,0,0
203987,-100,4,3,6,100,0,1
204475,-100,4,1,1,100,0,1
210785,-100,4,1,1,100,0,1
211302,-100,4,1,1,100,0,0
211381,-100,4,1,1,100,0,1
211501,307.692307692308,4,2,0,100,1,0
216311,-100,4,1,1,100,0,0
216390,-100,4,1,1,100,0,1
216424,298.692307692308,4,1,1,100,1,1
221161,-100,4,1,1,100,0,0
221224,291.26213592233,4,2,0,100,1,0
221241,-100,4,1,1,100,0,1
221424,300,4,2,0,100,1,0
224724,272.2,4,2,0,100,1,0
225783,-100,4,1,1,100,0,0
225884,283.018867924528,4,2,0,100,1,0
225892,-100,4,1,1,100,0,1
232763,315.789473684211,4,2,0,100,1,0
240026,351.789473684211,4,2,0,100,1,0

[Colours]
Combo1 : 255,0,0
Combo2 : 221,255,28
Combo3 : 0,0,255
Combo4 : 254,29,198
Combo5 : 0,255,0
Combo6 : 255,128,0
Combo7 : 0,255,185
Combo8 : 128,0,255

[HitObjects]
256,192,3080,12,0,4975,0:0:0:0:
256,188,5290,53,8,0:0:0:0:
104,112,5606,5,0,0:0:0:0:
172,156,5764,2,0,L|216:172,2,42.5,0|0|8,0:0|0:0|0:0,0:0:0:0:
100,216,6080,2,0,P|136:244|176:240,1,85
240,256,6396,1,0,0:0:0:0:
332,288,6554,2,0,P|380:280|408:248,1,85,8|0,0:0|0:0,0:0:0:0:
400,144,6869,86,0,L|296:144,1,85
236,192,7185,2,0,P|212:224|156:224,1,85,8|0,0:0|0:0,0:0:0:0:
144,168,7501,2,0,P|168:144|216:136,3,85,4|0|8|8,0:0|0:0|0:0|0:0,0:0:0:0:
300,136,8093,1,0,0:0:0:0:
300,136,8172,1,0,0:0:0:0:
300,136,8251,1,0,0:0:0:0:
384,224,8409,2,0,P|344:240|300:236,1,85,8|0,0:0|0:0,0:0:0:0:
300,136,8764,1,0,0:0:0:0:
192,152,8922,2,0,P|208:200|236:224,2,85,0|8|0,0:0|0:0|0:0,0:0:0:0:
96,172,9396,53,0,0:0:0:0:
96,172,9475,1,0,0:0:0:0:
96,172,9554,1,0,0:0:0:0:
136,248,9711,2,0,L|224:272,1,85,8|0,0:0|0:0,0:0:0:0:
284,288,10027,2,8,P|304:280|312:280,1,21.25,8|0,0:0|0:0,0:0:0:0:
80,56,10343,2,0,P|84:48|96:44,1,21.25,8|0,0:0|0:0,0:0:0:0:
156,88,10501,2,0,P|200:96|244:88,1,85
239,89,10975,37,0,0:0:0:0:
284,156,11132,2,0,P|332:176|368:168,1,85
384,136,11448,1,0,0:0:0:0:
400,128,11527,1,0,0:0:0:0:
420,116,11606,1,8,0:0:0:0:
300,108,11922,6,0,P|264:124|224:96,1,85
156,160,12238,2,0,P|160:200|120:232,1,85,8|0,0:0|0:0,0:0:0:0:
92,200,12554,2,0,P|72:248|92:280,1,85
136,264,12869,2,0,P|180:280|224:276,1,85,8|0,0:0|0:0,0:0:0:0:
224,216,13185,2,0,P|264:216|312:204,1,85
344,256,13501,2,8,P|392:232|404:188,1,85
420,156,13817,2,0,P|428:96|412:64,1,85
372,112,14132,2,8,P|340:136|292:128,1,85,8|0,0:0|0:0,0:0:0:0:
212,124,14448,101,0,0:0:0:0:
184,128,14527,1,0,0:0:0:0:
156,136,14606,1,0,0:0:0:0:
64,212,14764,2,0,P|72:252|104:280,1,85,8|8,0:0|0:0,0:0:0:0:
176,216,15080,1,4,0:0:0:0:
308,48,15396,1,8,0:0:0:0:
368,136,15554,1,4,0:0:0:0:
344,236,15711,22,0,P|312:276|280:280,1,85,8|0,0:0|0:0,0:0:0:0:
272,224,16027,102,8,P|228:244|196:280,1,85,8|0,0:0|0:0,0:0:0:0:
248,296,16343,54,0,P|204:320|164:308,1,85,8|8,0:0|0:0,0:0:0:0:
124,256,16659,85,8,0:0:0:0:
132,200,16817,70,0,B|124:176|124:176|136:176|136:176|128:164|128:164|140:164|140:164|128:152|132:152|132:152|144:156|144:156|136:148|136:148|144:144|144:144|140:144|128:140|128:140|144:136|144:136|136:128|136:128|136:120|136:120|144:128,1,170,0|8,0:0|0:0,0:0:0:0:
240,76,17290,37,0,0:0:0:0:
376,312,17448,37,8,0:0:0:0:
256,192,17527,12,0,18080,0:0:0:0:
100,128,18198,38,4,P|88:172|120:208,1,85,0|0,0:0|0:0,0:0:0:0:
180,232,18554,101,8,0:0:0:0:
180,232,18632,1,0,0:0:0:0:
180,232,18711,1,0,0:0:0:0:
272,232,18830,38,0,L|276:320,1,85
340,272,19146,86,0,L|340:180,1,85
276,184,19461,2,0,L|184:184,1,85
268,104,19777,1,0,0:0:0:0:
268,104,19856,1,0,0:0:0:0:
268,104,19975,1,0,0:0:0:0:
112,128,20132,6,8,L|136:116,1,21.25,8|0,0:0|0:0,0:0:0:0:
144,184,20290,2,8,L|168:172,1,21.25,8|0,0:0|0:0,0:0:0:0:
176,244,20448,2,8,L|200:232,1,21.25,8|0,0:0|0:0,0:0:0:0:
208,292,20606,2,8,L|228:280,1,21.25,8|0,0:0|0:0,0:0:0:0:
348,280,20764,5,4,0:0:0:0:
412,232,20922,1,4,0:0:0:0:
368,160,21080,2,0,P|324:140|280:148,1,85,8|0,0:0|0:0,0:0:0:0:
316,196,21396,2,4,P|268:200|224:196,1,85
256,144,21711,2,0,L|160:144,1,85,8|0,0:0|0:0,0:0:0:0:
84,264,22027,6,0,P|120:288|168:284,1,85,8|0,0:0|0:0,0:0:0:0:
116,84,22343,2,0,P|156:76|188:104,1,85,8|0,0:0|0:0,0:0:0:0:
188,200,22659,2,0,P|224:224|272:220,1,85,8|0,0:0|0:0,0:0:0:0:
280,108,22975,2,0,P|312:112|340:160,1,85,8|0,0:0|0:0,0:0:0:0:
344,216,23290,1,8,0:0:0:0:
120,272,23448,6,0,P|148:296|204:296,2,85,4|8|4,0:0|0:0|0:0,0:0:0:0:
96,204,23922,2,4,P|104:164|148:148,1,85
200,108,24198,1,8,0:0:0:0:
208,212,24356,1,4,0:0:0:0:
200,108,24514,1,4,0:0:0:0:
208,212,24672,2,0,P|264:236|300:232,2,85,4|8|8,0:0|0:0|0:0,0:0:0:0:
160,268,25146,2,0,P|196:296|240:296,1,85,4|4,0:0|0:0,0:0:0:0:
220,228,25501,2,0,P|280:236|292:268,1,85,8|4,0:0|0:0,0:0:0:0:
352,92,25817,5,8,0:0:0:0:
352,92,25975,1,8,0:0:0:0:
144,224,27080,86,0,P|104:212|88:172,1,85,8|0,0:0|0:0,0:0:0:0:
252,92,27396,2,0,P|280:100|296:160,1,85,8|0,0:0|0:0,0:0:0:0:
144,224,27711,2,0,P|124:212|120:148,1,85,8|0,0:0|0:0,0:0:0:0:
252,92,28027,2,0,P|288:116|300:156,1,85,8|0,0:0|0:0,0:0:0:0:
304,228,28343,1,8,0:0:0:0:
256,192,33080,5,8,0:0:0:0:
64,224,33396,2,0,P|96:272|132:280,1,85
208,224,33711,101,8,0:0:0:0:
288,272,33869,1,0,0:0:0:0:
384,276,34027,2,0,P|424:248|420:204,1,85
376,172,34343,2,0,P|340:180|336:224,1,85,8|0,0:0|0:0,0:0:0:0:
296,304,34659,6,0,L|204:304,1,85
184,240,34975,2,0,L|84:240,1,85
100,288,35290,2,8,L|100:188,1,85
112,128,35606,2,8,L|200:128,1,85
300,120,35882,1,0,0:0:0:0:
388,112,36040,1,0,0:0:0:0:
408,188,36198,2,0,P|400:232|360:260,1,85,8|0,0:0|0:0,0:0:0:0:
268,232,36514,1,0,0:0:0:0:
188,268,36711,1,0,0:0:0:0:
104,232,36869,2,0,P|96:188|108:144,1,85
172,80,37185,21,0,0:0:0:0:
172,80,37264,1,0,0:0:0:0:
172,80,37343,1,0,0:0:0:0:
264,144,37501,53,12,0:0:0:0:
356,88,37817,85,0,0:0:0:0:
356,88,37896,1,0,0:0:0:0:
356,88,37975,1,0,0:0:0:0:
428,156,38132,53,8,0:0:0:0:
96,228,38448,70,0,P|112:272|152:280,1,85
220,272,38764,1,8,0:0:0:0:
248,264,38843,1,0,0:0:0:0:
276,248,38922,1,0,0:0:0:0:
336,192,39080,2,0,P|356:144|352:104,1,85
292,144,39396,2,8,P|272:184|232:192,1,85
164,228,39711,2,0,P|156:272|204:292,1,85
264,296,40027,2,0,L|352:296,1,85
372,148,40343,2,8,L|372:236,1,85
284,228,40659,2,8,L|284:144,1,85
140,116,40935,69,0,0:0:0:0:
140,116,41093,1,0,0:0:0:0:
120,200,42238,101,0,0:0:0:0:
200,248,42396,2,0,P|252:260|288:252,2,85,0|8|0,0:0|0:0|0:0,0:0:0:0:
144,192,42869,2,0,P|136:140|152:112,1,85
236,104,43185,1,0,0:0:0:0:
300,160,43343,1,0,0:0:0:0:
304,256,43501,5,0,0:0:0:0:
212,304,43659,2,0,P|176:312|120:284,1,85,0|8,0:0|0:0,0:0:0:0:
140,240,43975,2,0,B|120:204|120:204|128:160,1,85
196,200,44290,2,0,B|148:188|148:188|116:144,1,85,0|8,0:0|0:0,0:0:0:0:
196,112,44606,2,0,B|164:144|164:144|116:160,1,85
72,100,44922,102,0,B|88:144|88:144|136:164,1,85,0|8,0:0|0:0,0:0:0:0:
200,196,45238,2,0,P|184:224|208:280,1,85,8|0,0:0|0:0,0:0:0:0:
256,248,45554,2,0,P|316:256|344:240,1,85,0|8,0:0|0:0,0:0:0:0:
296,304,45869,2,0,L|296:204,1,85
232,192,46146,2,0,B|192:184|192:184|152:144,1,85,0|8,0:0|0:0,0:0:0:0:
192,104,46461,2,0,B|216:132|216:132|268:140,1,85
288,88,46777,2,8,B|260:56|260:56|216:52,1,85
248,76,47093,5,8,0:0:0:0:
232,128,47251,1,0,0:0:0:0:
216,188,47409,1,8,0:0:0:0:
200,272,47567,2,8,B|236:296|236:296|276:284,2,85,0|0|0,0:0|0:0|0:0,0:0:0:0:
128,256,48238,5,8,0:0:0:0:
120,244,48317,1,8,0:0:0:0:
112,232,48396,1,8,0:0:0:0:
104,216,48475,1,8,0:0:0:0:
96,204,48554,1,8,0:0:0:0:
120,132,48711,6,0,P|168:136|216:120,1,85,0|8,0:0|0:0,0:0:0:0:
256,140,49027,2,0,P|248:176|280:212,1,85
344,240,49343,1,0,0:0:0:0:
424,224,49501,2,0,P|452:184|440:148,1,85,8|0,0:0|0:0,0:0:0:0:
352,144,49817,1,8,0:0:0:0:
296,144,49975,1,8,0:0:0:0:
244,144,50132,1,8,0:0:0:0:
168,152,50290,6,0,P|144:184|176:304,1,170,8|0,0:0|0:0,0:0:0:0:
244,308,50764,2,0,P|304:300|324:280,1,85
384,238,51080,1,0,0:0:0:0:
388,215,51159,1,0,0:0:0:0:
390,191,51238,1,0,0:0:0:0:
388,168,51317,1,0,0:0:0:0:
383,145,51396,1,0,0:0:0:0:
374,124,51475,1,0,0:0:0:0:
361,104,51554,5,0,0:0:0:0:
344,88,51632,1,0,0:0:0:0:
323,79,51711,1,0,0:0:0:0:
299,78,51790,1,0,0:0:0:0:
277,83,51869,1,0,0:0:0:0:
256,93,51948,1,0,0:0:0:0:
237,107,52027,1,0,0:0:0:0:
221,124,52106,1,0,0:0:0:0:
207,143,52185,5,0,0:0:0:0:
195,163,52264,1,0,0:0:0:0:
184,183,52343,1,0,0:0:0:0:
173,204,52422,1,0,0:0:0:0:
160,223,52501,1,0,0:0:0:0:
145,241,52580,1,0,0:0:0:0:
128,257,52659,1,0,0:0:0:0:
107,266,52738,1,0,0:0:0:0:
84,270,52817,5,0,0:0:0:0:
61,266,52896,1,0,0:0:0:0:
40,256,52975,1,0,0:0:0:0:
21,241,53054,1,0,0:0:0:0:
6,224,53132,1,0,0:0:0:0:
0,201,53211,1,0,0:0:0:0:
0,178,53290,1,0,0:0:0:0:
0,155,53369,1,0,0:0:0:0:
252,80,53606,5,4,0:0:0:0:
260,320,53804,1,8,0:0:0:0:
384,184,54001,1,2,0:0:0:0:
252,80,54238,5,8,0:0:0:0:
364,184,54396,1,8,0:0:0:0:
256,288,54554,1,8,0:0:0:0:
144,188,54711,1,8,0:0:0:0:
188,232,54869,2,4,P|232:232|280:216,1,85,4|0,0:0|0:0,0:0:0:0:
228,168,55185,2,0,P|272:168|312:200,1,85,8|0,0:0|0:0,0:0:0:0:
344,256,55501,6,4,P|368:216|372:176,1,85
312,204,55817,2,0,P|268:216|232:200,1,85,8|0,0:0|0:0,0:0:0:0:
144,220,56132,1,4,0:0:0:0:
148,132,56290,1,4,0:0:0:0:
144,220,56448,2,0,P|196:224|240:216,1,85,8|0,0:0|0:0,0:0:0:0:
248,160,56764,1,4,0:0:0:0:
292,204,56922,1,8,0:0:0:0:
272,260,57080,5,0,0:0:0:0:
212,280,57238,1,8,0:0:0:0:
140,256,57396,2,4,B|96:224|96:224|104:184,1,85
128,144,57711,2,0,B|168:116|168:116|208:124,1,85,8|0,0:0|0:0,0:0:0:0:
180,172,57988,2,0,P|192:204|212:252,1,85,4|0,0:0|0:0,0:0:0:0:
256,288,58304,1,8,0:0:0:0:
256,288,58382,1,0,0:0:0:0:
256,288,58461,1,0,0:0:0:0:
344,276,58619,6,0,P|376:240|376:196,1,85,2|0,0:0|0:0,0:0:0:0:
320,188,58975,6,0,P|316:228|280:248,1,85,2|0,0:0|0:0,0:0:0:0:
232,208,59290,6,0,P|264:184|268:140,1,85,2|0,0:0|0:0,0:0:0:0:
220,108,59606,6,0,P|208:160|176:176,1,85,2|0,0:0|0:0,0:0:0:0:
108,256,59922,5,8,0:0:0:0:
240,132,60238,1,8,0:0:0:0:
328,304,60554,2,4,P|364:268|364:236,1,85
312,248,60869,2,0,L|224:248,1,85,8|0,0:0|0:0,0:0:0:0:
216,312,61185,2,0,L|124:312,2,85,0|0|8,0:0|0:0|0:0,0:0:0:0:
296,292,61659,1,4,0:0:0:0:
352,216,61817,1,4,0:0:0:0:
348,112,61975,1,4,0:0:0:0:
264,56,62132,1,8,0:0:0:0:
88,236,62290,5,4,0:0:0:0:
136,272,62448,2,4,P|164:280|228:288,1,85,4|4,0:0|0:0,0:0:0:0:
168,328,62764,1,8,0:0:0:0:
168,328,62922,2,0,L|192:236,1,85
272,232,63238,2,0,P|320:224|344:196,2,85,4|8|4,0:0|0:0|0:0,0:0:0:0:
172,224,63711,1,4,0:0:0:0:
116,180,63869,1,4,0:0:0:0:
80,112,64027,1,8,0:0:0:0:
160,116,64146,2,0,P|216:132|256:132,4,85,4|8|4|8|8,0:0|0:0|0:0|0:0|0:0,0:0:0:0:
392,148,64975,5,8,0:0:0:0:
384,172,65054,1,0,0:0:0:0:
368,188,65132,1,0,0:0:0:0:
312,232,65290,2,0,P|268:232|220:204,1,85,8|0,0:0|0:0,0:0:0:0:
176,264,65606,2,0,P|204:292|248:304,2,85,4|4|8,0:0|0:0|0:0,0:0:0:0:
140,196,66080,1,4,0:0:0:0:
184,104,66238,1,4,0:0:0:0:
280,80,66396,1,4,0:0:0:0:
296,244,66554,2,0,B|316:240|316:240|388:232|388:232|452:292,2,170,4|8|8,0:0|0:0|0:0,0:0:0:0:
236,172,67343,5,4,0:0:0:0:
184,208,67501,2,4,L|140:216,2,42.5,4|4|4,0:0|0:0|0:0,0:0:0:0:
232,252,67817,2,0,P|280:264|324:256,1,85,8|4,0:0|0:0,0:0:0:0:
372,188,68132,1,4,0:0:0:0:
380,300,68290,1,4,0:0:0:0:
376,236,68409,2,0,L|368:144,1,85,8|0,0:0|0:0,0:0:0:0:
280,168,68764,2,0,L|188:200,1,85,4|0,0:0|0:0,0:0:0:0:
232,240,69080,2,0,L|328:200,1,85,8|0,0:0|0:0,0:0:0:0:
256,116,69396,2,4,L|176:148,1,85
148,96,69711,2,0,L|236:68,1,85,8|0,0:0|0:0,0:0:0:0:
144,264,70067,5,8,0:0:0:0:
156,272,70146,1,0,0:0:0:0:
172,276,70225,1,0,0:0:0:0:
248,300,70343,2,0,P|308:300|340:296,1,85,8|0,0:0|0:0,0:0:0:0:
424,272,70659,1,4,0:0:0:0:
360,180,70817,1,4,0:0:0:0:
276,200,70975,2,0,P|204:208|176:200,1,85,8|0,0:0|0:0,0:0:0:0:
224,160,71290,2,4,L|224:56,1,85
312,104,71606,5,8,0:0:0:0:
372,160,71764,1,4,0:0:0:0:
368,244,71922,1,4,0:0:0:0:
288,284,72080,1,0,0:0:0:0:
204,260,72238,1,8,0:0:0:0:
132,288,72396,6,4,P|88:256|96:236,2,85,0|4|4,0:0|0:0|0:0,0:0:0:0:
208,296,72869,2,0,P|288:300|304:292,1,85,8|4,0:0|0:0,0:0:0:0:
368,264,73185,1,4,0:0:0:0:
412,200,73343,1,4,0:0:0:0:
436,128,73501,2,0,P|436:88|392:76,1,85,4|8,0:0|0:0,0:0:0:0:
332,120,73777,2,0,L|276:192,1,85,8|4,0:0|0:0,0:0:0:0:
252,124,74093,2,0,L|184:200,1,85,8|4,0:0|0:0,0:0:0:0:
168,128,74409,2,0,L|108:188,1,85,8|4,0:0|0:0,0:0:0:0:
88,112,74725,2,0,L|20:180,1,85,8|8,0:0|0:0,0:0:0:0:
376,228,75040,5,4,0:0:0:0:
312,280,75198,2,0,P|260:288|220:276,1,85,4|8,0:0|0:0,0:0:0:0:
124,272,75554,1,4,0:0:0:0:
192,204,75711,1,4,0:0:0:0:
48,212,75869,1,4,0:0:0:0:
144,128,76027,1,8,0:0:0:0:
48,108,76185,1,8,0:0:0:0:
48,108,76343,1,8,0:0:0:0:
164,144,76659,53,8,0:0:0:0:
352,108,76817,1,8,0:0:0:0:
388,272,76975,1,8,0:0:0:0:
216,304,77132,1,8,0:0:0:0:
164,144,77290,1,8,0:0:0:0:
120,72,77606,69,8,0:0:0:0:
428,72,77882,21,8,0:0:0:0:
356,276,78080,53,0,0:0:0:0:
244,136,78396,5,8,0:0:0:0:
132,272,78672,21,0,0:0:0:0:
264,48,78988,21,8,0:0:0:0:
432,272,79146,53,0,0:0:0:0:
256,216,79304,21,8,0:0:0:0:
128,88,79461,101,8,0:0:0:0:
184,176,79817,37,8,0:0:0:0:
196,192,79896,1,8,0:0:0:0:
208,204,79975,1,8,0:0:0:0:
220,216,80054,1,8,0:0:0:0:
232,232,80132,1,4,0:0:0:0:
168,232,80882,1,4,0:0:0:0:
156,216,80961,1,4,0:0:0:0:
148,200,81080,1,8,0:0:0:0:
204,160,81238,54,4,P|244:172|296:168,1,85
260,112,81554,2,4,P|304:116|344:136,1,85,4|12,0:0|0:0,0:0:0:0:
344,172,81869,2,4,P|388:156|376:120,1,85
308,88,82185,1,4,0:0:0:0:
288,84,82264,1,4,0:0:0:0:
268,80,82343,1,8,0:0:0:0:
180,108,82501,38,4,P|152:144|164:180,1,85
220,164,82817,2,0,L|312:184,1,85,4|8,0:0|0:0,0:0:0:0:
368,200,83132,1,4,0:0:0:0:
376,300,83290,1,4,0:0:0:0:
296,276,83448,2,0,P|240:288|196:280,2,85,4|8|4,0:0|0:0|0:0,0:0:0:0:
252,224,83922,2,4,P|212:236|164:232,1,85
200,180,84238,2,0,L|196:92,1,85,8|4,0:0|0:0,0:0:0:0:
256,320,84554,69,8,0:0:0:0:
256,32,84830,1,8,0:0:0:0:
256,192,90277,12,0,91185,0:0:0:0:
92,196,91461,38,4,P|136:248|156:256,1,85
156,196,91777,102,0,L|256:196,1,85,8|0,0:0|0:0,0:0:0:0:
316,180,92093,2,4,P|332:208|292:244,1,85
368,268,92448,2,0,P|392:248|384:160,1,127.5,8|4,0:0|0:0,0:0:0:0:
352,200,92804,22,4,L|252:200,1,85
200,168,93080,1,8,0:0:0:0:
200,168,93238,1,4,0:0:0:0:
180,256,93396,2,4,P|140:240|104:208,2,85,4|4|8,0:0|0:0|0:0,0:0:0:0:
288,80,94027,1,4,0:0:0:0:
368,160,94185,1,4,0:0:0:0:
352,272,94343,1,8,0:0:0:0:
352,272,94501,6,4,P|308:300|268:300,2,85,4|4|4,0:0|0:0|0:0,0:0:0:0:
360,200,94975,2,0,L|264:200,1,85,4|8,0:0|0:0,0:0:0:0:
212,252,95290,2,0,L|296:284,1,85,10|4,0:0|0:0,0:0:0:0:
344,320,95606,2,0,L|348:220,1,85,10|4,0:0|0:0,0:0:0:0:
316,188,95922,2,0,L|228:160,1,85,10|4,0:0|0:0,0:0:0:0:
168,188,96238,2,0,L|108:252,1,85,10|4,0:0|0:0,0:0:0:0:
280,104,96554,5,4,0:0:0:0:
348,144,96711,1,4,0:0:0:0:
408,224,96869,2,0,P|400:272|368:300,1,85,8|4,0:0|0:0,0:0:0:0:
332,256,97185,2,0,L|240:260,1,85,4|4,0:0|0:0,0:0:0:0:
252,320,97461,2,8,L|152:320,1,85,8|8,0:0|0:0,0:0:0:0:
112,248,97817,1,4,0:0:0:0:
176,176,97975,1,4,0:0:0:0:
112,248,98132,102,0,P|96:208|100:152,1,85,8|4,0:0|0:0,0:0:0:0:
192,192,98448,1,8,0:0:0:0:
288,192,98606,1,4,0:0:0:0:
384,192,98764,1,8,0:0:0:0:
480,192,98922,1,8,0:0:0:0:
260,64,99080,5,2,0:0:0:0:
272,332,99238,1,2,0:0:0:0:
84,196,99988,2,0,P|136:208|176:204,1,85,8|4,0:0|0:0,0:0:0:0:
160,144,100304,2,0,L|244:144,1,85,8|4,0:0|0:0,0:0:0:0:
296,216,100619,1,8,0:0:0:0:
344,120,100777,1,4,0:0:0:0:
392,232,100935,1,0,0:0:0:0:
448,128,101093,1,0,0:0:0:0:
448,128,101251,1,0,0:0:0:0:
256,192,101567,12,0,103461,0:0:0:0:
152,128,103817,5,8,0:0:0:0:
122,273,104132,102,0,P|165:296|256:288,1,143.437505471707
294,234,104764,1,8,0:0:0:0:
389,264,105080,2,0,P|405:240|399:200,2,63.7500024318696,4|8|4,0:0|0:0|0:0,0:0:0:0:
325,231,105554,2,0,L|247:231,1,63.7500024318696,8|4,0:0|0:0,0:0:0:0:
166,197,106027,1,8,0:0:0:0:
99,102,106343,5,4,0:0:0:0:
163,63,106501,1,4,0:0:0:0:
239,63,106659,1,4,0:0:0:0:
350,77,106935,1,4,0:0:0:0:
414,127,107093,1,4,0:0:0:0:
448,202,107251,1,8,0:0:0:0:
352,242,107567,38,4,L|257:244,1,85
187,175,107882,5,4,0:0:0:0:
185,312,108040,69,8,0:0:0:0:
96,256,108198,37,4,0:0:0:0:
54,173,108356,1,4,0:0:0:0:
81,78,108830,6,0,L|105:99,4,21.25,8|8|8|8|8,0:0|0:0|0:0|0:0|0:0,0:0:0:0:
129,180,109185,2,4,P|180:206|220:212,1,85
223,157,109501,1,8,0:0:0:0:
319,157,109659,1,4,0:0:0:0:
413,188,109817,1,4,0:0:0:0:
397,277,109975,2,4,P|364:300|320:288,2,85,0|8|0,0:0|0:0|0:0,0:0:0:0:
408,199,110448,2,4,P|403:160|349:140,1,85
342,179,110764,2,0,L|257:180,1,85,8|4,0:0|0:0,0:0:0:0:
174,129,111080,5,4,0:0:0:0:
136,211,111238,1,4,0:0:0:0:
179,280,111396,2,0,P|208:304|266:313,1,85,8|4,0:0|0:0,0:0:0:0:
349,295,111711,5,8,0:0:0:0:
365,283,111790,1,0,0:0:0:0:
379,268,111869,1,0,0:0:0:0:
390,251,111948,1,0,0:0:0:0:
399,232,112027,1,0,0:0:0:0:
404,213,112106,5,0,0:0:0:0:
407,192,112185,1,0,0:0:0:0:
406,172,112264,1,0,0:0:0:0:
403,152,112343,1,8,0:0:0:0:
397,132,112422,1,0,0:0:0:0:
389,114,112501,1,0,0:0:0:0:
379,96,112580,1,0,0:0:0:0:
366,80,112659,1,0,0:0:0:0:
351,66,112738,5,0,0:0:0:0:
335,54,112817,1,0,0:0:0:0:
317,44,112896,1,0,0:0:0:0:
298,36,112975,1,8,0:0:0:0:
278,32,113054,1,0,0:0:0:0:
258,30,113132,1,0,0:0:0:0:
238,32,113211,1,0,0:0:0:0:
218,37,113290,1,0,0:0:0:0:
200,46,113369,5,0,0:0:0:0:
183,58,113448,1,0,0:0:0:0:
172,69,113527,1,0,0:0:0:0:
160,81,113606,1,8,0:0:0:0:
147,94,113685,1,0,0:0:0:0:
136,110,113764,1,8,0:0:0:0:
128,124,113843,1,0,0:0:0:0:
121,137,113922,1,8,0:0:0:0:
244,29,114159,101,8,0:0:0:0:
245,346,114514,5,8,0:0:0:0:
348,187,114672,53,8,0:0:0:0:
154,160,114830,102,8,P|149:206|96:192,1,106.25
226,176,115185,2,8,P|197:194|224:256,1,106.25
365,293,115501,6,4,P|302:312|270:308,1,85
296,253,115817,2,0,L|200:255,1,85,8|4,0:0|0:0,0:0:0:0:
168,177,116132,1,4,0:0:0:0:
150,297,116290,1,4,0:0:0:0:
199,247,116448,2,0,P|268:252|303:251,1,85,8|4,0:0|0:0,0:0:0:0:
361,292,116764,1,4,0:0:0:0:
412,228,116922,1,4,0:0:0:0:
437,144,117080,1,8,0:0:0:0:
383,57,117238,5,4,0:0:0:0:
276,73,117396,1,4,0:0:0:0:
199,151,117554,1,8,0:0:0:0:
231,273,117711,1,8,0:0:0:0:
323,306,117869,2,4,P|379:298|391:268,1,85
341,248,118185,2,4,P|365:221|361:162,1,85,4|8,0:0|0:0,0:0:0:0:
318,135,118501,2,4,P|282:123|233:136,3,85,0|4|4|8,0:0|0:0|0:0|0:0,0:0:0:0:
166,175,119132,1,0,0:0:0:0:
220,229,119290,70,0,L|155:311,1,85,2|0,0:0|0:0,0:0:0:0:
300,252,119606,2,0,L|244:326,1,85,2|0,0:0|0:0,0:0:0:0:
386,270,119922,2,0,L|328:339,1,85,2|0,0:0|0:0,0:0:0:0:
472,293,120277,2,0,L|407:371,1,85,2|0,0:0|0:0,0:0:0:0:
89,97,120593,21,4,0:0:0:0:
379,157,120869,1,8,0:0:0:0:
394,241,121185,2,4,P|346:270|308:269,1,85
235,246,121501,1,8,0:0:0:0:
181,266,121659,2,4,P|205:300|251:314,2,85,4|4|4,0:0|0:0|0:0,0:0:0:0:
144,200,122132,2,0,B|164:172|164:172|152:136|152:136|168:120,1,85,8|4,0:0|0:0,0:0:0:0:
230,157,122448,2,0,P|262:127|312:124,1,85,4|8,0:0|0:0,0:0:0:0:
372,163,122764,1,8,0:0:0:0:
101,204,122882,6,0,P|146:240|177:246,2,85,0|0|0,0:0|0:0|0:0,0:0:0:0:
137,161,123396,2,8,P|168:180|227:193,1,85
292,198,123711,1,4,0:0:0:0:
355,182,123869,1,4,0:0:0:0:
403,135,124027,1,8,0:0:0:0:
442,77,124185,1,8,0:0:0:0:
108,284,124304,38,0,B|112:236|112:236|151:199,1,85,8|8,0:0|0:0,0:0:0:0:
208,224,124619,70,8,B|208:268|208:268|170:307,1,85
264,312,124935,86,8,B|289:295|289:295|288:236,1,85
379,249,125251,6,8,B|376:288|376:288|337:341,1,85,0|8,0:0|0:0,0:0:0:0:
84,148,125606,6,0,B|124:176|124:176|170:169,1,85,8|0,0:0|0:0,0:0:0:0:
144,124,125922,2,0,B|140:176|140:176|108:236,1,106.25,8|0,0:0|0:0,0:0:0:0:
164,284,126238,1,4,0:0:0:0:
256,304,126396,1,4,0:0:0:0:
320,284,126554,2,0,P|360:252|364:216,1,85,8|4,0:0|0:0,0:0:0:0:
296,144,126869,5,4,0:0:0:0:
192,116,127027,1,4,0:0:0:0:
104,168,127185,1,8,0:0:0:0:
104,276,127343,1,4,0:0:0:0:
144,224,127501,1,4,0:0:0:0:
192,192,127659,1,4,0:0:0:0:
256,208,127817,1,8,0:0:0:0:
272,276,127975,6,4,P|216:284|196:256,1,85
168,192,128290,1,4,0:0:0:0:
180,164,128369,1,4,0:0:0:0:
200,136,128448,1,8,0:0:0:0:
272,160,128606,2,0,P|300:132|348:144,2,85,4|4|4,0:0|0:0|0:0,0:0:0:0:
268,216,129080,2,0,P|320:240|352:216,1,85,8|0,0:0|0:0,0:0:0:0:
312,184,129396,6,4,L|336:88,1,85
264,136,129711,2,0,L|232:216,1,85,8|0,0:0|0:0,0:0:0:0:
192,160,130027,2,4,L|160:240,1,85
128,176,130343,2,0,L|164:88,1,85,8|0,0:0|0:0,0:0:0:0:
260,312,130619,5,8,0:0:0:0:
252,232,130777,1,8,0:0:0:0:
324,172,130935,1,8,0:0:0:0:
416,164,131132,1,8,0:0:0:0:
408,216,131290,6,4,P|380:208|375:150,1,85
296,148,131606,2,0,L|200:148,1,85,8|0,0:0|0:0,0:0:0:0:
248,208,131922,5,4,0:0:0:0:
248,280,132080,1,4,0:0:0:0:
164,280,132238,1,8,0:0:0:0:
164,208,132396,1,4,0:0:0:0:
208,248,132554,1,0,0:0:0:0:
148,300,132711,1,8,0:0:0:0:
104,244,132869,1,8,0:0:0:0:
152,200,133027,1,8,0:0:0:0:
300,96,133185,6,0,P|328:132|320:172,1,85
276,228,133501,1,8,0:0:0:0:
208,280,133659,2,0,P|156:276|128:248,2,85,4|4|4,0:0|0:0|0:0,0:0:0:0:
296,280,134132,2,0,P|340:264|360:232,1,85,8|4,0:0|0:0,0:0:0:0:
296,200,134448,2,0,L|296:108,1,85,4|0,0:0|0:0,0:0:0:0:
296,115,134764,2,0,L|208:116,1,85,8|0,0:0|0:0,0:0:0:0:
248,128,135080,2,0,L|248:224,1,85,8|0,0:0|0:0,0:0:0:0:
184,176,135396,1,8,0:0:0:0:
184,176,135514,1,8,0:0:0:0:
104,244,135711,6,4,P|124:268|184:276,1,85,4|4,0:0|0:0,0:0:0:0:
248,256,136027,1,8,0:0:0:0:
288,204,136146,2,0,B|292:188|292:188|316:176|316:176|320:176|320:176|460:176,1,170
384,232,136659,2,0,P|368:192|384:148,1,85,8|0,0:0|0:0,0:0:0:0:
100,56,136975,1,8,0:0:0:0:
252,288,137132,1,8,0:0:0:0:
412,40,137290,1,8,0:0:0:0:
256,192,138238,12,0,139304,0:0:0:0:
116,276,139501,5,4,0:0:0:0:
244,80,139659,1,4,0:0:0:0:
352,280,139817,1,4,0:0:0:0:
196,280,139975,5,0,0:0:0:0:
144,232,140132,2,0,P|124:200|144:148,1,85
84,192,140448,2,0,L|168:192,1,85
260,208,140764,1,0,0:0:0:0:
276,196,140843,1,0,0:0:0:0:
288,176,140922,1,0,0:0:0:0:
208,160,141040,6,0,P|152:164|120:148,1,85,8|0,0:0|0:0,0:0:0:0:
188,96,141356,2,4,P|220:76|264:88,1,85
316,124,141672,1,8,0:0:0:0:
408,160,141830,1,4,0:0:0:0:
360,248,141988,1,4,0:0:0:0:
272,200,142185,1,0,0:0:0:0:
204,120,142343,1,8,0:0:0:0:
168,184,142501,2,0,B|168:228|168:228|208:244|208:244|208:308,1,148.75
284,276,142975,6,4,P|328:276|376:256,1,85,8|4,0:0|0:0,0:0:0:0:
316,200,143290,1,4,0:0:0:0:
304,120,143448,1,0,0:0:0:0:
248,168,143606,2,0,L|152:176,1,85,8|0,0:0|0:0,0:0:0:0:
128,264,143922,6,0,B|132:228|132:228|200:264|200:264|269:264,1,170,4|8,0:0|0:0,0:0:0:0:
256,264,144396,1,8,0:0:0:0:
104,124,144554,5,0,0:0:0:0:
192,88,144711,1,0,0:0:0:0:
280,124,144869,1,8,0:0:0:0:
276,192,145027,2,4,P|296:224|416:264,1,170
415,264,145501,1,8,0:0:0:0:
415,264,145659,1,8,0:0:0:0:
80,316,145777,6,0,B|100:308|76:304|76:304|100:296|76:292|76:292|100:280|100:280|80:272|80:272|96:256|100:256|88:232|64:192|60:108|112:32,1,340
168,32,146567,1,0,0:0:0:0:
168,44,146646,1,0,0:0:0:0:
168,56,146725,1,8,0:0:0:0:
168,68,146804,1,0,0:0:0:0:
168,80,146882,1,0,0:0:0:0:
168,92,146961,1,0,0:0:0:0:
168,104,147040,1,0,0:0:0:0:
168,112,147119,5,0,0:0:0:0:
168,124,147198,1,0,0:0:0:0:
168,136,147277,1,0,0:0:0:0:
168,148,147356,1,8,0:0:0:0:
168,160,147435,1,0,0:0:0:0:
168,172,147514,1,0,0:0:0:0:
168,184,147593,1,0,0:0:0:0:
168,196,147672,1,0,0:0:0:0:
168,208,147790,5,0,0:0:0:0:
168,220,147869,1,0,0:0:0:0:
168,232,147948,1,0,0:0:0:0:
168,244,148027,1,8,0:0:0:0:
168,256,148106,1,0,0:0:0:0:
168,268,148185,1,0,0:0:0:0:
168,280,148264,1,0,0:0:0:0:
136,116,148343,2,0,L|176:148,6,42.5,0|0|0|0|8|0|0,0:0|0:0|0:0|0:0|0:0|0:0|0:0,0:0:0:0:
112,176,148896,6,0,L|84:212,7,42.5,0|4|0|0|0|8|0|0,0:0|0:0|0:0|0:0|0:0|0:0|0:0|0:0,0:0:0:0:
360,268,149606,2,0,L|312:252,1,42.5
148,96,149922,2,8,L|188:64,1,42.5,8|0,0:0|0:0,0:0:0:0:
360,264,150238,2,0,L|312:224,1,42.5
144,92,150554,2,8,L|184:136,1,42.5,8|0,0:0|0:0,0:0:0:0:
352,232,150869,6,0,B|328:212|328:208|304:236|304:236|304:232|280:216|280:216|24:216,1,340
292,92,151817,5,8,0:0:0:0:
292,92,151935,1,8,0:0:0:0:
240,112,152093,2,4,L|192:96,1,42.5,4|0,0:0|0:0,0:0:0:0:
336,128,152251,2,0,L|384:144,1,42.5,0|0,0:0|0:0,0:0:0:0:
240,176,152409,6,0,L|192:160,1,42.5,8|0,0:0|0:0,0:0:0:0:
336,192,152567,2,0,L|384:208,1,42.5,0|0,0:0|0:0,0:0:0:0:
240,240,152725,6,0,L|192:224,1,42.5,4|0,0:0|0:0,0:0:0:0:
320,256,152882,2,0,L|368:272,1,42.5,0|0,0:0|0:0,0:0:0:0:
240,240,153040,2,0,L|192:256,1,42.5,8|0,0:0|0:0,0:0:0:0:
240,96,153198,5,0,0:0:0:0:
214,98,153277,1,0,0:0:0:0:
190,108,153396,1,4,0:0:0:0:
170,125,153475,1,0,0:0:0:0:
157,147,153554,1,0,0:0:0:0:
150,172,153632,1,0,0:0:0:0:
151,198,153711,1,8,0:0:0:0:
160,222,153790,5,0,0:0:0:0:
174,243,153869,1,0,0:0:0:0:
194,261,153948,1,0,0:0:0:0:
216,274,154027,1,4,0:0:0:0:
239,285,154106,1,0,0:0:0:0:
264,292,154185,1,0,0:0:0:0:
290,295,154264,1,0,0:0:0:0:
316,295,154343,5,8,0:0:0:0:
342,291,154422,1,0,0:0:0:0:
366,284,154501,1,0,0:0:0:0:
390,273,154580,1,0,0:0:0:0:
411,259,154659,1,4,0:0:0:0:
430,241,154738,1,0,0:0:0:0:
446,220,154817,1,0,0:0:0:0:
457,197,154896,5,0,0:0:0:0:
463,172,154975,1,8,0:0:0:0:
460,147,155054,1,0,0:0:0:0:
444,126,155132,1,0,0:0:0:0:
422,113,155211,1,0,0:0:0:0:
396,110,155290,1,4,0:0:0:0:
371,115,155369,1,0,0:0:0:0:
348,126,155448,5,0,0:0:0:0:
325,140,155527,1,0,0:0:0:0:
304,154,155606,1,8,0:0:0:0:
283,169,155685,1,0,0:0:0:0:
261,183,155764,1,0,0:0:0:0:
238,195,155843,1,0,0:0:0:0:
214,204,155922,1,4,0:0:0:0:
188,210,156001,5,0,0:0:0:0:
163,212,156080,1,0,0:0:0:0:
137,208,156159,1,0,0:0:0:0:
113,199,156238,1,8,0:0:0:0:
93,183,156317,1,0,0:0:0:0:
79,161,156396,1,0,0:0:0:0:
75,136,156475,1,0,0:0:0:0:
83,111,156554,5,4,0:0:0:0:
99,91,156632,1,0,0:0:0:0:
121,77,156711,1,0,0:0:0:0:
146,69,156790,1,0,0:0:0:0:
171,67,156869,1,8,0:0:0:0:
197,71,156948,1,0,0:0:0:0:
219,84,157027,1,0,0:0:0:0:
235,104,157106,5,0,0:0:0:0:
241,129,157185,1,4,0:0:0:0:
240,155,157264,1,0,0:0:0:0:
237,181,157343,1,0,0:0:0:0:
232,206,157422,1,0,0:0:0:0:
228,232,157501,1,8,0:0:0:0:
226,258,157580,1,0,0:0:0:0:
228,284,157659,5,0,0:0:0:0:
238,307,157738,1,0,0:0:0:0:
268,72,158093,5,8,0:0:0:0:
260,336,158251,1,8,0:0:0:0:
96,188,158409,2,0,B|124:188|124:188|132:176|132:176|136:188|136:188|152:176|152:176|164:192|164:192|172:176|172:176|384:176,1,318.75
96,104,159238,5,4,0:0:0:0:
96,104,159317,1,4,0:0:0:0:
96,104,159396,1,8,0:0:0:0:
132,172,159554,2,0,P|168:184|220:176,2,85,4|8|0,0:0|0:0|0:0,0:0:0:0:
128,176,159948,2,0,L|128:254,1,63.75,8|0,0:0|0:0,0:0:0:0:
192,288,160146,2,0,P|224:272|256:240,1,63.75,8|0,0:0|0:0,0:0:0:0:
320,192,160343,1,8,0:0:0:0:
384,272,160501,1,0,0:0:0:0:
384,272,160580,2,0,P|352:240|352:208,1,63.75,8|4,0:0|0:0,0:0:0:0:
256,192,160817,1,8,0:0:0:0:
256,192,160896,12,0,161685,0:0:0:0:
243,106,161922,21,10,0:0:0:0:
243,106,162119,2,0,L|277:146,1,47.8125018239022
341,317,162554,5,10,0:0:0:0:
341,317,162751,2,0,L|307:282,1,47.8125018239022
88,248,163185,5,10,0:0:0:0:
88,248,163382,2,0,L|130:217,1,47.8125018239022
357,68,163817,5,10,0:0:0:0:
357,68,164014,2,0,L|317:106,1,47.8125018239022
112,64,164409,5,10,0:0:0:0:
112,64,164646,2,0,L|145:110,1,47.8125018239022
372,297,165040,53,10,0:0:0:0:
256,248,165238,1,10,0:0:0:0:
256,248,165396,6,0,P|228:224|225:180,1,79.687503039837,0|8,0:0|0:0,0:0:0:0:
226,126,165751,2,0,P|238:102|272:81,1,63.7500024318696,0|8,0:0|0:0,0:0:0:0:
108,104,166027,5,10,0:0:0:0:
292,128,166817,2,0,P|320:152|332:176,2,63.7500024318696,0|0|0,0:0|0:0|0:0,0:0:0:0:
184,160,167290,1,0,0:0:0:0:
384,312,167527,1,2,0:0:0:0:
276,304,167764,2,0,P|240:280|236:256,1,63.7500024318696,0|2,0:0|0:0,0:0:0:0:
196,204,168198,5,2,0:0:0:0:
236,131,168396,2,0,P|274:107|295:112,1,63.7500024318696,0|2,0:0|0:0,0:0:0:0:
352,224,168909,5,0,0:0:0:0:
320,288,169067,1,2,0:0:0:0:
256,320,169225,1,0,0:0:0:0:
160,320,169382,2,0,P|128:288|129:268,1,63.7500024318696
192,192,169698,2,0,P|224:160|245:156,1,63.7500024318696,10|0,0:0|0:0,0:0:0:0:
364,91,170054,6,0,P|399:109|404:136,2,63.7500024318696,0|2|2,0:0|0:0|0:0,0:0:0:0:
342,149,170527,2,0,L|298:191,1,47.8125018239022,0|10,0:0|0:0,0:0:0:0:
254,157,170804,2,0,L|215:189,1,47.8125018239022,0|10,0:0|0:0,0:0:0:0:
261,238,171080,1,2,0:0:0:0:
75,32,172659,5,10,0:0:0:0:
256,350,172935,1,8,0:0:0:0:
256,350,173251,1,2,0:0:0:0:
411,39,173567,1,10,0:0:0:0:
256,192,173646,12,0,174435,0:0:0:0:
79,173,174790,22,0,P|118:155|157:157,1,79.687503039837,0|4,0:0|0:0,0:0:0:0:
174,233,175185,2,0,P|208:237|254:229,2,79.687503039837,4|0|8,0:0|0:0|0:0,0:0:0:0:
174,233,175856,1,8,0:0:0:0:
336,140,176093,2,0,P|349:175|365:228,1,85,8|0,0:0|0:0,0:0:0:0:
377,260,176448,1,0,0:0:0:0:
281,221,176606,2,0,L|319:313,1,85,8|0,0:0|0:0,0:0:0:0:
313,299,176922,1,0,0:0:0:0:
196,288,177080,5,4,0:0:0:0:
189,277,177159,1,4,0:0:0:0:
182,266,177238,1,4,0:0:0:0:
176,257,177317,1,4,0:0:0:0:
168,245,177396,1,4,0:0:0:0:
332,90,177514,6,0,B|366:131|365:133|365:133|328:183,1,106.25,0|8,0:0|0:0,0:0:0:0:
303,219,177869,2,4,L|214:219,1,85
218,219,178185,1,0,0:0:0:0:
219,286,178343,1,8,0:0:0:0:
213,150,178501,1,4,0:0:0:0:
283,106,178619,6,0,P|321:98|372:107,1,85
396,122,178935,1,0,0:0:0:0:
416,188,179093,2,0,B|423:233|425:235|412:286|412:286|430:339|430:339|430:340|405:375|405:375,1,191.25
285,331,179606,2,0,P|257:311|246:272,1,63.75
239,55,179882,5,8,0:0:0:0:
259,342,180159,5,8,0:0:0:0:
81,191,180475,5,8,0:0:0:0:
452,189,180711,5,8,0:0:0:0:
372,249,180948,2,0,B|334:220|334:220|306:253|208:240,1,170,8|8,0:0|0:0,0:0:0:0:
217,241,181461,1,0,0:0:0:0:
217,241,181659,1,8,0:0:0:0:
217,241,181856,1,0,0:0:0:0:
167,146,182132,5,8,0:0:0:0:
201,146,182211,5,8,0:0:0:0:
235,146,182290,5,8,0:0:0:0:
269,146,182369,5,8,0:0:0:0:
303,146,182448,5,8,0:0:0:0:
384,256,182606,2,0,L|288:288,1,85,0|8,0:0|0:0,0:0:0:0:
224,288,182922,1,4,0:0:0:0:
160,256,183080,1,4,0:0:0:0:
128,192,183238,1,4,0:0:0:0:
192,192,183396,6,0,L|256:192|288:192,1,85,8|8,0:0|0:0,0:0:0:0:
288,256,183711,2,4,P|320:256|384:224,1,85
352,160,184027,1,8,0:0:0:0:
288,128,184185,2,4,B|256:96|224:96|224:96|192:64|192:64|128:64,1,170
96,128,184659,2,0,P|64:160|64:192,1,63.75,8|8,0:0|0:0,0:0:0:0:
96,256,184935,5,0,0:0:0:0:
121,268,185014,1,0,0:0:0:0:
147,279,185093,1,0,0:0:0:0:
174,288,185172,1,0,0:0:0:0:
202,294,185251,1,0,0:0:0:0:
230,295,185330,1,0,0:0:0:0:
259,291,185409,1,0,0:0:0:0:
285,281,185488,1,0,0:0:0:0:
309,266,185567,5,0,0:0:0:0:
329,246,185646,1,0,0:0:0:0:
343,221,185725,1,0,0:0:0:0:
352,194,185804,1,0,0:0:0:0:
353,166,185882,1,0,0:0:0:0:
347,138,185961,1,0,0:0:0:0:
333,113,186040,1,0,0:0:0:0:
312,93,186119,1,0,0:0:0:0:
287,82,186198,5,0,0:0:0:0:
258,79,186277,1,0,0:0:0:0:
231,85,186356,1,0,0:0:0:0:
206,100,186435,1,0,0:0:0:0:
187,120,186514,1,0,0:0:0:0:
175,146,186593,1,0,0:0:0:0:
173,174,186672,1,0,0:0:0:0:
182,201,186751,1,0,0:0:0:0:
200,224,186869,5,0,0:0:0:0:
222,241,186948,1,0,0:0:0:0:
247,255,187027,1,0,0:0:0:0:
273,266,187106,1,0,0:0:0:0:
301,274,187185,1,0,0:0:0:0:
328,280,187264,1,0,0:0:0:0:
356,285,187343,1,0,0:0:0:0:
385,288,187422,1,0,0:0:0:0:
256,192,187501,12,0,188646,0:0:0:0:
128,224,188725,6,4,P|160:256|224:256,1,106.25
224,224,189080,2,0,P|256:256|224:288,2,85,8|4|4,0:0|0:0|0:0,0:0:0:0:
160,192,189554,1,4,0:0:0:0:
128,128,189711,1,8,0:0:0:0:
160,64,189869,1,0,0:0:0:0:
192,96,189988,2,4,P|224:64|192:32,2,85,4|4|8,0:0|0:0|0:0,0:0:0:0:
128,160,190461,5,4,0:0:0:0:
160,224,190619,1,4,0:0:0:0:
224,256,190777,5,8,0:0:0:0:
288,256,190935,1,8,0:0:0:0:
352,224,191093,1,8,0:0:0:0:
32,128,191251,5,4,0:0:0:0:
64,160,191330,1,4,0:0:0:0:
96,192,191409,1,4,0:0:0:0:
160,256,191567,2,0,P|224:256|256:224,1,106.25,8|0,0:0|0:0,0:0:0:0:
192,192,191882,2,4,L|224:352,1,148.75,4|4,0:0|0:0,0:0:0:0:
320,288,192238,2,0,P|384:256|384:224,1,95.6250036478044,8|0,0:0|0:0,0:0:0:0:
288,192,192554,6,0,B|288:128|288:128|224:64,1,127.500004863739,2|0,0:0|0:0,0:0:0:0:
202,118,192869,2,0,B|242:156|242:156|241:200|241:200|187:199,1,127.500004863739,2|0,0:0|0:0,0:0:0:0:
176,168,193185,2,0,B|152:128|152:128|184:88,1,85,2|0,0:0|0:0,0:0:0:0:
144,128,193501,2,0,L|48:128,1,85,2|0,0:0|0:0,0:0:0:0:
192,80,193817,5,8,0:0:0:0:
192,208,193975,1,8,0:0:0:0:
192,304,194132,1,8,0:0:0:0:
320,304,194290,1,8,0:0:0:0:
320,224,194448,6,4,L|320:128,1,85,4|4,0:0|0:0,0:0:0:0:
240,176,194764,1,8,0:0:0:0:
240,176,194922,1,0,0:0:0:0:
240,176,195080,2,4,P|192:224|160:224,1,85
240,176,195396,1,8,0:0:0:0:
240,176,195554,2,0,P|192:224|64:224,1,191.250007295609,0|8,0:0|0:0,0:0:0:0:
320,112,196185,5,0,0:0:0:0:
384,176,196343,1,4,0:0:0:0:
400,208,196422,1,4,0:0:0:0:
384,240,196501,1,4,0:0:0:0:
320,288,196659,2,0,P|272:288|240:272,1,79.687503039837,8|0,0:0|0:0,0:0:0:0:
288,224,196975,1,4,0:0:0:0:
208,208,197132,1,4,0:0:0:0:
288,144,197290,2,0,P|352:176|352:192,1,85,8|0,0:0|0:0,0:0:0:0:
272,224,197606,54,4,L|208:288,1,85
192,224,197961,54,0,B|192:160|192:160|224:160,1,85,8|0,0:0|0:0,0:0:0:0:
304,192,198238,102,0,L|368:256,1,85,4|0,0:0|0:0,0:0:0:0:
304,256,198554,54,0,L|368:192,1,85,8|0,0:0|0:0,0:0:0:0:
112,96,198869,1,8,0:0:0:0:
304,96,199027,1,8,0:0:0:0:
304,256,199185,1,8,0:0:0:0:
112,256,199343,1,8,0:0:0:0:
208,256,199501,2,4,L|304:256,1,85,4|4,0:0|0:0,0:0:0:0:
352,304,199817,2,0,L|352:208,1,85,8|0,0:0|0:0,0:0:0:0:
304,144,200132,1,4,0:0:0:0:
240,192,200290,1,4,0:0:0:0:
176,256,200448,1,8,0:0:0:0:
96,288,200646,6,8,B|80:240|80:240|96:224|96:224|96:176|96:176|80:128|80:128|112:64,1,233.75,4|8,0:0|0:0,0:0:0:0:
107,72,201238,1,8,0:0:0:0:
158,131,201396,2,4,L|193:163,2,42.5,4|4|4,0:0|0:0|0:0,0:0:0:0:
189,159,201672,2,0,L|257:211,1,85,8|0,0:0|0:0,0:0:0:0:
230,250,201909,2,0,B|294:258|294:258|290:183,1,127.5
216,142,202304,1,0,0:0:0:0:
133,269,202461,1,0,0:0:0:0:
368,167,202619,6,0,L|432:112,1,85,2|0,0:0|0:0,0:0:0:0:
152,211,202935,2,0,L|240:240,1,85,2|0,0:0|0:0,0:0:0:0:
256,208,203251,1,2,0:0:0:0:
272,208,203330,1,0,0:0:0:0:
288,208,203409,1,2,0:0:0:0:
330,341,203606,2,0,P|381:322|411:294,1,85,2|2,0:0|0:0,0:0:0:0:
121,82,203922,5,8,0:0:0:0:
174,208,204080,1,8,0:0:0:0:
284,132,204238,1,8,0:0:0:0:
326,249,204396,1,8,0:0:0:0:
128,320,204554,2,0,P|96:272|112:240,1,85,4|4,0:0|0:0,0:0:0:0:
208,240,204869,2,0,P|272:272|288:272,1,85,8|0,0:0|0:0,0:0:0:0:
352,160,205185,1,4,0:0:0:0:
224,192,205343,2,0,P|208:240|224:272,1,85,4|8,0:0|0:0,0:0:0:0:
320,240,205659,5,4,0:0:0:0:
288,128,205817,1,4,0:0:0:0:
160,160,205975,1,0,0:0:0:0:
192,272,206132,1,8,0:0:0:0:
