osu file format v9

[General]
AudioFilename: PV GUMI.mp3
AudioLeadIn: 0
PreviewTime: 66994
Countdown: 0
SampleSet: Normal
StackLeniency: 0.7
Mode: 0
LetterboxInBreaks: 1

[Editor]
Bookmarks: 6043,16325,36675,66991,87201,97307,118780,120043,140254,160307,169307,170570,190780,208464,210991,221412
DistanceSpacing: 1
BeatDivisor: 4
GridSize: 4

[Metadata]
Title:PANDA HERO
Artist:GUMI
Creator:gowww
Version:Insane
Source:Vocaloid
Tags:hachi megpoid hanyuu saymun

[Difficulty]
HPDrainRate:6
CircleSize:4
OverallDifficulty:8
ApproachRate:8
SliderMultiplier:1.9
SliderTickRate:1

[Events]
//Background and Video events
0,0,"pandahero.jpg"
//Break Periods
2,36877,45402
2,87088,96560
2,118825,118981
2,150562,159559
2,201088,207717
//Storyboard Layer 0 (Background)
//Storyboard Layer 1 (Fail)
//Storyboard Layer 2 (Pass)
//Storyboard Layer 3 (Foreground)
//Storyboard Sound Samples
//Background Colour Transformations
3,100,163,162,255

[TimingPoints]
1310,315.789473684211,4,2,0,70,1,0
5985,-100,4,2,0,0,0,0
6362,-100,4,1,0,70,0,0
66994,-100,4,1,0,80,0,1
86888,-100,4,1,0,80,0,0
120046,-100,4,1,0,80,0,1
140257,-100,4,1,0,80,0,0
140336,-100,4,1,0,70,0,0
160231,-100,4,1,0,70,0,0
169231,-100,4,2,0,45,0,0
169862,-100,4,1,0,60,0,0
170020,-100,4,1,0,65,0,0
170178,-100,4,1,0,70,0,0
170336,-100,4,1,0,75,0,0
170494,-100,4,1,0,80,0,0
170573,-100,4,1,0,80,0,1
190783,-100,4,1,0,80,0,0
193152,-100,4,1,0,70,0,0
210678,-200,4,1,0,80,0,0
210836,-100,4,1,0,80,0,0
213441,-100,4,1,0,70,0,0
215967,-100,4,1,0,60,0,0
218494,-100,4,1,0,50,0,0
221020,-200,4,1,0,0,0,0
221415,-100,4,1,0,0,0,0

[Colours]
Combo1 : 206,0,206
Combo2 : 0,145,0
Combo3 : 251,82,0

[HitObjects]
72,64,1309,1,4
72,64,1467,1,0
144,108,1625,1,0
440,320,1941,5,4
440,320,2099,1,0
364,280,2257,1,0
392,88,2573,5,4
392,88,2731,1,0
324,140,2888,1,4
256,192,3046,1,0
188,244,3204,1,4
120,296,3362,1,0
120,296,3520,1,0
256,108,3836,5,4
256,108,3994,1,0
256,24,4152,1,0
256,272,4467,5,4
256,272,4625,1,0
256,356,4783,1,0
72,192,5099,5,4
72,192,5257,1,0
164,192,5415,1,4
256,192,5573,1,0
340,192,5731,1,4
424,192,5888,1,0
424,192,6046,2,0,B|476:120|436:44|332:48,1,190,0|4
280,44,6520,5,0
208,92,6678,1,8
280,44,6836,1,0
148,24,6994,2,0,B|80:76|68:144|88:200,1,190,0|8
160,232,7467,1,0
228,180,7625,2,0,B|272:148|324:144,1,95
296,228,7941,2,0,B|332:264|348:308,1,95,8|0
264,316,8257,5,0
160,232,8415,1,0
176,316,8573,1,8
72,236,8731,1,0
96,316,8888,6,0,B|128:272|136:212|136:180|132:132,1,190,0|8
72,72,9362,1,0
152,60,9520,2,0,B|204:36|256:40,1,95
324,76,9836,1,8
404,44,9994,2,0,B|448:80|468:120,2,95
324,76,10467,5,8
208,144,10625,1,0
316,220,10783,1,0
204,292,10941,1,0
204,292,11020,1,0
204,292,11099,1,8
316,220,11257,1,0
204,292,11415,6,0,B|172:248|164:188|164:156|168:108,1,190,0|8
92,72,11888,1,0
64,156,12046,2,0,B|108:188|168:196|200:196|248:192,1,190,0|8
300,124,12520,1,0
364,68,12678,5,0
396,148,12836,1,0
364,68,12994,1,8
480,132,13152,1,0
456,264,13310,5,0
324,268,13467,1,0
436,344,13625,1,8
388,220,13783,1,0
356,352,13941,6,0,B|324:308|316:248|316:216|320:168,1,190,0|8
252,116,14415,1,0
316,60,14573,2,0,B|364:88|388:124,1,95
424,252,14888,2,0,B|376:224|352:188,1,95,8|0
280,160,15204,5,8
196,148,15362,1,0
184,232,15520,1,8
268,244,15678,1,0
348,212,15836,5,4
244,128,15994,1,4
124,184,16152,1,4
232,188,16310,6,0,B|216:136|108:96|60:124,1,190
76,208,16783,2,0,B|56:256|56:304,1,95,8|0
140,272,17099,2,0,B|144:324|140:368,1,95
224,264,17415,2,0,B|244:312|244:360,2,95
208,180,17888,5,0
240,100,18046,1,8
312,56,18204,1,0
396,36,18362,2,0,B|436:76|472:172|460:220,1,190
444,292,18836,6,0,B|364:260|260:268|232:308,1,190
180,320,19310,1,8
108,276,19467,1,0
60,204,19625,1,0
392,52,19941,6,0,B|384:108|360:148,2,95
308,36,20415,2,0,B|244:32|208:64,2,95,8|0|0
392,52,20888,2,0,B|436:92|460:168|460:228,1,190
92,300,21520,5,4
376,188,21836,1,12
92,84,22152,1,4
92,84,22310,2,0,B|152:64|208:64,2,95
52,160,22783,2,0,B|108:196|216:216|248:216,1,190,0|8
316,240,23257,5,0
400,264,23415,1,0
340,204,23573,1,0
272,152,23731,2,0,B|192:88,1,95
272,152,24046,6,0,B|188:160|124:204|100:228,1,190,0|8
160,288,24520,1,0
240,260,24678,2,0,B|248:176|292:112|316:88,1,190,0|0
396,56,25152,1,0
424,136,25310,5,8
360,252,25467,1,0
272,152,25625,1,8
220,276,25783,1,0
88,252,25941,2,0,B|80:192|124:100|184:84,1,190,4|0
236,124,26415,6,0,B|276:152|308:200,1,95
256,264,26731,1,0
302,191,26888,1,8
344,116,27046,1,0
288,52,27204,5,0
212,88,27362,1,0
288,52,27520,1,0
156,28,27678,2,0,B|112:76|84:156|80:200,1,190
88,284,28152,2,0,B|104:336|160:344,1,95,8|0
172,260,28467,2,0,B|220:216|300:188|344:184,1,190
396,116,28941,6,0,B|364:80|312:60,1,95
232,52,29257,2,0,B|176:44|124:72,2,95,0|8|0
288,168,29731,1,0
216,124,29888,1,0
288,168,30046,1,0
156,184,30204,2,0,B|136:232|172:332|232:352,1,190
300,312,30678,1,8
364,256,30836,1,0
412,184,30994,1,0
412,184,31310,1,4
72,96,31625,6,0,B|112:56|172:64,2,95,0|0|8
140,152,32099,1,0
224,128,32257,2,0,B|248:176|248:248,1,95
220,252,32494,2,0,B|264:296|328:292|356:276,1,142.5
428,316,32888,6,0,B|452:244|444:120|440:120,1,190,0|8
416,44,33362,1,0
332,52,33520,2,0,B|272:32|224:36,2,95
72,312,34152,6,0,B|304:312,1,190,0|8
348,312,34625,1,0
348,312,34783,2,0,B|372:244|404:212,1,95
476,248,35099,2,0,B|452:316|420:348,1,95
433,332,35415,5,4
78,51,35731,1,4
256,276,36046,1,4
256,192,36204,1,0
256,108,36362,2,0,B|228:76|300:52|244:8,2,95,0|0|4
260,192,46152,5,4
260,192,46310,1,0
260,192,46467,1,0
260,192,46625,6,0,B|276:244|384:284|432:256,1,190
444,180,47099,2,0,B|464:132|464:84,1,95,8|0
384,52,47415,2,0,B|332:40|280:40,1,95
200,44,47731,2,0,B|180:92|180:140,2,95
289,40,48204,5,0
300,124,48362,1,8
284,216,48520,1,0
340,280,48678,2,0,B|300:320|204:356|156:344,1,190
92,308,49152,6,0,B|60:228|68:124|108:96,1,190
152,64,49625,1,8
224,108,49783,1,0
236,192,49941,2,0,B|244:252|212:296,1,95
140,312,50257,6,0,B|148:256|168:212,2,95
212,356,50731,2,0,B|276:360|312:328,2,95,0|8|0
140,312,51204,2,0,B|96:272|72:196|72:136,1,190
420,84,51836,5,4
136,196,52152,1,12
420,300,52467,1,4
420,300,52625,2,0,B|360:320|304:320,2,95
460,224,53099,2,0,B|404:188|296:168|264:168,1,190,0|8
196,144,53573,5,0
112,120,53731,1,0
172,180,53888,1,0
240,232,54046,2,0,B|320:296,1,95
240,232,54362,6,0,B|324:224|388:180|412:156,1,190,0|8
352,96,54836,1,0
272,124,54994,2,0,B|264:208|220:272|196:296,1,190,0|0
116,328,55467,1,0
80,252,55625,5,8
148,140,55783,1,0
24,192,55941,1,8
160,220,56099,1,0
68,124,56257,2,0,B|128:132|220:88|236:28,1,190,4|0
316,56,56731,6,0,B|344:96|392:128,1,95
300,148,57046,1,0
216,156,57204,1,8
160,220,57362,1,0
208,292,57520,5,0
280,244,57678,1,0
208,292,57836,1,0
340,300,57994,2,0,B|384:252|412:172|416:128,1,190
344,84,58467,2,0,B|328:32|272:24,1,95,8|0
264,108,58783,2,0,B|216:152|136:180|92:184,1,190
128,264,59257,6,0,B|132:324|184:344,1,95
224,268,59573,2,0,B|280:276|332:248,2,95,0|8|0
208,184,60046,1,0
272,132,60204,1,0
208,184,60362,1,0
340,184,60520,2,0,B|360:136|324:36|264:16,1,190
204,72,60994,1,8
144,132,61152,1,0
108,212,61310,1,0
108,212,61625,1,4
440,288,61941,6,0,B|400:328|340:320,2,95,0|0|8
372,232,62415,1,0
288,256,62573,2,0,B|264:208|264:136,1,95
292,132,62810,2,0,B|248:88|184:92|156:108,1,142.5
84,68,63204,6,0,B|60:140|68:264|72:264,1,190,0|8
96,340,63678,1,0
180,332,63836,2,0,B|240:352|288:348,2,95
440,72,64467,6,0,B|208:72,1,190,0|8
164,72,64941,1,0
164,72,65099,2,0,B|188:140|220:172,1,95
292,160,65415,2,0,B|268:228|236:260,1,95
164,260,65731,5,8
92,148,65888,1,0
88,280,66046,1,8
168,172,66204,1,0
44,220,66362,2,0,B|120:204|236:212|252:220,1,190,4|0
336,52,66994,6,0,B|380:80|440:156,1,142.5,4|0
448,196,67310,2,0,B|392:200|312:252|304:276,1,142.5,8|0
352,288,67625,2,0,B|344:228|280:152|264:160,1,142.5
284,124,67941,2,0,B|256:76|216:52,1,95,8|0
136,68,68257,6,0,B|80:88|64:136,1,95,0|0
80,212,68573,2,0,B|136:192|152:144,1,95,8|0
208,216,68888,1,0
292,236,69046,1,0
376,212,69204,2,0,B|408:152|408:112|408:56|396:24,1,190,8|0
316,52,69678,5,0
200,116,69836,1,8
332,132,69994,1,0
236,40,70152,2,0,B|160:56|112:140|144:200,1,190,0|8
204,228,70625,5,0
204,312,70783,1,8
276,200,70941,1,0
280,332,71099,1,8
352,176,71257,1,0
356,348,71415,2,0,B|404:296|452:200|464:164,1,190,4|0
72,188,72046,6,0,B|96:136|136:100|180:72,1,142.5,4|0
200,104,72362,2,0,B|224:156|224:220|216:252,1,142.5,8|0
180,224,72678,2,0,B|224:192|300:196|320:204,1,142.5
344,236,72994,2,0,B|376:188|392:136,1,95,8|0
344,76,73310,6,0,B|296:44|248:40,1,95
200,104,73625,2,0,B|248:136|296:140,1,95,8|0
240,212,73941,1,0
288,284,74099,1,0
240,352,74257,2,0,B|172:356|96:316|68:280,1,190,8|0
100,200,74731,5,0
156,136,74888,1,8
212,200,75046,1,0
100,276,75204,5,12
36,160,75362,1,0
132,68,75520,1,12
248,136,75678,1,0
156,232,75836,6,0,B|168:164|124:92|68:72,1,190,4|0
356,152,76467,2,0,B|344:220|388:292|444:312,1,190,4|0
180,56,77099,6,0,B|176:100|172:124|144:168|128:192,1,142.5,4|0
172,200,77415,2,0,B|176:244|180:268|208:312|224:336,1,142.5,8|0
180,340,77731,2,0,B|224:336|248:332|292:304|316:288,1,142.5,0|0
352,284,78046,2,0,B|352:228|328:176,1,95,8|0
392,128,78362,6,0,B|384:76|340:44,1,95
260,40,78678,2,0,B|268:92|312:124,1,95,8|0
260,192,78994,1,0
260,192,79152,1,0
260,192,79310,2,0,B|228:244|176:280|124:300|92:304,1,190,8|0
76,224,79783,5,0
52,144,79941,1,8
136,164,80099,1,0
212,120,80257,2,0,B|260:88|300:80,1,95
352,16,80573,2,0,B|392:52|392:104,1,95,8|0
412,184,80888,5,8
312,272,81046,1,0
444,256,81204,1,8
328,192,81362,1,0
384,312,81520,2,0,B|360:248|244:192|228:208,1,190,4|0
40,48,82152,6,0,B|96:40|164:52|164:68|188:76,1,142.5,4|0
220,60,82467,2,0,B|188:112|164:192|168:204,1,142.5,8|0
124,196,82783,2,0,B|96:248|108:300|132:332,1,142.5
172,312,83099,2,0,B|228:300|272:308,1,95,8|0
348,276,83415,6,0,B|396:256|440:228,1,95
376,168,83731,2,0,B|396:120|424:76,1,95,8|0
340,56,84046,1,0
419,83,84204,1,0
340,56,84362,2,0,B|264:48|192:80|168:124,1,190,8|0
215,193,84836,5,0
215,277,84994,1,8
299,277,85152,1,0
295,193,85310,1,8
167,233,85467,5,0
256,332,85625,1,12
345,233,85783,1,0
256,140,85941,6,0,B|220:100|168:92|124:104,1,142.5,4|0
84,92,86257,2,0,B|120:52|172:44|216:56,1,142.5,4|0
256,56,86573,2,0,B|220:16|168:8|124:20,1,142.5,4|0
125,19,86888,1,4
352,48,97310,5,4
128,72,97546,6,0,B|112:132,1,47.5
124,204,97783,1,0
208,180,97941,1,0
292,156,98099,1,0
372,184,98257,1,0
332,260,98415,1,0
248,284,98573,6,0,B|192:316|100:324|56:316,1,190,0|8
63,317,99046,2,0,B|40:264|28:224,2,95
120,252,99520,1,0
92,172,99678,1,0
48,100,99836,5,0
132,100,99994,1,0
48,100,100152,1,8
132,100,100310,2,0,B|208:100|240:112,2,95
92,24,100783,5,0
176,24,100941,1,0
260,40,101099,2,0,B|312:52|348:92|360:140|344:192,1,190,0|8
380,264,101573,2,0,B|368:212|328:176|280:164|228:180,1,190
236,264,102046,2,0,B|220:312|172:336,1,95
100,296,102362,5,0
12,196,102520,1,0
144,172,102678,1,8
100,296,102836,2,0,B|112:236|104:124|88:92,1,190
93,107,103310,1,0
93,107,103467,1,0
93,107,103625,6,0,B|148:56|184:44,1,95
212,124,103941,2,0,B|266:72|302:60,2,95,8|0|0
212,124,104336,1,0
212,124,104415,2,0,B|228:160|232:184|224:232,2,95
152,184,104888,6,0,B|188:160|236:152|300:152|344:160,1,190,0|8
340,72,105362,2,0,B|316:108|308:156|308:220|316:264,1,190
400,264,105836,2,0,B|444:296|464:336,1,95
380,360,106152,5,0
320,300,106310,1,0
252,352,106467,1,8
192,292,106625,1,0
252,352,106783,5,0
228,220,106941,1,0
104,264,107099,1,0
148,192,107257,1,0
212,132,107415,5,0
296,136,107573,1,0
212,132,107731,1,8
296,136,107888,2,0,B|352:152|388:192,2,95
296,136,108283,1,0
296,136,108362,1,0
256,60,108520,1,0
172,52,108678,6,0,B|120:72|80:112,1,95
136,176,108994,2,0,B|144:224|132:272,1,95,8|0
64,324,109310,1,0
132,270,109467,1,0
216,260,109625,1,0
296,236,109783,1,0
380,216,109941,6,0,B|396:168|404:104,1,95
316,124,110257,2,0,B|280:72|252:48,2,95,8|0|0
240,168,110731,1,0
176,116,110888,1,0
92,140,111046,1,0
32,76,111204,6,0,B|84:28|200:16|220:32,1,190,0|8
296,48,111678,1,0
376,76,111836,6,0,B|416:108|436:168,1,95
352,192,112152,2,0,B|352:252|336:296,1,95
260,320,112467,1,0
180,288,112625,1,0
260,320,112783,1,8
196,204,112941,2,0,B|160:168|108:152,2,95
196,204,113415,1,0
196,204,113573,1,0
196,204,113731,6,0,B|232:168|284:152,1,95,0|0
348,108,114046,1,8
268,72,114204,1,0
348,108,114362,2,0,B|296:56|216:32|168:32,1,190
96,56,114836,1,0
56,132,114994,6,0,B|32:232,1,95
120,220,115310,2,0,B|112:320,1,95,8|0
208,224,115625,2,0,B|232:320,1,95
231,316,115862,1,0
231,316,115941,2,0,B|280:280|324:312|412:264,1,190
412,180,116415,5,0
384,100,116573,1,8
324,160,116731,1,0
412,180,116888,5,8
452,52,117046,1,0
320,48,117204,1,8
208,124,117362,1,0
88,68,117520,2,0,B|48:112|40:168,2,95,8|0|8
172,44,117994,6,0,B|196:88|192:184|172:240,1,190
175,230,118467,1,4
175,230,118625,1,4
256,56,119731,5,4
256,56,119888,1,0
256,56,119967,1,0
256,56,120046,2,0,B|292:104|304:172|304:200,1,142.5,4|0
348,188,120362,2,0,B|320:264|272:316,1,142.5,8|0
236,316,120678,2,0,B|184:280|96:264,1,142.5
64,276,120994,2,0,B|52:224|64:180,1,95,8|0
32,100,121310,6,0,B|88:72|136:72,1,95
200,108,121625,2,0,B|256:80|304:80,1,95,8|0
372,56,121941,1,0
428,120,122099,1,0
480,188,122257,2,0,B|420:276|308:312,1,190,8|0
252,272,122731,5,0
176,236,122888,1,8
184,320,123046,1,0
316,324,123204,5,8
280,196,123362,1,0
152,164,123520,1,8
76,52,123678,1,0
156,80,123836,6,0,B|200:56|248:48,2,95,0|0|8
152,164,124310,1,0
72,136,124467,2,0,B|32:184|16:252|20:296|24:336,1,190,4|0
372,320,125099,6,0,B|408:272|420:224|420:184,1,142.5,4|0
444,152,125415,2,0,B|388:136|324:100|300:68,1,142.5,8|0
308,44,125731,2,0,B|256:44|200:64|168:88,1,142.5
132,76,126046,2,0,B|120:128|124:176,1,95,8|0
180,236,126362,6,0,B|220:192|272:168,1,95
332,212,126678,2,0,B|292:256|240:280,1,95,8|0
184,316,126994,1,0
108,276,127152,1,0
108,192,127310,2,0,B|136:128|216:76|256:64,1,190,8|0
332,76,127783,5,0
408,116,127941,1,8
332,160,128099,1,0
264,44,128257,5,12
396,36,128415,1,0
476,140,128573,1,12
372,224,128731,1,0
256,164,128888,6,0,B|208:144|152:96,1,95,4|0
116,52,129204,2,0,B|84:104|88:208|100:244,2,190,0|4|0
232,328,130152,6,0,B|276:280|352:244,1,142.5,4|0
384,224,130467,2,0,B|364:156|324:108|304:100,1,142.5,8|0
276,128,130783,2,0,B|216:148|136:132|132:112,1,142.5
108,88,131099,2,0,B|52:116|24:164,1,95,8|0
56,232,131415,6,0,B|80:276|120:304,1,95
176,236,131731,2,0,B|200:280|240:308,1,95,8|0
316,272,132046,1,0
316,272,132204,1,0
316,272,132362,2,0,B|356:240|432:156|460:112,1,190,8|0
388,68,132836,5,0
445,133,132994,1,8
368,168,133152,1,0
308,108,133310,2,0,B|260:76|220:68,1,95
168,4,133625,2,0,B|128:40|128:92,1,95,8|0
80,160,133941,5,8
164,164,134099,1,0
52,236,134257,1,8
184,240,134415,1,0
116,288,134573,2,0,B|112:200|120:152|124:72,1,190,4|0
472,48,135204,6,0,B|416:40|348:52|348:68|324:76,1,142.5,4|0
292,60,135520,2,0,B|324:112|348:192|344:204,1,142.5,8|0
388,196,135836,2,0,B|416:248|404:300|380:332,1,142.5
340,312,136152,2,0,B|284:300|240:308,1,95,8|0
164,276,136467,6,0,B|116:256|72:228,1,95
136,168,136783,2,0,B|116:120|88:76,1,95,8|0
172,56,137099,1,0
200,128,137257,1,0
172,56,137415,2,0,B|248:48|320:80|344:124,1,190,8|0
297,193,137888,5,0
297,277,138046,1,8
216,192,138204,1,0
212,276,138362,1,8
140,232,138520,5,0
252,304,138678,1,12
368,236,138836,1,0
252,168,138994,6,0,B|288:128|340:120|384:132,1,142.5,4|0
412,164,139309,2,0,B|452:200|460:252|448:296,1,142.5,4|0
424,328,139625,2,0,B|388:368|336:376|292:364,1,142.5,4|0
252,348,139941,2,0,B|192:312|116:308|60:320,1,190,0|4
68,318,140415,5,0
68,318,140573,1,4
256,48,140888,5,4
256,48,141046,1,0
256,48,141204,1,0
443,318,141520,5,4
443,318,141678,1,0
443,318,141836,1,0
443,318,141994,1,0
443,318,142152,6,0,B|352:256,1,95,4|0
69,318,142467,2,0,B|160:256,1,95,4|0
256,48,142783,1,4
256,192,142941,1,0
256,336,143099,1,4
256,336,143415,5,4
256,336,143573,1,0
256,336,143731,1,0
256,48,144046,5,4
256,48,144204,1,0
256,48,144362,1,0
256,48,144520,1,0
256,48,144678,6,0,B|256:160,1,95,4|0
256,228,144994,2,0,B|256:328,2,95,0|0|4
256,192,145467,12,4,150362
160,56,160309,6,0,B|132:108|132:156,1,95
48,128,160625,1,0
48,128,160783,2,0,B|104:128|192:184|212:232,1,190,8|0
206,221,161257,1,0
206,221,161415,6,0,B|256:200|312:200,2,95,8|0|0
160,292,161888,1,0
244,300,162046,2,0,B|280:224|344:152|376:128,2,190,8|0|0
160,292,162836,6,0,B|108:284|48:292,2,95
160,292,163309,1,8
160,292,163467,1,0
128,212,163625,2,0,B|108:160|112:88|140:24,1,190,0|8
52,36,164099,2,0,B|104:16|176:20|240:48,1,190
324,32,164573,1,8
324,32,164731,1,0
324,32,164888,2,0,B|304:84|308:156|336:220,1,190,0|8
68,324,165520,6,0,B|104:280|148:248|184:232,1,142.5,4|0
172,192,165836,2,0,B|148:136|112:88|84:72,1,142.5,8|0
60,108,166152,2,0,B|120:104|208:68,1,142.5,4|0
236,52,166467,2,0,B|260:96|260:160,1,95,8|0
340,112,166783,6,0,B|392:176|392:280|376:312,2,190,0|8|0
280,176,167573,2,0,B|244:216|180:248,2,95,0|8|0
200,144,168046,2,0,B|136:136|44:192|36:272,1,190,0|8
80,314,168520,1,0
132,248,168678,2,0,B|196:240|288:296|296:376,1,190,0|8
341,273,169152,1,0
340,272,169309,5,0
460,212,169467,1,0
388,100,169625,1,0
268,156,169783,1,0
364,184,169941,5,0
364,184,170099,1,4
364,184,170257,1,4
364,184,170415,1,4
388,100,170573,6,0,B|356:52|292:40|252:40,1,142.5,4|0
232,72,170888,2,0,B|236:124|200:184|172:204,1,142.5,8|0
136,192,171204,2,0,B|96:244|92:296|100:332,1,142.5
140,316,171520,2,0,B|196:312|244:328,1,95,8|0
264,244,171836,6,0,B|320:264|336:312,1,95
264,244,172152,2,0,B|208:224|192:176,1,95,8|0
272,148,172467,1,0
148,104,172625,1,0
96,228,172783,2,0,B|44:172|40:124|64:72|84:44,1,190,8|0
148,104,173257,5,0
276,68,173415,1,8
196,40,173573,1,0
272,148,173731,2,0,B|348:164|396:248|364:308,1,190,0|8
292,252,174204,5,0
292,336,174362,1,8
216,228,174520,1,0
212,360,174678,1,8
140,200,174836,1,0
132,380,174994,2,0,B|84:328|36:232|24:196,1,190,4|0
440,188,175625,6,0,B|416:136|376:100|332:72,1,142.5,4|0
304,72,175941,2,0,B|328:124|328:188|320:220,1,142.5,8|0
360,232,176257,2,0,B|316:200|240:204|220:212,1,142.5
204,248,176573,2,0,B|172:200|156:148,1,95,8|0
136,80,176888,6,0,B|184:48|232:44,1,95
304,72,177204,2,0,B|336:120|340:168,1,95,8|0
272,212,177520,1,0
324,280,177678,1,0
252,324,177836,2,0,B|320:328|396:288|424:252,1,190,8|0
440,168,178309,5,0
404,92,178467,1,8
348,156,178625,1,0
444,248,178783,5,12
508,132,178941,1,0
436,20,179099,1,12
304,32,179257,1,0
348,156,179415,6,0,B|336:224|380:296|436:316,1,190,4|0
164,228,180046,2,0,B|176:160|132:88|76:68,1,190,4|0
304,32,180678,6,0,B|348:36|372:40|416:68|440:84,1,142.5,4|0
464,116,180994,2,0,B|460:160|456:184|428:228|412:252,1,142.5,8|0
400,288,181309,2,0,B|356:284|332:280|288:252|264:236,1,142.5,0|0
240,204,181625,2,0,B|240:148|264:96,1,95,8|0
184,68,181941,6,0,B|132:76|100:120,1,95
140,192,182257,2,0,B|132:244|88:276,1,95,8|0
44,200,182573,1,0
44,200,182731,1,0
44,200,182888,2,0,B|76:252|128:288|180:308|212:312,1,190,8|0
276,284,183362,5,0
360,260,183520,1,8
444,240,183678,1,0
384,180,183836,2,0,B|336:148|296:140,1,95
252,68,184152,2,0,B|212:104|212:156,1,95,8|0
160,220,184467,5,8
260,308,184625,1,0
128,292,184783,1,8
244,228,184941,1,0
188,348,185099,2,0,B|212:284|328:228|344:244,1,190,4|0
40,48,185731,6,0,B|96:40|164:52|164:68|188:76,1,142.5,4|0
212,48,186046,2,0,B|244:100|268:180|264:192,1,142.5,8|0
236,212,186362,2,0,B|208:264|220:316|244:348,1,142.5
284,332,186678,1,8
344,272,186836,6,0,B|340:216|368:172|336:68,1,190
212,48,187309,1,8
88,92,187467,1,0
212,140,187625,2,0,B|156:152|108:208|96:236|96:280,2,190,0|8|0
256,212,188415,5,0
312,276,188573,1,8
240,324,188731,1,0
256,212,188888,5,8
388,220,189046,1,0
372,352,189204,1,12
240,324,189362,1,0
256,212,189520,6,0,B|216:176|208:124|220:80,1,142.5,4|0
260,92,189836,2,0,B|224:52|172:44|128:56,1,142.5,4|0
100,24,190152,2,0,B|60:60|52:112|64:156,1,142.5,4|0
84,192,190467,1,4
256,192,190783,12,0,192994
256,40,193309,5,4
472,192,193625,1,4
256,344,193941,1,4
40,192,194257,1,4
256,40,194573,6,0,B|244:104|272:144|248:240,2,190
256,40,195520,1,4
256,192,195836,12,4,200888
204,108,208467,6,0,B|160:136|160:192,1,95,4|0
308,276,208783,2,0,B|352:248|352:192,1,95
436,92,209099,2,0,B|408:48|352:48,1,95,4|0
76,292,209415,2,0,B|104:336|160:336,1,95
256,192,209731,1,4
256,192,210046,1,0
256,192,210362,1,4
256,192,210520,1,0
256,192,210678,6,0,B|256:128,1,47.5
256,60,210994,6,0,B|196:44|124:56|84:60|44:88,2,190,4|8|0
328,104,211783,2,0,B|364:144|384:208,1,95,0|8
444,132,212099,2,0,B|368:172|316:264|304:304,1,190
317,270,212494,1,0
317,270,212573,2,0,B|260:256|184:264,1,95,8|0
148,304,212888,2,0,B|144:208,1,95
20,160,213204,2,0,B|44:60,1,95,8|0
124,44,213520,6,0,B|200:28|292:40|332:60,2,190,4|8|0
136,132,214309,2,0,B|124:180|136:248,1,95,0|8
212,196,214625,2,0,B|276:212|364:272|388:312,1,190
373,292,215020,1,0
373,292,215099,1,8
373,292,215257,1,0
428,228,215415,2,0,B|364:152,1,95
284,48,215731,2,0,B|188:68,1,95,8|0
108,44,216046,6,0,B|64:100|52:180|56:228,2,190,4|8|0
152,120,216836,2,0,B|192:172|208:228,1,95,0|8
148,264,217152,2,0,B|204:296|308:288|336:280,1,190
334,280,217546,1,0
334,280,217625,2,0,B|356:236|368:184,1,95,8|0
432,136,217941,2,0,B|360:72,1,95
260,160,218257,2,0,B|168:192,1,95,8|0
96,236,218573,6,0,B|132:308|212:328|256:336,2,190,4|8|0
52,160,219362,1,0
124,112,219520,1,8
200,72,219678,2,0,B|260:60|364:68|416:76,1,190
389,72,220073,1,0
389,72,220152,1,8
389,72,220309,1,0
424,152,220467,2,0,B|428:256,1,95
300,280,220783,2,0,B|204:328,1,95,8|0
256,192,221099,6,0,B|256:96,1,95
