osu file format v9

[General]
AudioFilename: PV GUMI.mp3
AudioLeadIn: 0
PreviewTime: 66994
Countdown: 0
SampleSet: Normal
StackLeniency: 0.7
Mode: 0
LetterboxInBreaks: 1

[Editor]
Bookmarks: 6043,16325,24043,36675,66991,76464,87201,97307,98570,118780,120043,140254,150359,160307,169307,190780,208464,221412
DistanceSpacing: 0.7
BeatDivisor: 4
GridSize: 4

[Metadata]
Title:PANDA HERO
Artist:GUMI
Creator:gowww
Version:Easy
Source:Vocaloid
Tags:hachi megpoid hanyuu saymun

[Difficulty]
HPDrainRate:1
CircleSize:3
OverallDifficulty:2
ApproachRate:2
SliderMultiplier:0.600000005960464
SliderTickRate:0.5

[Events]
//Background and Video events
0,0,"pandahero.jpg"
//Break Periods
2,36562,45223
2,87404,97013
//Storyboard Layer 0 (Background)
//Storyboard Layer 1 (Fail)
//Storyboard Layer 2 (Pass)
//Storyboard Layer 3 (Foreground)
//Storyboard Sound Samples
//Background Colour Transformations
3,100,163,162,255

[TimingPoints]
1310,315.789473684211,4,2,0,70,1,0
5985,-100,4,2,0,0,0,0
6362,-100,4,1,0,70,0,0
66994,-100,4,1,0,80,0,1
86888,-100,4,1,0,80,0,0
120046,-100,4,1,0,80,0,1
140257,-100,4,2,0,80,0,0

[Colours]
Combo1 : 206,0,206
Combo2 : 0,145,0
Combo3 : 251,82,0

[HitObjects]
56,80,1309,2,0,B|208:80,1,120.000001192093,4|0
176,164,2573,2,0,B|308:164,1,120.000001192093
380,164,3836,2,0,B|380:300,1,120.000001192093,4|0
296,284,5099,2,0,B|164:284,1,120.000001192093
136,284,6046,2,0,B|64:284,1,60.0000005960464
76,200,6994,5,4
40,124,7625,2,0,B|84:68|136:36,1,120.000001192093,8|0
212,36,8888,1,8
284,80,9520,1,0
360,40,10152,2,0,B|404:84|424:156,1,120.000001192093,8|0
460,216,11415,6,0,B|412:256|308:296|228:300|232:296,1,240.000002384186,12|8
160,332,13310,1,0
100,272,13941,2,0,B|60:212|56:112|60:92,1,180.000001788139,8|0
88,68,15204,1,8
128,60,15520,1,0
168,52,15836,1,8
208,48,16152,1,0
248,40,16467,6,0,B|320:28|388:40,1,120.000001192093,12|0
444,76,17731,2,0,B|452:140|444:204,1,120.000001192093,8|0
416,276,18994,1,8
344,320,19625,1,0
296,252,20257,1,8
296,252,20573,1,0
296,252,20888,1,0
228,304,21520,6,0,B|156:324|104:324,1,120.000001192093,8|0
64,256,22783,2,0,B|44:184|44:132,1,120.000001192093,8|0
80,60,24046,2,0,B|152:40|204:40,1,120.000001192093,8|0
272,84,25310,1,8
272,84,25625,1,0
272,84,25941,1,0
348,44,26573,6,8,B|412:76|456:120,1,120.000001192093
476,192,27836,2,0,B|476:272,2,60.0000005960464,8|0|0
392,180,29099,2,0,B|332:216|312:284,1,120.000001192093,8|0
256,328,30362,2,0,B|180:328,2,60.0000005960464,8|0|0
248,244,31625,6,0,B|172:236|88:196|56:168,1,180.000001788139,8|0
80,144,32888,2,0,B|156:136|240:96|272:68,1,180.000001788139,8|0
288,72,34152,2,0,B|296:148|336:232|364:264,1,180.000001788139,8|0
364,280,35415,1,8
400,256,35731,1,0
436,232,36046,1,8
468,208,36362,1,4
264,344,46783,6,0,B|192:356|124:344,1,120.000001192093,12|0
68,308,48046,2,0,B|60:244|68:180,1,120.000001192093,8|0
96,108,49310,1,8
168,64,49941,1,0
216,132,50573,1,8
216,132,50888,1,0
216,132,51204,1,0
284,80,51836,6,0,B|356:60|408:60,1,120.000001192093,8|0
448,128,53099,2,0,B|468:200|468:252,1,120.000001192093,8|0
432,324,54362,2,0,B|360:344|308:344,1,120.000001192093,8|0
240,300,55625,1,8
240,300,55941,1,0
240,300,56257,1,0
164,340,56888,6,0,B|100:308|56:264,1,120.000001192093,8|0
36,192,58152,2,0,B|36:112,2,60.0000005960464,8|0|0
120,204,59415,2,0,B|180:168|200:100,1,120.000001192093,8|0
256,56,60678,2,0,B|332:56,2,60.0000005960464,8|0|0
264,140,61941,6,0,B|340:148|424:188|456:216,1,180.000001788139,8|0
432,240,63204,2,0,B|356:248|272:288|240:316,1,180.000001788139,8|0
224,312,64467,2,0,B|216:236|176:152|148:120,1,180.000001788139,8|0
136,112,65731,1,8
104,84,66046,1,0
72,60,66362,1,4
32,136,66994,6,0,B|20:200|20:268|40:328,1,180.000001788139,4|0
76,320,68257,2,0,B|140:308|208:308|268:328,1,180.000001788139,8|0
292,308,69520,2,0,B|324:244|344:192,1,120.000001192093,8|0
312,120,70783,1,8
312,120,71099,1,0
312,120,71415,1,8
256,56,72046,6,0,B|176:44|88:68|44:112,1,180.000001788139,4|0
40,88,73310,2,0,B|28:168|52:256|96:300,1,180.000001788139,8|0
92,296,74573,2,0,B|160:264|220:264,1,120.000001192093,8|0
260,200,75836,1,8
300,216,76152,1,0
340,232,76467,1,8
416,268,77099,6,0,B|448:204|460:132|460:88,1,180.000001788139,4|0
460,52,78362,2,0,B|396:84|324:96|280:96,1,180.000001788139,8|0
264,60,79625,2,0,B|196:32|144:40,1,120.000001192093,8|0
104,112,80888,2,0,B|44:144,2,60.0000005960464,8|0|8
188,124,82152,6,0,B|232:172|240:252|232:296,1,180.000001788139,4|0
272,300,83415,2,0,B|320:344|400:352|444:344,1,180.000001788139,8|0
468,312,84678,2,0,B|488:256|488:188,1,120.000001192093,8|0
444,124,85941,5,8
404,116,86257,1,0
364,108,86573,1,8
324,104,86888,1,0
284,96,87204,1,12
136,76,98573,6,0,B|208:48|264:84|332:40,2,180.000001788139,12|0|0
156,156,101099,2,0,B|184:228|148:284|192:352,2,180.000001788139,8|0|0
240,152,103625,2,0,B|312:180|368:144|436:188,2,180.000001788139,8|0|0
164,192,106152,2,0,B|136:120|172:64|128:-4,2,180.000001788139,8|8|0
124,264,108678,6,0,B|176:300|260:300,1,120.000001192093,12|0
256,216,109941,2,0,B|308:180|392:180,1,120.000001192093,0|0
448,204,111204,2,0,B|484:152|484:68,1,120.000001192093,8|0
404,64,112467,2,0,B|352:28|268:28,1,120.000001192093
208,48,113731,5,8
208,48,114362,1,0
136,92,114994,1,0
136,92,115625,1,0
88,160,116257,2,0,B|56:216,1,60.0000005960464,8|0
64,252,116888,2,0,B|112:312,1,60.0000005960464,8|0
140,312,117520,2,0,B|224:296|320:300|380:316,1,240.000002384186,8|4
480,136,120046,6,0,B|492:200|492:268|472:328,1,180.000001788139,4|0
436,320,121310,2,0,B|372:308|304:308|244:328,1,180.000001788139,8|0
220,308,122573,2,0,B|188:244|168:192,1,120.000001192093,8|0
200,120,123836,1,8
200,120,124152,1,0
200,120,124467,1,8
256,56,125099,6,0,B|336:44|424:68|468:112,1,180.000001788139,4|0
472,88,126362,2,0,B|484:168|460:256|416:300,1,180.000001788139,8|0
420,296,127625,2,0,B|352:264|292:264,1,120.000001192093,8|0
252,200,128888,1,8
212,216,129204,1,0
172,232,129520,1,8
96,268,130152,6,0,B|64:204|52:132|52:88,1,180.000001788139,4|0
52,52,131415,2,0,B|116:84|188:96|232:96,1,180.000001788139,8|0
248,60,132678,2,0,B|316:32|368:40,1,120.000001192093,8|0
408,112,133941,2,0,B|468:144,2,60.0000005960464,8|0|8
324,124,135204,6,0,B|280:172|272:252|280:296,1,180.000001788139,4|0
240,300,136467,2,0,B|192:344|112:352|68:344,1,180.000001788139,8|0
44,312,137731,2,0,B|24:256|24:188,1,120.000001192093,8|0
68,124,138994,5,8
108,116,139309,1,0
148,108,139625,1,8
188,104,139941,1,0
228,100,140257,6,0,B|268:96|324:104|356:120,1,120.000001192093
404,176,141520,2,0,B|408:216|400:272|384:304,1,120.000001192093,0|0
308,316,142783,2,0,B|268:320|212:312|180:296,1,120.000001192093,0|0
256,192,143731,12,4,150362
