osu file format v12

[General]
AudioFilename: kamisama nejimaki.mp3
AudioLeadIn: 0
PreviewTime: 106942
Countdown: 1
SampleSet: None
StackLeniency: 0.7
Mode: 1
LetterboxInBreaks: 1
WidescreenStoryboard: 1

[Editor]
DistanceSpacing: 0.8
BeatDivisor: 4
GridSize: 8

[Metadata]
Title:Kamisama Nejimaki
TitleUnicode:Kamisama Nejimaki
Artist:GUMI
ArtistUnicode:GUMI
Creator:-[ ix Ishida xi ]-
Version:-[ ix IshidaTaikonari xi ]- [ NSC ]
Source:
Tags:
BeatmapID:311791
BeatmapSetID:121731

[Difficulty]
HPDrainRate:7
CircleSize:5
OverallDifficulty:7
ApproachRate:5
SliderMultiplier:1.6
SliderTickRate:1

[Events]
//Background and Video events
0,0,"TKBG.png",0,0
//Break Periods
//Storyboard Layer 0 (Background)
//Storyboard Layer 1 (Fail)
//Storyboard Layer 2 (Pass)
//Storyboard Layer 3 (Foreground)
//Storyboard Sound Samples
//Background Colour Transformations
3,100,163,162,255

[TimingPoints]
6060,422.535211267606,4,1,0,50,1,0
7644,-100,4,1,0,50,0,0
10288,211.267605633803,4,1,0,70,1,0
10393,-100,4,1,0,70,0,0
10499,-100,4,1,0,70,0,0
10604,-100,4,1,0,70,0,0
10710,-100,4,1,0,70,0,0
10816,-100,4,1,0,70,0,0
10921,-100,4,1,0,70,0,0
11027,-100,4,1,0,70,0,1
17576,-100,4,1,0,70,0,0
17788,-100,4,1,0,70,0,1
24495,-100,4,1,0,70,0,0
24548,-100,4,1,0,70,0,1
24601,-100,4,1,0,55,0,0
31309,-100,4,1,0,55,0,1
31361,-100,4,1,0,55,0,0
38069,-100,4,1,0,55,0,1
38122,-100,4,1,0,55,0,0
44090,-100,4,1,0,55,0,1
44143,-100,4,1,0,55,0,0
44513,-100,4,1,0,55,0,1
44566,-100,4,1,0,55,0,0
44830,-100,4,1,0,55,0,1
44883,-100,4,1,0,55,0,0
46626,-100,4,1,0,55,0,1
46678,-100,4,1,0,55,0,0
46942,-100,4,1,0,55,0,1
46995,-100,4,1,0,55,0,0
47259,-100,4,1,0,55,0,1
47312,-100,4,1,0,55,0,0
47576,-100,4,1,0,55,0,1
47629,-100,4,1,0,55,0,0
47893,-100,4,1,0,55,0,1
47946,-100,4,1,0,55,0,0
48316,-100,4,1,0,55,0,0
50006,-100,4,1,0,55,0,1
50059,-100,4,1,0,55,0,0
50957,-100,4,1,0,55,0,0
51062,-100,4,1,0,55,0,0
51168,-100,4,1,0,55,0,0
51273,-100,4,1,0,55,0,1
51300,-100,4,1,0,55,0,0
51326,-100,4,1,0,55,0,1
51353,-100,4,1,0,55,0,0
51379,-100,4,1,0,55,0,1
51405,-100,4,1,0,55,0,0
51432,-100,4,1,0,55,0,1
51458,-100,4,1,0,55,0,0
51485,-100,4,1,0,55,0,1
51511,-100,4,1,0,55,0,0
51538,-100,4,1,0,55,0,1
51564,-100,4,1,0,55,0,0
51590,-100,4,1,0,70,0,1
57981,-100,4,1,0,70,0,0
58034,-100,4,1,0,70,0,1
58087,-100,4,1,0,70,0,0
58140,-100,4,1,0,70,0,0
58351,-100,4,1,0,70,0,1
58404,-100,4,1,0,70,0,1
66749,-100,4,1,0,70,0,0
66802,-100,4,1,0,70,0,1
66854,-100,4,1,0,70,0,0
73351,-100,4,1,0,70,0,0
73562,-100,4,1,0,70,0,1
73615,-100,4,1,0,70,0,0
80217,-100,4,1,0,70,0,0
80323,-100,4,1,0,70,0,1
80376,-100,4,1,0,70,0,0
94055,-100,4,1,0,70,0,0
97224,-100,4,1,0,70,0,1
97277,-100,4,1,0,70,0,0
100604,-100,4,1,0,70,0,1
100657,-100,4,1,0,70,0,0
102400,-100,4,1,0,70,0,0
102717,-100,4,1,0,70,0,0
103034,-100,4,1,0,70,0,0
103351,-100,4,1,0,70,0,0
103668,-100,4,1,0,70,0,0
104196,-100,4,1,0,45,0,0
105780,-100,4,1,0,70,0,1
105833,-100,4,1,0,70,0,0
105886,-100,4,1,0,70,0,1
105939,-100,4,1,0,70,0,0
105992,-100,4,1,0,70,0,1
106045,-100,4,1,0,70,0,0
106097,-100,4,1,0,70,0,1
106150,-100,4,1,0,70,0,0
106309,-100,4,1,0,70,0,1
106361,-100,4,1,0,70,0,0
106520,-100,4,1,0,70,0,1
106573,-100,4,1,0,70,0,0
106731,-100,4,1,0,70,0,0
106837,-100,4,1,0,70,0,0
106942,-100,4,1,0,70,0,0
107365,-100,4,1,0,70,0,1
114073,-100,4,1,0,70,0,0
114126,-100,4,1,0,70,0,1
122629,-100,4,1,0,60,0,0
129337,-100,4,1,0,60,0,1
129390,-100,4,1,0,60,0,0
136097,-100,4,1,0,60,0,1
142118,-100,4,1,0,60,0,1
143016,-100,4,1,0,60,0,1
149566,-100,4,1,0,60,0,0
149618,-100,4,1,0,70,0,1
156062,-100,4,1,0,70,0,0
156379,-100,4,1,0,70,0,1
160288,-100,4,1,0,70,0,1
160499,-100,4,1,0,70,0,1
160710,-100,4,1,0,70,0,1
160921,-100,4,1,0,70,0,1
161133,-100,4,1,0,70,0,1
161238,-100,4,1,0,70,0,1
162770,-100,4,1,0,70,0,0
162823,-100,4,1,0,70,0,1
162876,-100,4,1,0,70,0,0
162928,-100,4,1,0,70,0,1
162981,-100,4,1,0,70,0,0
163140,-100,4,1,0,70,0,1
163192,-100,4,1,0,55,0,0
169900,-100,4,1,0,70,0,1
169953,-100,4,1,0,70,0,0
171696,-100,4,1,0,70,0,0
172013,-100,4,1,0,70,0,0
172330,-100,4,1,0,70,0,0
172647,-100,4,1,0,70,0,0
172964,-100,4,1,0,70,0,0
173280,-100,4,1,0,70,0,1
173333,-100,4,1,0,70,0,0
176766,-100,4,1,0,70,0,0
178351,-100,4,1,0,70,0,1
178457,-100,4,1,0,50,0,0
183421,-100,4,1,0,50,0,0
184372,-100,4,1,0,50,0,1
184425,-100,4,1,0,50,0,0
184795,-100,4,1,0,50,0,0
184900,-100,4,1,0,50,0,0
185111,-100,4,1,0,70,0,1
189971,-100,4,1,0,70,0,0
190182,-100,4,1,0,70,0,1
190235,-100,4,1,0,70,0,0
193562,-100,4,1,0,70,0,1
202013,-100,4,1,0,70,0,0
205393,-100,4,1,0,70,0,1
212154,-100,4,1,0,70,0,0
212154,-100,4,1,0,70,0,0
212365,-100,4,1,0,70,0,0
212471,-100,4,1,0,70,0,1
218122,-100,4,1,0,70,0,0
218175,-100,4,1,0,70,0,1
218228,-100,4,1,0,70,0,0
218280,-100,4,1,0,70,0,1
218333,-100,4,1,0,70,0,0
218386,-100,4,1,0,70,0,1
218439,-100,4,1,0,70,0,0
218492,-100,4,1,0,70,0,1
218545,-100,4,1,0,70,0,0
218597,-100,4,1,0,70,0,1
218650,-100,4,1,0,70,0,0

[HitObjects]
256,192,6059,12,0,7591,0:0:0:0:
272,136,7644,5,0,0:0:0:0:
440,152,7961,1,0,0:0:0:0:
336,184,8172,1,0,0:0:0:0:
440,152,8383,1,2,0:0:0:0:
352,224,8595,1,2,0:0:0:0:
392,192,8700,1,2,0:0:0:0:
488,136,8912,1,2,0:0:0:0:
488,136,9123,1,0,0:0:0:0:
384,184,9334,1,0,0:0:0:0:
416,288,9545,1,0,0:0:0:0:
416,232,9651,1,2,0:0:0:0:
368,200,9757,1,2,0:0:0:0:
400,240,9862,1,2,0:0:0:0:
424,192,9968,1,0,0:0:0:0:
392,192,10074,1,0,0:0:0:0:
424,192,10179,1,2,0:0:0:0:
336,120,10393,1,2,0:0:0:0:
384,184,10499,1,2,0:0:0:0:
384,184,10604,1,2,0:0:0:0:
392,192,10710,1,2,0:0:0:0:
416,248,10816,1,2,0:0:0:0:
384,200,10921,1,2,0:0:0:0:
424,192,11027,1,0,0:0:0:0:
384,200,11238,1,0,0:0:0:0:
440,184,11344,1,2,0:0:0:0:
456,128,11449,1,0,0:0:0:0:
408,160,11555,1,0,0:0:0:0:
384,184,11661,1,0,0:0:0:0:
432,160,11766,1,2,0:0:0:0:
488,136,11872,1,0,0:0:0:0:
440,168,11978,1,0,0:0:0:0:
424,192,12083,1,2,0:0:0:0:
440,176,12189,1,2,0:0:0:0:
440,184,12295,1,0,0:0:0:0:
440,184,12400,1,0,0:0:0:0:
384,168,12506,1,0,0:0:0:0:
328,160,12611,1,0,0:0:0:0:
440,184,12717,1,0,0:0:0:0:
336,224,12928,1,0,0:0:0:0:
424,192,13034,1,2,0:0:0:0:
472,160,13140,1,0,0:0:0:0:
464,184,13192,1,2,0:0:0:0:
456,208,13245,1,0,0:0:0:0:
400,200,13351,1,0,0:0:0:0:
400,200,13404,1,0,0:0:0:0:
424,184,13457,1,2,0:0:0:0:
440,176,13509,1,2,0:0:0:0:
472,160,13562,1,0,0:0:0:0:
400,200,13668,1,0,0:0:0:0:
400,200,13773,1,0,0:0:0:0:
472,160,13879,1,2,0:0:0:0:
440,184,13985,1,0,0:0:0:0:
400,200,14090,1,0,0:0:0:0:
440,184,14196,1,2,0:0:0:0:
384,176,14302,1,2,0:0:0:0:
440,184,14407,1,0,0:0:0:0:
376,96,14618,1,0,0:0:0:0:
464,184,14724,1,2,0:0:0:0:
408,200,14830,1,2,0:0:0:0:
400,200,14935,1,2,0:0:0:0:
424,184,15041,1,0,0:0:0:0:
384,176,15147,1,0,0:0:0:0:
440,160,15252,1,2,0:0:0:0:
384,160,15358,1,0,0:0:0:0:
400,200,15464,1,2,0:0:0:0:
344,208,15569,1,2,0:0:0:0:
392,184,15675,1,0,0:0:0:0:
408,200,15780,1,0,0:0:0:0:
360,224,15886,1,0,0:0:0:0:
360,224,15992,1,0,0:0:0:0:
408,200,16097,1,2,0:0:0:0:
320,136,16309,1,2,0:0:0:0:
376,152,16414,1,0,0:0:0:0:
440,160,16520,1,2,0:0:0:0:
400,200,16731,1,2,0:0:0:0:
408,200,16837,1,2,0:0:0:0:
456,168,16942,1,0,0:0:0:0:
400,168,17048,1,0,0:0:0:0:
344,184,17154,1,0,0:0:0:0:
304,224,17259,1,0,0:0:0:0:
352,192,17365,1,0,0:0:0:0:
296,216,17471,1,0,0:0:0:0:
408,200,17576,1,2,0:0:0:0:
464,208,17788,1,4,0:0:0:0:
344,184,17999,1,0,0:0:0:0:
400,184,18104,1,2,0:0:0:0:
400,200,18210,1,2,0:0:0:0:
400,200,18316,1,2,0:0:0:0:
408,200,18421,1,0,0:0:0:0:
400,184,18527,1,0,0:0:0:0:
456,176,18633,1,2,0:0:0:0:
464,120,18738,1,0,0:0:0:0:
456,176,18844,1,2,0:0:0:0:
456,176,18949,1,2,0:0:0:0:
400,168,19055,1,2,0:0:0:0:
456,176,19161,1,0,0:0:0:0:
400,160,19266,1,0,0:0:0:0:
376,208,19372,1,0,0:0:0:0:
424,176,19478,1,2,0:0:0:0:
400,200,19689,1,0,0:0:0:0:
400,200,19795,1,0,0:0:0:0:
408,200,19900,1,2,0:0:0:0:
424,176,20006,1,0,0:0:0:0:
448,160,20059,1,2,0:0:0:0:
448,160,20111,1,2,0:0:0:0:
424,176,20164,1,2,0:0:0:0:
424,176,20217,1,2,0:0:0:0:
424,176,20323,1,0,0:0:0:0:
400,200,20428,1,0,0:0:0:0:
360,160,20534,1,0,0:0:0:0:
448,160,20640,1,2,0:0:0:0:
400,160,20745,1,2,0:0:0:0:
400,160,20851,1,2,0:0:0:0:
424,176,20957,1,2,0:0:0:0:
472,152,21062,1,0,0:0:0:0:
448,160,21168,1,2,0:0:0:0:
456,272,21379,1,0,0:0:0:0:
448,216,21485,1,2,0:0:0:0:
400,200,21590,1,0,0:0:0:0:
424,176,21643,1,0,0:0:0:0:
400,192,21696,1,0,0:0:0:0:
400,200,21802,1,0,0:0:0:0:
448,176,21907,1,2,0:0:0:0:
424,176,22013,1,0,0:0:0:0:
400,160,22118,1,0,0:0:0:0:
424,176,22224,1,2,0:0:0:0:
376,200,22330,1,2,0:0:0:0:
360,224,22383,1,2,0:0:0:0:
424,176,22435,1,0,0:0:0:0:
424,176,22541,1,2,0:0:0:0:
448,176,22647,1,0,0:0:0:0:
408,216,22752,1,0,0:0:0:0:
440,168,22858,1,2,0:0:0:0:
400,200,23069,1,2,0:0:0:0:
448,176,23175,1,0,0:0:0:0:
448,176,23280,1,2,0:0:0:0:
448,176,23386,1,0,0:0:0:0:
408,216,23492,1,0,0:0:0:0:
456,184,23597,1,2,0:0:0:0:
504,152,23703,1,0,0:0:0:0:
456,184,23809,1,4,0:0:0:0:
400,200,23914,1,2,0:0:0:0:
344,192,24020,1,2,0:0:0:0:
400,200,24126,1,2,0:0:0:0:
448,176,24231,1,0,0:0:0:0:
416,168,24548,1,4,0:0:0:0:
408,216,24759,1,2,0:0:0:0:
352,200,24865,1,2,0:0:0:0:
408,216,24971,1,2,0:0:0:0:
456,184,25076,1,0,0:0:0:0:
456,184,25182,1,2,0:0:0:0:
448,176,25288,1,2,0:0:0:0:
400,200,25393,1,2,0:0:0:0:
416,168,25499,1,0,0:0:0:0:
416,168,25604,1,0,0:0:0:0:
448,176,25710,1,2,0:0:0:0:
416,168,25816,1,2,0:0:0:0:
448,272,26027,1,2,0:0:0:0:
424,168,26238,1,2,0:0:0:0:
320,200,26449,1,2,0:0:0:0:
376,192,26555,1,2,0:0:0:0:
424,168,26661,1,0,0:0:0:0:
416,168,26766,1,2,0:0:0:0:
368,192,26872,1,2,0:0:0:0:
376,192,26978,1,2,0:0:0:0:
416,168,27083,1,0,0:0:0:0:
376,208,27189,1,0,0:0:0:0:
424,192,27295,1,2,0:0:0:0:
368,200,27400,1,2,0:0:0:0:
424,192,27506,1,2,0:0:0:0:
424,192,27717,1,0,0:0:0:0:
320,224,27928,1,0,0:0:0:0:
400,152,28140,1,0,0:0:0:0:
376,200,28245,1,0,0:0:0:0:
368,192,28351,1,0,0:0:0:0:
424,192,28457,1,2,0:0:0:0:
456,144,28562,1,0,0:0:0:0:
504,128,28668,1,2,0:0:0:0:
456,152,28773,1,2,0:0:0:0:
416,184,28879,1,0,0:0:0:0:
472,176,28985,1,2,0:0:0:0:
424,192,29090,1,2,0:0:0:0:
440,136,29196,1,2,0:0:0:0:
400,152,29407,1,0,0:0:0:0:
456,144,29618,1,0,0:0:0:0:
376,200,29830,1,0,0:0:0:0:
376,200,29935,1,0,0:0:0:0:
376,200,30041,1,0,0:0:0:0:
432,192,30147,1,2,0:0:0:0:
480,216,30252,1,0,0:0:0:0:
448,176,30358,1,2,0:0:0:0:
392,168,30464,1,2,0:0:0:0:
368,168,30516,1,2,0:0:0:0:
424,192,30569,1,0,0:0:0:0:
440,136,30675,1,2,0:0:0:0:
408,184,30780,1,2,0:0:0:0:
448,216,30886,1,0,0:0:0:0:
448,176,30992,1,2,0:0:0:0:
392,168,31097,1,2,0:0:0:0:
408,184,31203,1,2,0:0:0:0:
448,176,31309,1,4,0:0:0:0:
344,128,31520,1,2,0:0:0:0:
392,152,31626,1,2,0:0:0:0:
448,168,31731,1,2,0:0:0:0:
448,176,31837,1,0,0:0:0:0:
448,176,31942,1,2,0:0:0:0:
424,192,32048,1,2,0:0:0:0:
456,144,32154,1,0,0:0:0:0:
440,136,32259,1,0,0:0:0:0:
448,168,32365,1,2,0:0:0:0:
392,168,32471,1,2,0:0:0:0:
392,152,32576,1,2,0:0:0:0:
392,152,32788,1,2,0:0:0:0:
448,176,32999,1,2,0:0:0:0:
336,176,33210,1,0,0:0:0:0:
280,192,33316,1,0,0:0:0:0:
280,192,33421,1,0,0:0:0:0:
336,184,33527,1,2,0:0:0:0:
448,168,33633,1,0,0:0:0:0:
448,168,33738,1,0,0:0:0:0:
392,192,33844,1,0,0:0:0:0:
448,184,33949,1,0,0:0:0:0:
472,136,34055,1,2,0:0:0:0:
424,168,34161,1,2,0:0:0:0:
424,168,34266,1,2,0:0:0:0:
448,176,34478,1,0,0:0:0:0:
424,168,34689,1,0,0:0:0:0:
424,168,34900,1,0,0:0:0:0:
480,160,35006,1,2,0:0:0:0:
448,184,35111,1,0,0:0:0:0:
448,184,35217,1,2,0:0:0:0:
424,168,35323,1,0,0:0:0:0:
368,160,35428,1,2,0:0:0:0:
392,176,35481,1,2,0:0:0:0:
424,168,35534,1,0,0:0:0:0:
424,168,35640,1,0,0:0:0:0:
392,176,35745,1,0,0:0:0:0:
392,176,35798,1,0,0:0:0:0:
424,168,35851,1,2,0:0:0:0:
424,168,35957,1,2,0:0:0:0:
440,160,36168,1,0,0:0:0:0:
416,48,36379,1,0,0:0:0:0:
408,160,36590,1,2,0:0:0:0:
392,176,36696,1,2,0:0:0:0:
392,176,36802,1,2,0:0:0:0:
448,192,36907,1,0,0:0:0:0:
472,136,37013,1,2,0:0:0:0:
440,184,37118,1,2,0:0:0:0:
384,200,37224,1,2,0:0:0:0:
440,192,37330,1,4,0:0:0:0:
472,136,37435,1,2,0:0:0:0:
416,136,37541,1,2,0:0:0:0:
464,160,37647,1,2,0:0:0:0:
448,192,37752,1,0,0:0:0:0:
464,160,37858,1,2,0:0:0:0:
464,160,37964,1,2,0:0:0:0:
448,192,38069,1,4,0:0:0:0:
328,136,38386,1,0,0:0:0:0:
320,224,38597,1,0,0:0:0:0:
400,184,38809,1,2,0:0:0:0:
488,176,39020,1,0,0:0:0:0:
448,192,39126,1,2,0:0:0:0:
480,112,39337,1,2,0:0:0:0:
400,152,39548,1,0,0:0:0:0:
448,192,39759,1,2,0:0:0:0:
360,168,39971,1,0,0:0:0:0:
400,168,40076,1,2,0:0:0:0:
448,168,40182,1,0,0:0:0:0:
488,152,40288,1,2,0:0:0:0:
448,168,40393,1,2,0:0:0:0:
488,152,40499,1,0,0:0:0:0:
448,176,40604,1,2,0:0:0:0:
360,184,40816,1,0,0:0:0:0:
448,168,40921,1,2,0:0:0:0:
488,152,41027,1,0,0:0:0:0:
448,176,41133,1,0,0:0:0:0:
408,176,41238,1,0,0:0:0:0:
504,88,41449,1,2,0:0:0:0:
448,160,41661,1,0,0:0:0:0:
448,168,41766,1,2,0:0:0:0:
448,168,41872,1,0,0:0:0:0:
440,208,41978,1,2,0:0:0:0:
400,216,42083,1,2,0:0:0:0:
416,176,42189,1,0,0:0:0:0:
448,168,42295,1,2,0:0:0:0:
360,160,42506,1,2,0:0:0:0:
392,184,42611,1,2,0:0:0:0:
352,208,42717,1,2,0:0:0:0:
352,208,42823,1,2,0:0:0:0:
376,248,42928,1,2,0:0:0:0:
400,208,43034,1,0,0:0:0:0:
448,160,43140,1,2,0:0:0:0:
320,192,43457,1,0,0:0:0:0:
408,192,43668,1,2,0:0:0:0:
448,168,43879,1,0,0:0:0:0:
392,184,43985,1,0,0:0:0:0:
424,208,44090,1,6,0:0:0:0:
464,184,44196,1,2,0:0:0:0:
464,184,44302,1,2,0:0:0:0:
424,208,44513,1,6,0:0:0:0:
464,224,44619,1,2,0:0:0:0:
464,224,44830,1,4,0:0:0:0:
432,96,45041,1,0,0:0:0:0:
472,144,45147,1,2,0:0:0:0:
464,184,45252,1,0,0:0:0:0:
424,208,45358,1,0,0:0:0:0:
384,256,45464,1,0,0:0:0:0:
432,216,45569,1,2,0:0:0:0:
464,184,45675,1,0,0:0:0:0:
424,208,45780,1,0,0:0:0:0:
368,168,45886,1,2,0:0:0:0:
408,216,45992,1,2,0:0:0:0:
464,184,46097,1,0,0:0:0:0:
432,192,46150,1,0,0:0:0:0:
424,208,46203,1,0,0:0:0:0:
472,160,46309,1,2,0:0:0:0:
432,192,46414,1,2,0:0:0:0:
472,160,46520,1,0,0:0:0:0:
496,224,46626,1,6,0:0:0:0:
464,184,46731,1,2,0:0:0:0:
424,208,46837,1,2,0:0:0:0:
480,184,46942,1,6,0:0:0:0:
464,248,47048,1,2,0:0:0:0:
440,192,47154,1,2,0:0:0:0:
456,256,47259,1,4,0:0:0:0:
464,184,47365,1,0,0:0:0:0:
432,192,47471,1,0,0:0:0:0:
480,184,47576,1,4,0:0:0:0:
440,232,47682,1,0,0:0:0:0:
440,232,47788,1,0,0:0:0:0:
480,184,47893,1,6,0:0:0:0:
464,184,47999,1,0,0:0:0:0:
440,192,48104,1,2,0:0:0:0:
480,240,48210,1,0,0:0:0:0:
440,192,48316,1,4,0:0:0:0:
440,256,48421,1,0,0:0:0:0:
440,192,48474,1,0,0:0:0:0:
464,184,48527,1,2,0:0:0:0:
472,120,48633,1,0,0:0:0:0:
432,168,48738,1,0,0:0:0:0:
408,224,48844,1,0,0:0:0:0:
424,192,48897,1,0,0:0:0:0:
424,160,48949,1,2,0:0:0:0:
480,184,49055,1,0,0:0:0:0:
432,168,49161,1,0,0:0:0:0:
400,176,49214,1,0,0:0:0:0:
400,176,49266,1,0,0:0:0:0:
464,160,49372,1,2,0:0:0:0:
464,184,49478,1,0,0:0:0:0:
400,176,49583,1,0,0:0:0:0:
400,176,49636,1,0,0:0:0:0:
400,176,49689,1,0,0:0:0:0:
400,176,49742,1,0,0:0:0:0:
464,160,49795,1,2,0:0:0:0:
464,184,49900,1,0,0:0:0:0:
496,240,50006,1,4,0:0:0:0:
480,184,50111,1,0,0:0:0:0:
432,224,50217,1,0,0:0:0:0:
488,192,50323,1,0,0:0:0:0:
360,208,50534,1,0,0:0:0:0:
464,136,50745,1,6,0:0:0:0:
360,192,50957,1,0,0:0:0:0:
424,176,51062,1,6,0:0:0:0:
464,184,51168,1,0,0:0:0:0:
416,224,51273,1,0,0:0:0:0:
392,240,51326,1,0,0:0:0:0:
368,256,51379,1,0,0:0:0:0:
368,256,51432,1,0,0:0:0:0:
368,256,51485,1,0,0:0:0:0:
368,256,51538,1,0,0:0:0:0:
464,184,51590,1,4,0:0:0:0:
336,240,51802,1,2,0:0:0:0:
408,224,51907,1,2,0:0:0:0:
392,240,52013,1,2,0:0:0:0:
448,192,52118,1,0,0:0:0:0:
464,184,52224,1,2,0:0:0:0:
448,192,52330,1,2,0:0:0:0:
448,192,52435,1,2,0:0:0:0:
448,192,52541,1,2,0:0:0:0:
448,192,52647,1,2,0:0:0:0:
312,152,52858,1,0,0:0:0:0:
448,176,53069,1,0,0:0:0:0:
384,208,53175,1,0,0:0:0:0:
448,184,53280,1,0,0:0:0:0:
480,176,53492,1,2,0:0:0:0:
464,184,53597,1,0,0:0:0:0:
464,184,53703,1,2,0:0:0:0:
464,184,53809,1,2,0:0:0:0:
448,192,53914,1,2,0:0:0:0:
456,120,54020,1,2,0:0:0:0:
480,176,54126,1,0,0:0:0:0:
448,176,54231,1,0,0:0:0:0:
416,168,54284,1,0,0:0:0:0:
392,192,54337,1,0,0:0:0:0:
456,168,54442,1,2,0:0:0:0:
448,176,54548,1,0,0:0:0:0:
448,176,54654,1,0,0:0:0:0:
424,200,54707,1,0,0:0:0:0:
424,200,54759,1,0,0:0:0:0:
480,152,54865,1,2,0:0:0:0:
448,192,54971,1,0,0:0:0:0:
456,168,55182,1,0,0:0:0:0:
456,168,55288,1,2,0:0:0:0:
456,168,55393,1,0,0:0:0:0:
432,200,55446,1,0,0:0:0:0:
456,168,55499,1,2,0:0:0:0:
480,176,55604,1,0,0:0:0:0:
416,152,55710,1,0,0:0:0:0:
472,176,55816,1,0,0:0:0:0:
440,112,55921,1,2,0:0:0:0:
448,176,56027,1,2,0:0:0:0:
376,192,56133,1,2,0:0:0:0:
456,168,56238,1,0,0:0:0:0:
472,176,56344,1,2,0:0:0:0:
480,152,56449,1,0,0:0:0:0:
448,176,56555,1,0,0:0:0:0:
392,128,56661,1,0,0:0:0:0:
456,168,56872,1,2,0:0:0:0:
480,176,56978,1,0,0:0:0:0:
416,200,57083,1,2,0:0:0:0:
384,184,57136,1,2,0:0:0:0:
448,176,57189,1,2,0:0:0:0:
384,184,57295,1,2,0:0:0:0:
480,152,57400,1,0,0:0:0:0:
448,176,57506,1,2,0:0:0:0:
448,176,57611,1,0,0:0:0:0:
416,200,57717,1,0,0:0:0:0:
416,200,57770,1,0,0:0:0:0:
392,224,57823,1,0,0:0:0:0:
416,200,57928,1,0,0:0:0:0:
440,136,58034,1,6,0:0:0:0:
480,192,58140,1,2,0:0:0:0:
360,272,58351,1,4,0:0:0:0:
424,128,58562,1,0,0:0:0:0:
480,152,58668,1,2,0:0:0:0:
480,152,58773,1,0,0:0:0:0:
400,152,58879,1,0,0:0:0:0:
464,200,58985,1,0,0:0:0:0:
472,128,59090,1,2,0:0:0:0:
464,200,59196,1,0,0:0:0:0:
480,152,59302,1,2,0:0:0:0:
408,168,59407,1,2,0:0:0:0:
488,160,59513,1,2,0:0:0:0:
512,88,59618,1,0,0:0:0:0:
408,168,59830,1,0,0:0:0:0:
408,168,59935,1,0,0:0:0:0:
408,168,60041,1,0,0:0:0:0:
504,48,60252,1,0,0:0:0:0:
480,152,60358,1,0,0:0:0:0:
408,184,60464,1,0,0:0:0:0:
408,168,60569,1,0,0:0:0:0:
448,168,60622,1,2,0:0:0:0:
416,192,60675,1,2,0:0:0:0:
440,160,60728,1,2,0:0:0:0:
440,160,60780,1,2,0:0:0:0:
448,240,60886,1,0,0:0:0:0:
448,168,60992,1,0,0:0:0:0:
440,160,61097,1,2,0:0:0:0:
440,160,61150,1,2,0:0:0:0:
400,152,61203,1,2,0:0:0:0:
464,200,61309,1,2,0:0:0:0:
480,128,61414,1,0,0:0:0:0:
424,184,61520,1,0,0:0:0:0:
448,168,61626,1,2,0:0:0:0:
464,168,61731,1,0,0:0:0:0:
480,152,61942,1,2,0:0:0:0:
464,168,62048,1,0,0:0:0:0:
408,168,62154,1,0,0:0:0:0:
416,192,62207,1,0,0:0:0:0:
416,192,62259,1,0,0:0:0:0:
448,168,62365,1,2,0:0:0:0:
448,168,62471,1,2,0:0:0:0:
464,168,62576,1,0,0:0:0:0:
424,184,62788,1,0,0:0:0:0:
464,168,62893,1,2,0:0:0:0:
424,232,62999,1,0,0:0:0:0:
448,168,63052,1,2,0:0:0:0:
424,184,63104,1,2,0:0:0:0:
424,184,63157,1,2,0:0:0:0:
464,168,63210,1,0,0:0:0:0:
416,192,63316,1,0,0:0:0:0:
464,168,63421,1,2,0:0:0:0:
464,168,63633,1,0,0:0:0:0:
448,240,63738,1,2,0:0:0:0:
472,168,63844,1,0,0:0:0:0:
424,184,63949,1,0,0:0:0:0:
464,168,64055,1,2,0:0:0:0:
424,184,64161,1,2,0:0:0:0:
464,168,64266,1,0,0:0:0:0:
424,184,64372,1,0,0:0:0:0:
424,184,64425,1,0,0:0:0:0:
408,216,64478,1,0,0:0:0:0:
472,176,64583,1,2,0:0:0:0:
504,160,64689,1,0,0:0:0:0:
352,152,64900,1,0,0:0:0:0:
408,216,65006,1,0,0:0:0:0:
424,184,65111,1,0,0:0:0:0:
440,184,65323,1,0,0:0:0:0:
472,168,65428,1,2,0:0:0:0:
408,216,65534,1,2,0:0:0:0:
384,248,65587,1,2,0:0:0:0:
384,248,65640,1,2,0:0:0:0:
464,168,65745,1,0,0:0:0:0:
408,216,65851,1,0,0:0:0:0:
360,152,65957,1,2,0:0:0:0:
432,184,66062,1,0,0:0:0:0:
472,176,66168,1,0,0:0:0:0:
400,152,66273,1,2,0:0:0:0:
472,168,66379,1,0,0:0:0:0:
440,192,66432,1,0,0:0:0:0:
472,168,66485,1,2,0:0:0:0:
440,184,66538,1,2,0:0:0:0:
424,184,66590,1,2,0:0:0:0:
440,216,66643,1,2,0:0:0:0:
440,216,66696,1,2,0:0:0:0:
440,192,66802,1,4,0:0:0:0:
400,152,67013,1,0,0:0:0:0:
432,184,67118,1,2,0:0:0:0:
464,128,67224,1,2,0:0:0:0:
424,184,67330,1,2,0:0:0:0:
408,216,67435,1,0,0:0:0:0:
344,232,67541,1,0,0:0:0:0:
400,192,67647,1,2,0:0:0:0:
440,184,67752,1,0,0:0:0:0:
416,128,67858,1,2,0:0:0:0:
368,168,67964,1,2,0:0:0:0:
368,168,68016,1,2,0:0:0:0:
440,184,68069,1,0,0:0:0:0:
416,128,68175,1,2,0:0:0:0:
472,160,68280,1,2,0:0:0:0:
432,176,68333,1,0,0:0:0:0:
424,184,68386,1,0,0:0:0:0:
400,192,68439,1,0,0:0:0:0:
432,184,68492,1,2,0:0:0:0:
464,64,68703,1,0,0:0:0:0:
432,120,68809,1,2,0:0:0:0:
440,184,68914,1,2,0:0:0:0:
496,160,69020,1,0,0:0:0:0:
432,176,69126,1,2,0:0:0:0:
432,176,69178,1,2,0:0:0:0:
400,192,69231,1,2,0:0:0:0:
472,160,69337,1,0,0:0:0:0:
448,216,69442,1,2,0:0:0:0:
440,184,69548,1,2,0:0:0:0:
472,160,69654,1,0,0:0:0:0:
424,200,69759,1,0,0:0:0:0:
400,224,69812,1,0,0:0:0:0:
432,176,69865,1,0,0:0:0:0:
400,224,69971,1,2,0:0:0:0:
496,136,70076,1,0,0:0:0:0:
424,200,70182,1,2,0:0:0:0:
440,184,70393,1,0,0:0:0:0:
472,160,70499,1,2,0:0:0:0:
448,216,70604,1,2,0:0:0:0:
424,240,70657,1,2,0:0:0:0:
424,240,70710,1,2,0:0:0:0:
400,192,70816,1,2,0:0:0:0:
456,168,70921,1,0,0:0:0:0:
400,224,71027,1,0,0:0:0:0:
400,192,71133,1,0,0:0:0:0:
472,160,71238,1,2,0:0:0:0:
400,192,71344,1,2,0:0:0:0:
472,160,71449,1,0,0:0:0:0:
440,184,71555,1,2,0:0:0:0:
424,200,71608,1,2,0:0:0:0:
392,192,71661,1,2,0:0:0:0:
448,160,71766,1,0,0:0:0:0:
456,168,71872,1,2,0:0:0:0:
360,248,72083,1,2,0:0:0:0:
456,168,72189,1,0,0:0:0:0:
400,224,72295,1,0,0:0:0:0:
368,280,72400,1,0,0:0:0:0:
416,232,72506,1,2,0:0:0:0:
464,192,72611,1,0,0:0:0:0:
440,184,72717,1,2,0:0:0:0:
440,184,72823,1,2,0:0:0:0:
400,192,72928,1,0,0:0:0:0:
400,224,73034,1,0,0:0:0:0:
400,224,73140,1,0,0:0:0:0:
376,280,73245,1,0,0:0:0:0:
472,160,73351,1,2,0:0:0:0:
344,168,73562,1,4,0:0:0:0:
472,192,73773,1,0,0:0:0:0:
432,144,73879,1,2,0:0:0:0:
496,152,73985,1,0,0:0:0:0:
472,160,74090,1,2,0:0:0:0:
408,168,74196,1,2,0:0:0:0:
376,160,74302,1,0,0:0:0:0:
400,192,74407,1,2,0:0:0:0:
400,224,74513,1,0,0:0:0:0:
416,200,74566,1,2,0:0:0:0:
400,192,74618,1,2,0:0:0:0:
400,192,74671,1,2,0:0:0:0:
432,176,74724,1,0,0:0:0:0:
432,176,74830,1,2,0:0:0:0:
408,168,74883,1,2,0:0:0:0:
432,184,74935,1,0,0:0:0:0:
488,144,75041,1,0,0:0:0:0:
344,168,75147,1,0,0:0:0:0:
408,176,75252,1,2,0:0:0:0:
456,168,75464,1,0,0:0:0:0:
400,192,75569,1,0,0:0:0:0:
488,144,75675,1,2,0:0:0:0:
456,168,75780,1,0,0:0:0:0:
480,104,75886,1,2,0:0:0:0:
400,192,75939,1,2,0:0:0:0:
416,200,75992,1,2,0:0:0:0:
464,152,76097,1,0,0:0:0:0:
472,216,76203,1,4,0:0:0:0:
432,184,76309,1,0,0:0:0:0:
456,168,76414,1,2,0:0:0:0:
432,184,76520,1,2,0:0:0:0:
456,240,76626,1,6,0:0:0:0:
472,216,76731,1,2,0:0:0:0:
424,168,76837,1,0,0:0:0:0:
472,216,76942,1,2,0:0:0:0:
456,168,77154,1,0,0:0:0:0:
472,176,77259,1,2,0:0:0:0:
432,184,77365,1,0,0:0:0:0:
456,168,77471,1,2,0:0:0:0:
416,200,77576,1,2,0:0:0:0:
456,168,77682,1,0,0:0:0:0:
416,216,77788,1,0,0:0:0:0:
432,184,77893,1,0,0:0:0:0:
432,184,77999,1,2,0:0:0:0:
432,184,78104,1,2,0:0:0:0:
456,168,78210,1,0,0:0:0:0:
416,200,78316,1,4,0:0:0:0:
416,200,78421,1,0,0:0:0:0:
416,216,78527,1,0,0:0:0:0:
464,176,78633,1,2,0:0:0:0:
504,56,78844,1,2,0:0:0:0:
464,176,78949,1,0,0:0:0:0:
456,168,79055,1,2,0:0:0:0:
432,184,79108,1,2,0:0:0:0:
456,168,79161,1,2,0:0:0:0:
400,200,79266,1,0,0:0:0:0:
456,168,79372,1,2,0:0:0:0:
456,168,79478,1,0,0:0:0:0:
432,184,79530,1,0,0:0:0:0:
432,184,79583,1,0,0:0:0:0:
416,200,79689,1,2,0:0:0:0:
416,200,79795,1,2,0:0:0:0:
416,200,79900,1,2,0:0:0:0:
464,160,80006,1,0,0:0:0:0:
376,256,80217,1,0,0:0:0:0:
432,224,80323,1,4,0:0:0:0:
432,184,80534,1,2,0:0:0:0:
432,184,80640,1,2,0:0:0:0:
416,200,80745,1,2,0:0:0:0:
432,184,80851,1,0,0:0:0:0:
416,200,80957,1,0,0:0:0:0:
456,168,81062,1,2,0:0:0:0:
432,184,81168,1,2,0:0:0:0:
464,160,81273,1,0,0:0:0:0:
464,160,81379,1,2,0:0:0:0:
432,184,81485,1,2,0:0:0:0:
416,200,81590,1,2,0:0:0:0:
416,200,81802,1,2,0:0:0:0:
432,184,82013,1,2,0:0:0:0:
416,224,82118,1,2,0:0:0:0:
432,184,82224,1,0,0:0:0:0:
392,184,82330,1,0,0:0:0:0:
416,200,82435,1,0,0:0:0:0:
400,240,82541,1,0,0:0:0:0:
416,160,82752,1,0,0:0:0:0:
456,144,82858,1,0,0:0:0:0:
432,184,83069,1,2,0:0:0:0:
400,240,83280,1,2,0:0:0:0:
432,184,83492,1,0,0:0:0:0:
432,184,83597,1,2,0:0:0:0:
432,184,83650,1,2,0:0:0:0:
448,176,83703,1,0,0:0:0:0:
368,160,83914,1,0,0:0:0:0:
408,152,84020,1,2,0:0:0:0:
448,160,84126,1,0,0:0:0:0:
416,184,84231,1,0,0:0:0:0:
456,144,84337,1,2,0:0:0:0:
416,184,84442,1,2,0:0:0:0:
456,168,84548,1,0,0:0:0:0:
416,168,84654,1,0,0:0:0:0:
432,184,84759,1,2,0:0:0:0:
416,192,84812,1,2,0:0:0:0:
400,200,84865,1,2,0:0:0:0:
400,200,84971,1,2,0:0:0:0:
432,184,85182,1,0,0:0:0:0:
400,200,85235,1,0,0:0:0:0:
448,160,85288,1,2,0:0:0:0:
448,160,85340,1,2,0:0:0:0:
448,160,85393,1,0,0:0:0:0:
432,184,85604,1,0,0:0:0:0:
472,176,85710,1,2,0:0:0:0:
456,168,85816,1,0,0:0:0:0:
432,184,85868,1,0,0:0:0:0:
416,192,85921,1,0,0:0:0:0:
448,168,86027,1,0,0:0:0:0:
416,192,86133,1,2,0:0:0:0:
400,200,86238,1,2,0:0:0:0:
448,160,86344,1,2,0:0:0:0:
432,184,86449,1,0,0:0:0:0:
432,184,86502,1,0,0:0:0:0:
472,176,86555,1,2,0:0:0:0:
448,208,86661,1,0,0:0:0:0:
432,184,86766,1,0,0:0:0:0:
432,184,86819,1,0,0:0:0:0:
416,192,86872,1,0,0:0:0:0:
416,192,86925,1,0,0:0:0:0:
456,168,86978,1,2,0:0:0:0:
496,152,87083,1,0,0:0:0:0:
432,184,87295,1,0,0:0:0:0:
432,184,87400,1,2,0:0:0:0:
416,192,87506,1,2,0:0:0:0:
416,192,87611,1,2,0:0:0:0:
408,256,87770,1,0,0:0:0:0:
448,160,87823,1,2,0:0:0:0:
432,184,87928,1,2,0:0:0:0:
456,168,88034,1,0,0:0:0:0:
496,152,88140,1,2,0:0:0:0:
448,208,88245,1,2,0:0:0:0:
408,216,88351,1,2,0:0:0:0:
416,192,88562,1,2,0:0:0:0:
432,184,88668,1,2,0:0:0:0:
432,184,88773,1,2,0:0:0:0:
432,184,88985,1,0,0:0:0:0:
448,160,89090,1,2,0:0:0:0:
408,216,89196,1,0,0:0:0:0:
416,192,89302,1,0,0:0:0:0:
416,192,89407,1,0,0:0:0:0:
416,192,89460,1,0,0:0:0:0:
440,184,89513,1,2,0:0:0:0:
448,208,89618,1,0,0:0:0:0:
408,216,89724,1,0,0:0:0:0:
432,184,89830,1,2,0:0:0:0:
416,192,89935,1,2,0:0:0:0:
416,192,90041,1,2,0:0:0:0:
448,208,90252,1,0,0:0:0:0:
408,216,90305,1,0,0:0:0:0:
440,184,90358,1,2,0:0:0:0:
432,184,90464,1,0,0:0:0:0:
440,184,90675,1,0,0:0:0:0:
488,144,90780,1,2,0:0:0:0:
456,168,90886,1,0,0:0:0:0:
440,184,90939,1,0,0:0:0:0:
416,192,90992,1,0,0:0:0:0:
408,152,91097,1,0,0:0:0:0:
456,168,91203,1,2,0:0:0:0:
440,184,91309,1,0,0:0:0:0:
424,144,91414,1,0,0:0:0:0:
416,192,91520,1,2,0:0:0:0:
400,200,91573,1,2,0:0:0:0:
400,200,91626,1,2,0:0:0:0:
416,192,91731,1,2,0:0:0:0:
456,168,91942,1,0,0:0:0:0:
400,144,92154,1,0,0:0:0:0:
480,152,92365,1,2,0:0:0:0:
400,200,92471,1,2,0:0:0:0:
416,192,92576,1,2,0:0:0:0:
456,176,92682,1,0,0:0:0:0:
456,168,92788,1,2,0:0:0:0:
416,160,92893,1,2,0:0:0:0:
416,192,92999,1,2,0:0:0:0:
456,168,93104,1,0,0:0:0:0:
496,160,93210,1,2,0:0:0:0:
416,192,93263,1,2,0:0:0:0:
400,200,93316,1,2,0:0:0:0:
424,168,93421,1,0,0:0:0:0:
432,176,93527,1,0,0:0:0:0:
432,216,93633,1,0,0:0:0:0:
448,176,93738,1,2,0:0:0:0:
456,168,93844,1,0,0:0:0:0:
376,160,94055,1,0,0:0:0:0:
416,192,94161,1,2,0:0:0:0:
400,200,94266,1,2,0:0:0:0:
456,168,94372,1,0,0:0:0:0:
432,192,94478,1,0,0:0:0:0:
456,168,94583,1,2,0:0:0:0:
416,192,94689,1,2,0:0:0:0:
440,168,94795,1,0,0:0:0:0:
472,152,94900,1,2,0:0:0:0:
456,168,95111,1,0,0:0:0:0:
400,200,95323,1,0,0:0:0:0:
384,232,95428,1,0,0:0:0:0:
416,192,95534,1,0,0:0:0:0:
432,192,95745,1,2,0:0:0:0:
424,152,95851,1,2,0:0:0:0:
408,176,95957,1,2,0:0:0:0:
392,200,96062,1,2,0:0:0:0:
392,168,96168,1,2,0:0:0:0:
440,168,96273,1,0,0:0:0:0:
432,136,96379,1,2,0:0:0:0:
448,200,96590,1,0,0:0:0:0:
480,184,96696,1,2,0:0:0:0:
448,184,96802,1,0,0:0:0:0:
400,200,96907,1,0,0:0:0:0:
408,176,97013,1,0,0:0:0:0:
432,240,97224,1,6,0:0:0:0:
456,184,97435,1,0,0:0:0:0:
480,160,97541,1,2,0:0:0:0:
448,200,97647,1,0,0:0:0:0:
448,184,97752,1,0,0:0:0:0:
416,192,97858,1,0,0:0:0:0:
480,160,97964,1,2,0:0:0:0:
448,200,98069,1,0,0:0:0:0:
448,168,98175,1,2,0:0:0:0:
400,200,98280,1,2,0:0:0:0:
400,200,98386,1,2,0:0:0:0:
480,160,98492,1,0,0:0:0:0:
456,184,98597,1,2,0:0:0:0:
456,184,98703,1,0,0:0:0:0:
472,192,98914,1,6,0:0:0:0:
400,184,99126,1,0,0:0:0:0:
480,160,99231,1,2,0:0:0:0:
448,152,99337,1,0,0:0:0:0:
448,176,99442,1,2,0:0:0:0:
448,176,99548,1,2,0:0:0:0:
416,176,99654,1,0,0:0:0:0:
456,184,99759,1,2,0:0:0:0:
400,216,99971,1,2,0:0:0:0:
432,200,100076,1,2,0:0:0:0:
432,200,100182,1,2,0:0:0:0:
432,200,100288,1,2,0:0:0:0:
432,200,100393,1,2,0:0:0:0:
432,200,100499,1,2,0:0:0:0:
432,200,100604,1,4,0:0:0:0:
344,144,100816,1,0,0:0:0:0:
392,136,100921,1,2,0:0:0:0:
416,176,101027,1,0,0:0:0:0:
464,160,101133,1,0,0:0:0:0:
464,160,101238,1,2,0:0:0:0:
416,184,101344,1,2,0:0:0:0:
432,200,101449,1,2,0:0:0:0:
432,200,101502,1,2,0:0:0:0:
464,160,101555,1,0,0:0:0:0:
368,128,101766,1,0,0:0:0:0:
464,160,101978,1,2,0:0:0:0:
416,176,102083,1,2,0:0:0:0:
392,184,102136,1,2,0:0:0:0:
464,160,102189,1,0,0:0:0:0:
392,184,102295,1,0,0:0:0:0:
432,216,102400,1,6,0:0:0:0:
432,200,102506,1,2,0:0:0:0:
432,216,102611,1,2,0:0:0:0:
464,160,102717,1,6,0:0:0:0:
480,208,102823,1,2,0:0:0:0:
440,184,102928,1,0,0:0:0:0:
464,232,103034,1,4,0:0:0:0:
456,184,103140,1,0,0:0:0:0:
480,208,103245,1,0,0:0:0:0:
464,232,103351,1,4,0:0:0:0:
456,184,103457,1,0,0:0:0:0:
456,184,103562,1,2,0:0:0:0:
504,184,103668,1,6,0:0:0:0:
480,208,103773,1,2,0:0:0:0:
456,200,103826,1,0,0:0:0:0:
432,200,103879,1,0,0:0:0:0:
384,184,103985,1,0,0:0:0:0:
432,200,104196,1,0,0:0:0:0:
440,184,104302,1,2,0:0:0:0:
400,216,104407,1,0,0:0:0:0:
384,240,104460,1,0,0:0:0:0:
384,240,104513,1,0,0:0:0:0:
400,216,104618,1,0,0:0:0:0:
440,184,104724,1,2,0:0:0:0:
432,232,104830,1,0,0:0:0:0:
400,192,104935,1,0,0:0:0:0:
456,184,105041,1,0,0:0:0:0:
488,144,105147,1,2,0:0:0:0:
448,176,105252,1,0,0:0:0:0:
448,176,105305,1,0,0:0:0:0:
440,184,105358,1,0,0:0:0:0:
440,184,105464,1,0,0:0:0:0:
488,168,105569,1,2,0:0:0:0:
456,208,105675,1,0,0:0:0:0:
456,208,105780,1,4,0:0:0:0:
456,208,105886,1,0,0:0:0:0:
432,232,105992,1,0,0:0:0:0:
432,232,106097,1,0,0:0:0:0:
440,184,106309,1,0,0:0:0:0:
400,248,106520,1,2,0:0:0:0:
448,176,106731,1,2,0:0:0:0:
448,176,106837,1,0,0:0:0:0:
448,176,106942,1,2,0:0:0:0:
424,176,106995,1,2,0:0:0:0:
448,168,107048,1,0,0:0:0:0:
432,192,107101,1,0,0:0:0:0:
448,176,107154,1,2,0:0:0:0:
440,184,107207,1,2,0:0:0:0:
464,168,107259,1,0,0:0:0:0:
464,168,107312,1,0,0:0:0:0:
472,192,107365,1,4,0:0:0:0:
496,176,107576,1,2,0:0:0:0:
440,128,107682,1,0,0:0:0:0:
464,168,107788,1,2,0:0:0:0:
464,168,107893,1,0,0:0:0:0:
400,200,107999,1,0,0:0:0:0:
440,144,108104,1,2,0:0:0:0:
424,176,108210,1,2,0:0:0:0:
440,128,108316,1,2,0:0:0:0:
424,176,108421,1,2,0:0:0:0:
424,176,108527,1,2,0:0:0:0:
496,152,108633,1,0,0:0:0:0:
352,144,108844,1,0,0:0:0:0:
376,120,108897,1,0,0:0:0:0:
424,176,108949,1,0,0:0:0:0:
416,104,109055,1,0,0:0:0:0:
472,152,109266,1,2,0:0:0:0:
488,216,109372,1,0,0:0:0:0:
416,200,109478,1,2,0:0:0:0:
448,200,109530,1,2,0:0:0:0:
448,200,109583,1,2,0:0:0:0:
448,200,109689,1,2,0:0:0:0:
448,200,109795,1,2,0:0:0:0:
472,176,109900,1,0,0:0:0:0:
424,176,110111,1,0,0:0:0:0:
424,176,110217,1,2,0:0:0:0:
472,152,110323,1,0,0:0:0:0:
424,176,110376,1,0,0:0:0:0:
424,176,110428,1,0,0:0:0:0:
472,152,110534,1,0,0:0:0:0:
496,160,110640,1,2,0:0:0:0:
448,200,110745,1,0,0:0:0:0:
424,176,110957,1,0,0:0:0:0:
488,160,111062,1,2,0:0:0:0:
424,184,111168,1,0,0:0:0:0:
424,184,111221,1,0,0:0:0:0:
448,160,111273,1,2,0:0:0:0:
376,160,111379,1,0,0:0:0:0:
424,184,111485,1,0,0:0:0:0:
448,200,111590,1,2,0:0:0:0:
392,160,111696,1,2,0:0:0:0:
392,160,111907,1,2,0:0:0:0:
392,232,112013,1,2,0:0:0:0:
424,176,112224,1,0,0:0:0:0:
424,176,112277,1,0,0:0:0:0:
424,184,112330,1,0,0:0:0:0:
448,160,112435,1,0,0:0:0:0:
480,184,112647,1,2,0:0:0:0:
480,112,112752,1,0,0:0:0:0:
464,184,112858,1,2,0:0:0:0:
456,152,112911,1,2,0:0:0:0:
448,160,112964,1,2,0:0:0:0:
464,184,113069,1,2,0:0:0:0:
496,160,113175,1,0,0:0:0:0:
496,160,113280,1,2,0:0:0:0:
448,160,113386,1,0,0:0:0:0:
424,176,113439,1,0,0:0:0:0:
424,176,113492,1,0,0:0:0:0:
424,176,113545,1,0,0:0:0:0:
424,176,113597,1,0,0:0:0:0:
424,184,113650,1,0,0:0:0:0:
408,216,113703,1,0,0:0:0:0:
408,216,113756,1,0,0:0:0:0:
432,192,113809,1,2,0:0:0:0:
448,160,113914,1,2,0:0:0:0:
440,304,114126,1,4,0:0:0:0:
368,168,114337,1,0,0:0:0:0:
424,176,114442,1,2,0:0:0:0:
432,192,114548,1,2,0:0:0:0:
408,216,114601,1,2,0:0:0:0:
448,160,114654,1,0,0:0:0:0:
424,176,114759,1,0,0:0:0:0:
448,160,114865,1,2,0:0:0:0:
424,184,114918,1,2,0:0:0:0:
408,216,114971,1,2,0:0:0:0:
480,192,115076,1,6,0:0:0:0:
408,216,115182,1,2,0:0:0:0:
472,152,115393,1,0,0:0:0:0:
448,160,115604,1,0,0:0:0:0:
408,216,115710,1,0,0:0:0:0:
448,160,115816,1,0,0:0:0:0:
424,176,116027,1,0,0:0:0:0:
472,152,116133,1,2,0:0:0:0:
448,224,116238,1,0,0:0:0:0:
424,184,116291,1,0,0:0:0:0:
424,184,116344,1,0,0:0:0:0:
456,256,116449,1,0,0:0:0:0:
472,184,116555,1,2,0:0:0:0:
472,184,116661,1,0,0:0:0:0:
472,152,116872,1,2,0:0:0:0:
424,176,116978,1,2,0:0:0:0:
408,216,117083,1,2,0:0:0:0:
424,176,117136,1,2,0:0:0:0:
464,168,117189,1,0,0:0:0:0:
424,184,117295,1,0,0:0:0:0:
392,200,117347,1,0,0:0:0:0:
448,160,117400,1,2,0:0:0:0:
448,160,117453,1,2,0:0:0:0:
448,160,117506,1,0,0:0:0:0:
408,216,117717,1,0,0:0:0:0:
448,160,117823,1,2,0:0:0:0:
496,96,117928,1,0,0:0:0:0:
448,160,117981,1,0,0:0:0:0:
448,160,118034,1,0,0:0:0:0:
424,176,118140,1,2,0:0:0:0:
424,184,118245,1,2,0:0:0:0:
472,152,118351,1,0,0:0:0:0:
464,168,118562,1,0,0:0:0:0:
416,232,118668,1,2,0:0:0:0:
392,200,118773,1,2,0:0:0:0:
392,200,118826,1,2,0:0:0:0:
432,192,118879,1,0,0:0:0:0:
424,176,118985,1,0,0:0:0:0:
464,168,119090,1,2,0:0:0:0:
424,232,119196,1,0,0:0:0:0:
368,88,119407,1,0,0:0:0:0:
464,168,119513,1,2,0:0:0:0:
472,152,119618,1,0,0:0:0:0:
440,176,119671,1,0,0:0:0:0:
424,176,119724,1,0,0:0:0:0:
424,184,119830,1,0,0:0:0:0:
440,176,119935,1,2,0:0:0:0:
416,232,120041,1,2,0:0:0:0:
416,272,120094,1,2,0:0:0:0:
416,232,120147,1,2,0:0:0:0:
344,208,120252,1,2,0:0:0:0:
496,216,120464,1,2,0:0:0:0:
424,232,120675,1,0,0:0:0:0:
392,256,120728,1,0,0:0:0:0:
392,256,120780,1,0,0:0:0:0:
432,192,120886,1,0,0:0:0:0:
424,184,121097,1,0,0:0:0:0:
472,152,121203,1,2,0:0:0:0:
416,232,121309,1,2,0:0:0:0:
416,232,121361,1,2,0:0:0:0:
416,232,121414,1,2,0:0:0:0:
392,256,121467,1,2,0:0:0:0:
472,152,121520,1,0,0:0:0:0:
432,192,121626,1,0,0:0:0:0:
504,176,121731,1,2,0:0:0:0:
352,168,121942,1,0,0:0:0:0:
424,184,122048,1,2,0:0:0:0:
496,152,122154,1,2,0:0:0:0:
432,192,122207,1,2,0:0:0:0:
400,216,122259,1,0,0:0:0:0:
432,192,122312,1,2,0:0:0:0:
424,152,122365,1,2,0:0:0:0:
448,208,122418,1,2,0:0:0:0:
432,192,122471,1,0,0:0:0:0:
456,168,122523,1,2,0:0:0:0:
456,168,122576,1,0,0:0:0:0:
424,184,122893,1,2,0:0:0:0:
472,152,123104,1,0,0:0:0:0:
424,152,123527,1,0,0:0:0:0:
424,184,123844,1,0,0:0:0:0:
432,192,123949,1,0,0:0:0:0:
424,184,124266,1,0,0:0:0:0:
280,224,124583,1,0,0:0:0:0:
328,208,124689,1,2,0:0:0:0:
456,152,124795,1,0,0:0:0:0:
376,216,125006,1,0,0:0:0:0:
376,216,125111,1,0,0:0:0:0:
376,216,125217,1,0,0:0:0:0:
424,184,125323,1,0,0:0:0:0:
432,192,125534,1,0,0:0:0:0:
456,152,125640,1,2,0:0:0:0:
472,176,125745,1,0,0:0:0:0:
368,184,125957,1,0,0:0:0:0:
432,192,126168,1,2,0:0:0:0:
472,160,126273,1,0,0:0:0:0:
424,184,126379,1,0,0:0:0:0:
432,192,126485,1,0,0:0:0:0:
336,232,126696,1,0,0:0:0:0:
448,136,126802,1,0,0:0:0:0:
456,184,126907,1,0,0:0:0:0:
488,160,127118,1,2,0:0:0:0:
472,176,127224,1,0,0:0:0:0:
440,216,127330,1,0,0:0:0:0:
336,216,127541,1,0,0:0:0:0:
352,168,127647,1,0,0:0:0:0:
440,224,127858,1,0,0:0:0:0:
424,184,127964,1,2,0:0:0:0:
472,176,128069,1,0,0:0:0:0:
424,184,128175,1,0,0:0:0:0:
328,224,128386,1,0,0:0:0:0:
376,200,128492,1,0,0:0:0:0:
424,184,128597,1,0,0:0:0:0:
416,288,128914,1,0,0:0:0:0:
424,184,129020,1,2,0:0:0:0:
424,184,129125,1,0,0:0:0:0:
456,200,129337,1,6,0:0:0:0:
456,56,129654,1,2,0:0:0:0:
456,152,129865,1,0,0:0:0:0:
464,248,130076,1,2,0:0:0:0:
456,200,130288,1,0,0:0:0:0:
480,176,130499,1,2,0:0:0:0:
424,184,130604,1,2,0:0:0:0:
448,144,130710,1,2,0:0:0:0:
408,176,130816,1,0,0:0:0:0:
352,256,131027,1,0,0:0:0:0:
424,184,131238,1,0,0:0:0:0:
456,216,131344,1,0,0:0:0:0:
456,200,131449,1,0,0:0:0:0:
480,176,131555,1,2,0:0:0:0:
448,144,131766,1,2,0:0:0:0:
496,152,131872,1,0,0:0:0:0:
456,176,131978,1,0,0:0:0:0:
424,184,132083,1,0,0:0:0:0:
424,184,132189,1,0,0:0:0:0:
480,176,132400,1,2,0:0:0:0:
464,224,132506,1,0,0:0:0:0:
416,232,132717,1,2,0:0:0:0:
336,184,132928,1,2,0:0:0:0:
480,176,133034,1,0,0:0:0:0:
448,208,133140,1,0,0:0:0:0:
496,152,133245,1,2,0:0:0:0:
480,176,133351,1,0,0:0:0:0:
440,208,133457,1,0,0:0:0:0:
416,232,133562,1,0,0:0:0:0:
424,184,133668,1,0,0:0:0:0:
504,128,133879,1,0,0:0:0:0:
464,152,133985,1,0,0:0:0:0:
496,152,134090,1,2,0:0:0:0:
480,200,134196,1,0,0:0:0:0:
480,200,134407,1,6,0:0:0:0:
448,208,134618,1,2,0:0:0:0:
488,240,134724,1,0,0:0:0:0:
416,232,134830,1,0,0:0:0:0:
440,208,134883,1,0,0:0:0:0:
440,208,134935,1,0,0:0:0:0:
472,176,135041,1,2,0:0:0:0:
432,200,135147,1,2,0:0:0:0:
440,208,135199,1,2,0:0:0:0:
496,152,135252,1,0,0:0:0:0:
256,192,135358,12,0,136045,0:0:0:0:
456,136,136097,5,6,0:0:0:0:
440,208,136414,5,2,0:0:0:0:
432,96,136626,1,0,0:0:0:0:
424,152,136732,1,0,0:0:0:0:
480,160,136837,1,2,0:0:0:0:
424,152,137048,1,0,0:0:0:0:
456,200,137154,1,0,0:0:0:0:
480,160,137259,1,2,0:0:0:0:
376,208,137471,1,0,0:0:0:0:
424,240,137576,1,0,0:0:0:0:
456,200,137682,1,2,0:0:0:0:
472,192,137788,1,0,0:0:0:0:
400,104,137999,1,0,0:0:0:0:
480,160,138104,1,2,0:0:0:0:
376,208,138210,1,0,0:0:0:0:
400,192,138263,1,0,0:0:0:0:
376,176,138316,1,0,0:0:0:0:
424,144,138421,1,0,0:0:0:0:
480,160,138527,1,2,0:0:0:0:
440,200,138633,1,0,0:0:0:0:
400,192,138738,1,0,0:0:0:0:
400,192,138809,1,0,0:0:0:0:
424,224,138879,1,2,0:0:0:0:
392,208,138949,1,2,0:0:0:0:
392,208,139020,1,2,0:0:0:0:
424,192,139090,1,0,0:0:0:0:
448,168,139161,1,2,0:0:0:0:
400,192,139231,1,2,0:0:0:0:
448,168,139302,1,0,0:0:0:0:
472,192,139372,1,2,0:0:0:0:
472,192,139442,1,0,0:0:0:0:
472,192,139513,1,0,0:0:0:0:
448,168,139583,1,0,0:0:0:0:
424,192,139689,1,2,0:0:0:0:
472,192,139795,1,0,0:0:0:0:
360,192,140006,1,0,0:0:0:0:
328,200,140059,1,0,0:0:0:0:
304,208,140111,1,0,0:0:0:0:
360,192,140217,1,2,0:0:0:0:
416,208,140323,1,0,0:0:0:0:
424,224,140428,1,2,0:0:0:0:
424,192,140481,1,2,0:0:0:0:
448,168,140534,1,0,0:0:0:0:
424,192,140640,1,0,0:0:0:0:
424,192,140745,1,2,0:0:0:0:
416,208,140957,1,2,0:0:0:0:
424,192,141168,1,2,0:0:0:0:
464,232,141273,1,6,0:0:0:0:
408,128,141485,1,2,0:0:0:0:
416,168,141555,1,2,0:0:0:0:
456,152,141626,1,0,0:0:0:0:
456,152,141696,1,2,0:0:0:0:
456,152,141766,1,2,0:0:0:0:
448,168,141837,1,0,0:0:0:0:
424,192,141907,1,0,0:0:0:0:
368,176,142013,1,2,0:0:0:0:
408,232,142118,2,0,B|-16:40|-16:40|184:48,1,640
456,152,143069,1,2,0:0:0:0:
456,152,143175,1,2,0:0:0:0:
424,192,143228,1,0,0:0:0:0:
424,192,143280,1,0,0:0:0:0:
424,192,143386,1,0,0:0:0:0:
424,192,143439,1,0,0:0:0:0:
424,192,143492,1,0,0:0:0:0:
472,160,143597,1,0,0:0:0:0:
456,152,143703,1,2,0:0:0:0:
376,232,143914,1,2,0:0:0:0:
424,192,144020,1,2,0:0:0:0:
456,152,144090,1,0,0:0:0:0:
432,184,144161,1,0,0:0:0:0:
424,192,144231,1,0,0:0:0:0:
376,168,144337,1,6,0:0:0:0:
472,224,144548,1,2,0:0:0:0:
432,184,144759,1,0,0:0:0:0:
488,184,144865,1,2,0:0:0:0:
432,168,144971,1,0,0:0:0:0:
472,160,145076,1,2,0:0:0:0:
496,128,145147,1,0,0:0:0:0:
456,152,145217,1,0,0:0:0:0:
456,152,145288,1,0,0:0:0:0:
440,200,145393,1,0,0:0:0:0:
432,184,145499,1,2,0:0:0:0:
432,184,145569,1,0,0:0:0:0:
432,184,145640,1,0,0:0:0:0:
472,184,145710,1,2,0:0:0:0:
368,216,145921,1,2,0:0:0:0:
432,168,146027,1,0,0:0:0:0:
384,192,146133,1,0,0:0:0:0:
432,168,146238,1,2,0:0:0:0:
376,264,146449,1,2,0:0:0:0:
408,224,146555,1,0,0:0:0:0:
472,160,146661,1,2,0:0:0:0:
488,136,146714,1,0,0:0:0:0:
432,184,146766,1,0,0:0:0:0:
376,184,146872,1,0,0:0:0:0:
296,184,147030,1,0,0:0:0:0:
296,184,147083,1,0,0:0:0:0:
400,152,147295,1,2,0:0:0:0:
312,288,147559,1,2,0:0:0:0:
472,160,147612,1,0,0:0:0:0:
448,168,147664,1,0,0:0:0:0:
432,184,147717,1,0,0:0:0:0:
384,208,147823,1,0,0:0:0:0:
376,264,147928,1,0,0:0:0:0:
384,208,148034,1,0,0:0:0:0:
448,168,148140,1,2,0:0:0:0:
432,184,148192,1,2,0:0:0:0:
472,160,148245,1,0,0:0:0:0:
376,184,148351,1,0,0:0:0:0:
376,184,148457,1,0,0:0:0:0:
384,208,148509,1,0,0:0:0:0:
384,208,148562,1,0,0:0:0:0:
448,168,148668,1,2,0:0:0:0:
432,184,148721,1,2,0:0:0:0:
448,168,148773,1,0,0:0:0:0:
408,64,148985,1,0,0:0:0:0:
432,112,149090,1,2,0:0:0:0:
480,144,149196,1,0,0:0:0:0:
448,184,149302,1,0,0:0:0:0:
432,208,149407,1,0,0:0:0:0:
392,176,149513,1,0,0:0:0:0:
336,184,149618,1,6,0:0:0:0:
472,160,149830,1,0,0:0:0:0:
472,160,149935,1,2,0:0:0:0:
448,168,150041,1,0,0:0:0:0:
448,168,150147,1,0,0:0:0:0:
448,168,150252,1,2,0:0:0:0:
328,128,150569,1,0,0:0:0:0:
392,176,150674,1,0,0:0:0:0:
472,160,150780,1,2,0:0:0:0:
480,144,150885,1,0,0:0:0:0:
448,168,150938,1,0,0:0:0:0:
448,168,150991,1,0,0:0:0:0:
400,208,151097,1,0,0:0:0:0:
456,184,151202,1,2,0:0:0:0:
472,160,151308,1,0,0:0:0:0:
344,144,151520,1,0,0:0:0:0:
400,168,151626,1,2,0:0:0:0:
448,168,151731,1,0,0:0:0:0:
424,184,151784,1,0,0:0:0:0:
400,208,151837,1,0,0:0:0:0:
464,208,151942,1,2,0:0:0:0:
448,168,152048,1,2,0:0:0:0:
448,168,152101,1,2,0:0:0:0:
480,144,152154,1,0,0:0:0:0:
480,144,152259,1,0,0:0:0:0:
416,136,152365,1,0,0:0:0:0:
480,144,152471,1,2,0:0:0:0:
416,144,152576,1,2,0:0:0:0:
480,144,152788,1,0,0:0:0:0:
424,176,152893,1,0,0:0:0:0:
424,184,152999,1,2,0:0:0:0:
400,168,153210,1,2,0:0:0:0:
392,200,153263,1,2,0:0:0:0:
424,184,153316,1,0,0:0:0:0:
480,160,153421,1,2,0:0:0:0:
424,200,153527,1,2,0:0:0:0:
408,224,153580,1,2,0:0:0:0:
408,224,153633,1,2,0:0:0:0:
424,200,153738,1,2,0:0:0:0:
424,184,153844,1,0,0:0:0:0:
448,208,154055,1,2,0:0:0:0:
464,144,154161,1,0,0:0:0:0:
424,184,154266,1,0,0:0:0:0:
488,168,154372,1,2,0:0:0:0:
424,200,154425,1,2,0:0:0:0:
424,200,154478,1,2,0:0:0:0:
480,160,154583,1,0,0:0:0:0:
416,152,154689,1,0,0:0:0:0:
400,168,154742,1,0,0:0:0:0:
376,184,154795,1,0,0:0:0:0:
400,168,154865,1,0,0:0:0:0:
440,176,154935,1,2,0:0:0:0:
424,184,155006,1,2,0:0:0:0:
384,192,155076,1,2,0:0:0:0:
464,144,155147,1,0,0:0:0:0:
424,184,155217,1,0,0:0:0:0:
456,152,155288,1,2,0:0:0:0:
424,184,155358,1,2,0:0:0:0:
424,184,155428,1,2,0:0:0:0:
440,176,155499,1,0,0:0:0:0:
408,200,155569,1,0,0:0:0:0:
424,200,155640,1,2,0:0:0:0:
424,184,155710,1,0,0:0:0:0:
384,192,155780,1,0,0:0:0:0:
376,232,155851,1,0,0:0:0:0:
352,216,155921,1,0,0:0:0:0:
440,176,155992,1,2,0:0:0:0:
424,184,156062,1,0,0:0:0:0:
480,160,156168,1,2,0:0:0:0:
448,216,156273,1,0,0:0:0:0:
400,264,156379,1,4,0:0:0:0:
296,192,156590,1,0,0:0:0:0:
360,184,156696,1,2,0:0:0:0:
440,176,156802,1,0,0:0:0:0:
352,216,156854,1,0,0:0:0:0:
376,232,156907,1,0,0:0:0:0:
424,184,157013,1,0,0:0:0:0:
480,160,157118,1,2,0:0:0:0:
448,216,157224,1,0,0:0:0:0:
408,160,157330,1,2,0:0:0:0:
440,216,157435,1,2,0:0:0:0:
480,160,157541,1,0,0:0:0:0:
480,160,157647,1,2,0:0:0:0:
480,160,157752,1,0,0:0:0:0:
440,176,157858,1,0,0:0:0:0:
496,208,157964,1,2,0:0:0:0:
456,160,158069,1,0,0:0:0:0:
424,184,158280,1,0,0:0:0:0:
360,168,158386,1,2,0:0:0:0:
440,176,158492,1,0,0:0:0:0:
408,184,158545,1,0,0:0:0:0:
400,216,158597,1,0,0:0:0:0:
408,184,158703,1,0,0:0:0:0:
440,176,158809,1,2,0:0:0:0:
480,160,158914,1,0,0:0:0:0:
456,160,159020,1,2,0:0:0:0:
480,160,159126,1,0,0:0:0:0:
440,176,159178,1,0,0:0:0:0:
440,176,159231,1,0,0:0:0:0:
440,176,159337,1,0,0:0:0:0:
456,240,159442,1,4,0:0:0:0:
440,176,159548,1,4,0:0:0:0:
440,176,159654,1,4,0:0:0:0:
488,136,159759,1,6,0:0:0:0:
488,136,159971,1,0,0:0:0:0:
480,160,160076,1,2,0:0:0:0:
440,176,160288,1,2,0:0:0:0:
456,160,160499,1,2,0:0:0:0:
360,248,160710,1,2,0:0:0:0:
440,152,160921,1,2,0:0:0:0:
360,256,161133,1,2,0:0:0:0:
408,208,161238,1,2,0:0:0:0:
488,136,161344,1,0,0:0:0:0:
448,184,161449,1,2,0:0:0:0:
336,144,161608,1,2,0:0:0:0:
392,176,161661,1,2,0:0:0:0:
392,176,161714,1,2,0:0:0:0:
376,240,161819,1,2,0:0:0:0:
376,240,161978,1,2,0:0:0:0:
400,184,162083,1,2,0:0:0:0:
408,152,162136,1,2,0:0:0:0:
376,240,162189,1,2,0:0:0:0:
400,216,162242,1,0,0:0:0:0:
424,192,162295,1,2,0:0:0:0:
440,152,162347,1,2,0:0:0:0:
488,136,162400,1,0,0:0:0:0:
488,136,162506,1,2,0:0:0:0:
424,192,162611,1,2,0:0:0:0:
448,184,162717,1,2,0:0:0:0:
360,144,162823,1,4,0:0:0:0:
392,176,162928,1,4,0:0:0:0:
448,184,163140,1,4,0:0:0:0:
304,160,163457,1,0,0:0:0:0:
296,64,163668,1,0,0:0:0:0:
440,152,163879,1,2,0:0:0:0:
344,176,164090,1,2,0:0:0:0:
304,152,164196,1,2,0:0:0:0:
392,184,164407,1,2,0:0:0:0:
472,136,164618,1,0,0:0:0:0:
448,176,164724,1,0,0:0:0:0:
400,192,164830,1,0,0:0:0:0:
496,184,165041,1,0,0:0:0:0:
440,152,165147,1,2,0:0:0:0:
392,144,165252,1,2,0:0:0:0:
344,144,165358,1,2,0:0:0:0:
440,152,165464,1,0,0:0:0:0:
472,136,165569,1,0,0:0:0:0:
472,136,165675,1,2,0:0:0:0:
376,160,165886,1,0,0:0:0:0:
424,160,165992,1,2,0:0:0:0:
472,152,166097,1,0,0:0:0:0:
440,184,166203,1,0,0:0:0:0:
432,232,166309,1,0,0:0:0:0:
440,184,166361,1,0,0:0:0:0:
416,176,166414,1,0,0:0:0:0:
472,152,166520,1,2,0:0:0:0:
472,152,166837,1,2,0:0:0:0:
432,240,167048,1,2,0:0:0:0:
472,136,167259,1,0,0:0:0:0:
440,176,167365,1,0,0:0:0:0:
424,160,167471,1,2,0:0:0:0:
400,256,167576,1,2,0:0:0:0:
416,208,167682,1,2,0:0:0:0:
416,208,167787,1,2,0:0:0:0:
416,208,167893,1,2,0:0:0:0:
472,152,167998,1,0,0:0:0:0:
488,168,168210,1,6,0:0:0:0:
472,152,168421,1,0,0:0:0:0:
440,176,168527,1,0,0:0:0:0:
440,176,168633,1,0,0:0:0:0:
440,176,168738,1,2,0:0:0:0:
400,208,168844,1,2,0:0:0:0:
432,176,168949,1,0,0:0:0:0:
440,176,169055,1,0,0:0:0:0:
488,168,169161,1,6,0:0:0:0:
424,240,169372,1,2,0:0:0:0:
432,144,169583,1,6,0:0:0:0:
440,176,169689,1,2,0:0:0:0:
472,200,169900,1,4,0:0:0:0:
312,160,170111,1,0,0:0:0:0:
440,176,170217,1,2,0:0:0:0:
392,272,170428,1,0,0:0:0:0:
432,176,170534,1,0,0:0:0:0:
440,176,170640,1,2,0:0:0:0:
504,88,170851,1,0,0:0:0:0:
440,176,170957,1,0,0:0:0:0:
472,136,171062,1,2,0:0:0:0:
496,88,171168,1,0,0:0:0:0:
472,136,171273,1,2,0:0:0:0:
472,136,171344,1,0,0:0:0:0:
456,168,171414,1,0,0:0:0:0:
496,152,171485,1,2,0:0:0:0:
472,136,171555,1,0,0:0:0:0:
440,176,171626,1,0,0:0:0:0:
440,176,171696,1,6,0:0:0:0:
424,120,171802,1,2,0:0:0:0:
456,160,171907,1,2,0:0:0:0:
408,144,172013,1,4,0:0:0:0:
448,176,172118,1,0,0:0:0:0:
440,176,172224,1,0,0:0:0:0:
496,184,172330,1,6,0:0:0:0:
440,192,172435,1,2,0:0:0:0:
440,176,172541,1,2,0:0:0:0:
464,224,172647,1,6,0:0:0:0:
496,176,172752,1,2,0:0:0:0:
440,176,172858,1,0,0:0:0:0:
392,192,172964,1,6,0:0:0:0:
496,184,173069,1,2,0:0:0:0:
448,152,173175,1,0,0:0:0:0:
480,192,173280,1,4,0:0:0:0:
376,168,173492,1,0,0:0:0:0:
432,160,173597,1,2,0:0:0:0:
488,168,173703,1,0,0:0:0:0:
440,176,173809,1,0,0:0:0:0:
440,192,173914,1,0,0:0:0:0:
440,192,173967,1,0,0:0:0:0:
440,192,174020,1,2,0:0:0:0:
392,160,174126,1,0,0:0:0:0:
440,176,174231,1,0,0:0:0:0:
424,200,174284,1,0,0:0:0:0:
424,200,174337,1,0,0:0:0:0:
424,200,174390,1,0,0:0:0:0:
440,176,174442,1,2,0:0:0:0:
480,136,174548,1,0,0:0:0:0:
416,224,174601,1,0,0:0:0:0:
424,200,174654,1,0,0:0:0:0:
416,224,174759,1,0,0:0:0:0:
488,168,174865,1,2,0:0:0:0:
424,200,174918,1,0,0:0:0:0:
440,184,174971,1,0,0:0:0:0:
416,224,175023,1,0,0:0:0:0:
424,200,175076,1,0,0:0:0:0:
320,216,175288,1,0,0:0:0:0:
424,200,175393,1,0,0:0:0:0:
424,200,175604,1,0,0:0:0:0:
440,176,175816,1,2,0:0:0:0:
360,256,176027,1,2,0:0:0:0:
416,224,176133,1,2,0:0:0:0:
440,184,176238,1,0,0:0:0:0:
424,200,176291,1,0,0:0:0:0:
440,184,176344,1,2,0:0:0:0:
464,192,176397,1,0,0:0:0:0:
440,184,176449,1,2,0:0:0:0:
416,184,176502,1,2,0:0:0:0:
440,168,176555,1,0,0:0:0:0:
464,152,176608,1,2,0:0:0:0:
440,168,176661,1,2,0:0:0:0:
464,168,176714,1,0,0:0:0:0:
424,200,176766,1,0,0:0:0:0:
320,176,176978,1,0,0:0:0:0:
312,232,177083,1,0,0:0:0:0:
416,192,177295,1,0,0:0:0:0:
472,96,177506,1,2,0:0:0:0:
464,152,177717,1,0,0:0:0:0:
416,192,177823,1,0,0:0:0:0:
384,232,177928,1,0,0:0:0:0:
384,232,177981,1,0,0:0:0:0:
464,152,178034,1,2,0:0:0:0:
456,176,178087,1,0,0:0:0:0:
464,152,178140,1,2,0:0:0:0:
448,176,178192,1,2,0:0:0:0:
464,168,178245,1,0,0:0:0:0:
440,176,178298,1,0,0:0:0:0:
424,200,178351,1,4,0:0:0:0:
448,176,178668,1,2,0:0:0:0:
440,176,179090,1,2,0:0:0:0:
376,152,179302,1,0,0:0:0:0:
320,224,179513,1,0,0:0:0:0:
424,200,179618,1,0,0:0:0:0:
440,176,179724,1,2,0:0:0:0:
456,152,179830,1,0,0:0:0:0:
400,184,180041,1,0,0:0:0:0:
456,104,180358,1,2,0:0:0:0:
456,152,180570,1,2,0:0:0:0:
456,152,180675,1,0,0:0:0:0:
424,200,180886,1,0,0:0:0:0:
440,176,181097,1,0,0:0:0:0:
400,184,181203,1,0,0:0:0:0:
440,176,181414,1,2,0:0:0:0:
456,152,181626,1,0,0:0:0:0:
432,176,181731,1,0,0:0:0:0:
456,152,181942,1,0,0:0:0:0:
440,176,182048,1,0,0:0:0:0:
424,200,182154,1,0,0:0:0:0:
440,176,182259,1,2,0:0:0:0:
456,152,182471,1,0,0:0:0:0:
432,176,182576,1,0,0:0:0:0:
400,184,182682,1,2,0:0:0:0:
440,176,182893,1,2,0:0:0:0:
424,200,182999,1,2,0:0:0:0:
456,184,183210,1,0,0:0:0:0:
432,176,183316,1,0,0:0:0:0:
400,184,183421,1,0,0:0:0:0:
456,184,183633,1,2,0:0:0:0:
480,160,183738,1,0,0:0:0:0:
440,176,183844,1,2,0:0:0:0:
424,152,183949,1,2,0:0:0:0:
432,176,184161,1,0,0:0:0:0:
400,160,184266,1,2,0:0:0:0:
384,136,184795,1,0,0:0:0:0:
384,136,184900,1,0,0:0:0:0:
488,192,185111,1,4,0:0:0:0:
384,88,185323,1,0,0:0:0:0:
440,176,185428,1,2,0:0:0:0:
368,200,185534,1,2,0:0:0:0:
432,176,185640,1,0,0:0:0:0:
400,240,185745,1,0,0:0:0:0:
432,176,185851,1,2,0:0:0:0:
360,176,185957,1,2,0:0:0:0:
432,192,186062,1,2,0:0:0:0:
360,200,186168,1,2,0:0:0:0:
432,216,186273,1,2,0:0:0:0:
432,176,186379,1,0,0:0:0:0:
320,272,186590,1,0,0:0:0:0:
368,216,186696,1,0,0:0:0:0:
408,152,186802,1,0,0:0:0:0:
408,152,187013,1,0,0:0:0:0:
360,208,187118,1,0,0:0:0:0:
424,168,187224,1,0,0:0:0:0:
488,128,187330,1,0,0:0:0:0:
456,144,187383,1,2,0:0:0:0:
408,152,187435,1,2,0:0:0:0:
408,152,187488,1,2,0:0:0:0:
408,152,187541,1,2,0:0:0:0:
480,160,187647,1,0,0:0:0:0:
456,144,187858,1,2,0:0:0:0:
424,168,187964,1,2,0:0:0:0:
424,168,188069,1,2,0:0:0:0:
368,216,188175,1,0,0:0:0:0:
432,176,188280,1,0,0:0:0:0:
424,168,188333,1,0,0:0:0:0:
464,160,188386,1,2,0:0:0:0:
432,176,188439,1,2,0:0:0:0:
480,160,188492,1,0,0:0:0:0:
336,176,188703,1,0,0:0:0:0:
480,160,188809,1,2,0:0:0:0:
424,168,188914,1,0,0:0:0:0:
352,176,189020,1,0,0:0:0:0:
424,192,189126,1,0,0:0:0:0:
480,144,189231,1,2,0:0:0:0:
440,208,189337,1,0,0:0:0:0:
424,168,189548,1,2,0:0:0:0:
400,192,189601,1,2,0:0:0:0:
464,160,189654,1,0,0:0:0:0:
432,176,189707,1,0,0:0:0:0:
464,160,189759,1,2,0:0:0:0:
464,160,189812,1,0,0:0:0:0:
432,176,189865,1,0,0:0:0:0:
464,160,189971,1,2,0:0:0:0:
440,376,190182,1,4,0:0:0:0:
440,208,190393,1,0,0:0:0:0:
368,144,190499,1,2,0:0:0:0:
480,144,190745,1,0,0:0:0:0:
424,168,190851,1,0,0:0:0:0:
464,160,190957,1,2,0:0:0:0:
512,96,191062,1,2,0:0:0:0:
400,192,191168,1,2,0:0:0:0:
400,192,191273,1,2,0:0:0:0:
432,176,191485,1,0,0:0:0:0:
424,168,191696,1,0,0:0:0:0:
424,168,191802,1,0,0:0:0:0:
408,248,191907,1,0,0:0:0:0:
480,144,192083,1,2,0:0:0:0:
424,168,192189,1,0,0:0:0:0:
480,144,192295,1,2,0:0:0:0:
408,168,192400,1,2,0:0:0:0:
400,192,192506,1,2,0:0:0:0:
448,168,192717,1,0,0:0:0:0:
448,168,192928,1,2,0:0:0:0:
432,176,192981,1,2,0:0:0:0:
464,160,193034,1,0,0:0:0:0:
424,168,193140,1,0,0:0:0:0:
424,168,193245,1,0,0:0:0:0:
432,176,193351,1,0,0:0:0:0:
384,240,193457,1,0,0:0:0:0:
320,192,193562,1,4,0:0:0:0:
440,80,193773,1,0,0:0:0:0:
480,144,193879,1,2,0:0:0:0:
480,144,193985,1,0,0:0:0:0:
432,176,194090,1,0,0:0:0:0:
432,176,194196,1,0,0:0:0:0:
512,152,194302,1,2,0:0:0:0:
456,208,194407,1,0,0:0:0:0:
488,136,194513,1,2,0:0:0:0:
512,152,194618,1,0,0:0:0:0:
432,168,194724,1,2,0:0:0:0:
512,176,194830,1,0,0:0:0:0:
432,176,194935,1,0,0:0:0:0:
432,176,195041,1,0,0:0:0:0:
512,160,195147,1,2,0:0:0:0:
456,208,195252,1,0,0:0:0:0:
312,144,195464,1,2,0:0:0:0:
480,144,195569,1,0,0:0:0:0:
424,200,195675,1,2,0:0:0:0:
432,176,195780,1,2,0:0:0:0:
424,200,195886,1,2,0:0:0:0:
488,152,195992,1,0,0:0:0:0:
448,216,196097,1,2,0:0:0:0:
432,168,196203,1,0,0:0:0:0:
432,168,196256,1,0,0:0:0:0:
400,184,196309,1,0,0:0:0:0:
400,184,196361,1,0,0:0:0:0:
480,144,196414,1,2,0:0:0:0:
432,176,196467,1,2,0:0:0:0:
432,176,196520,1,2,0:0:0:0:
432,176,196573,1,2,0:0:0:0:
488,152,196626,1,0,0:0:0:0:
416,184,196731,1,0,0:0:0:0:
448,216,196942,1,4,0:0:0:0:
320,312,197154,1,0,0:0:0:0:
376,256,197259,1,2,0:0:0:0:
424,200,197365,1,2,0:0:0:0:
496,168,197471,1,0,0:0:0:0:
448,232,197576,1,2,0:0:0:0:
480,160,197682,1,0,0:0:0:0:
448,216,197788,1,2,0:0:0:0:
424,200,197893,1,0,0:0:0:0:
344,216,197999,1,0,0:0:0:0:
432,176,198104,1,2,0:0:0:0:
368,128,198210,1,0,0:0:0:0:
440,168,198316,1,2,0:0:0:0:
464,176,198421,1,0,0:0:0:0:
432,176,198527,1,0,0:0:0:0:
424,200,198633,1,2,0:0:0:0:
448,216,198738,1,0,0:0:0:0:
424,200,198844,1,0,0:0:0:0:
448,216,198949,1,2,0:0:0:0:
424,136,199055,1,0,0:0:0:0:
416,176,199108,1,0,0:0:0:0:
424,200,199161,1,2,0:0:0:0:
424,200,199214,1,2,0:0:0:0:
464,176,199266,1,0,0:0:0:0:
464,176,199372,1,2,0:0:0:0:
464,176,199478,1,0,0:0:0:0:
496,24,199689,1,2,0:0:0:0:
440,168,199795,1,2,0:0:0:0:
504,128,199900,1,2,0:0:0:0:
424,152,200006,1,0,0:0:0:0:
392,224,200111,1,0,0:0:0:0:
400,184,200164,1,0,0:0:0:0:
464,176,200217,1,2,0:0:0:0:
424,192,200270,1,2,0:0:0:0:
464,176,200323,1,0,0:0:0:0:
424,200,200534,1,0,0:0:0:0:
464,176,200640,1,2,0:0:0:0:
464,176,200745,1,0,0:0:0:0:
464,176,200851,1,0,0:0:0:0:
464,176,200957,1,0,0:0:0:0:
464,176,201062,1,2,0:0:0:0:
464,176,201168,1,0,0:0:0:0:
424,192,201379,1,0,0:0:0:0:
464,176,201485,1,2,0:0:0:0:
384,168,201590,1,2,0:0:0:0:
464,176,201696,1,2,0:0:0:0:
384,192,201802,1,2,0:0:0:0:
496,144,201907,1,0,0:0:0:0:
448,208,202013,1,0,0:0:0:0:
424,192,202224,1,0,0:0:0:0:
496,144,202330,1,2,0:0:0:0:
416,184,202435,1,0,0:0:0:0:
424,192,202541,1,0,0:0:0:0:
424,192,202647,1,0,0:0:0:0:
496,144,202752,1,2,0:0:0:0:
448,208,202858,1,0,0:0:0:0:
360,232,202964,1,2,0:0:0:0:
448,216,203069,1,2,0:0:0:0:
360,224,203175,1,2,0:0:0:0:
464,176,203280,1,0,0:0:0:0:
384,200,203386,1,2,0:0:0:0:
424,192,203492,1,2,0:0:0:0:
480,128,203597,1,0,0:0:0:0:
424,192,203703,1,0,0:0:0:0:
448,24,203914,1,0,0:0:0:0:
464,112,204020,1,2,0:0:0:0:
424,192,204126,1,2,0:0:0:0:
424,192,204231,1,2,0:0:0:0:
424,192,204337,1,2,0:0:0:0:
496,144,204442,1,0,0:0:0:0:
440,208,204548,1,2,0:0:0:0:
408,128,204654,1,2,0:0:0:0:
432,184,204724,1,2,0:0:0:0:
432,184,204795,1,0,0:0:0:0:
480,152,204865,1,2,0:0:0:0:
440,192,204935,1,0,0:0:0:0:
448,136,205006,1,0,0:0:0:0:
480,152,205076,1,2,0:0:0:0:
424,192,205147,1,2,0:0:0:0:
480,152,205217,1,0,0:0:0:0:
408,128,205288,1,0,0:0:0:0:
472,192,205393,1,4,0:0:0:0:
352,96,205710,1,2,0:0:0:0:
288,232,205921,1,2,0:0:0:0:
344,184,206026,1,2,0:0:0:0:
432,184,206132,1,0,0:0:0:0:
496,152,206238,1,2,0:0:0:0:
432,184,206344,1,0,0:0:0:0:
440,192,206449,1,2,0:0:0:0:
368,160,206555,1,2,0:0:0:0:
424,192,206661,1,2,0:0:0:0:
480,144,206766,1,0,0:0:0:0:
416,184,206872,1,0,0:0:0:0:
376,248,206978,1,0,0:0:0:0:
416,184,207083,1,0,0:0:0:0:
432,184,207295,1,0,0:0:0:0:
504,152,207400,1,2,0:0:0:0:
440,192,207506,1,0,0:0:0:0:
440,192,207611,1,2,0:0:0:0:
424,192,207664,1,2,0:0:0:0:
480,144,207717,1,0,0:0:0:0:
448,216,207823,1,2,0:0:0:0:
480,144,207928,1,2,0:0:0:0:
480,144,208034,1,0,0:0:0:0:
424,192,208140,1,0,0:0:0:0:
488,160,208245,1,2,0:0:0:0:
448,216,208351,1,0,0:0:0:0:
376,192,208457,1,0,0:0:0:0:
448,168,208562,1,2,0:0:0:0:
480,144,208668,1,0,0:0:0:0:
448,168,208773,1,2,0:0:0:0:
440,192,208985,1,0,0:0:0:0:
480,144,209090,1,2,0:0:0:0:
424,192,209143,1,2,0:0:0:0:
376,192,209196,1,2,0:0:0:0:
432,240,209302,1,2,0:0:0:0:
432,240,209407,1,2,0:0:0:0:
456,168,209513,1,0,0:0:0:0:
384,176,209618,1,2,0:0:0:0:
448,168,209724,1,0,0:0:0:0:
480,144,209830,1,2,0:0:0:0:
440,192,209935,1,2,0:0:0:0:
408,256,210041,1,2,0:0:0:0:
448,168,210147,1,0,0:0:0:0:
328,80,210358,1,0,0:0:0:0:
456,168,210464,1,2,0:0:0:0:
312,200,210675,1,2,0:0:0:0:
392,216,210780,1,0,0:0:0:0:
456,168,210886,1,2,0:0:0:0:
464,152,211097,1,2,0:0:0:0:
512,216,211203,1,0,0:0:0:0:
448,168,211309,1,2,0:0:0:0:
376,200,211414,1,2,0:0:0:0:
448,168,211520,1,0,0:0:0:0:
376,192,211626,1,0,0:0:0:0:
448,216,211731,1,0,0:0:0:0:
392,216,211837,1,0,0:0:0:0:
448,168,211942,1,2,0:0:0:0:
392,312,212154,1,0,0:0:0:0:
424,168,212365,1,0,0:0:0:0:
416,208,212418,1,0,0:0:0:0:
448,168,212471,1,2,0:0:0:0:
464,152,212576,1,2,0:0:0:0:
392,216,212682,1,2,0:0:0:0:
376,200,212788,1,2,0:0:0:0:
432,168,212893,1,0,0:0:0:0:
464,224,212999,1,2,0:0:0:0:
472,88,213104,1,0,0:0:0:0:
472,152,213210,1,2,0:0:0:0:
416,208,213315,1,2,0:0:0:0:
432,272,213421,1,2,0:0:0:0:
432,208,213527,1,0,0:0:0:0:
416,208,213633,1,0,0:0:0:0:
432,208,213738,1,0,0:0:0:0:
448,168,213844,1,2,0:0:0:0:
448,168,214055,1,0,0:0:0:0:
464,152,214161,1,2,0:0:0:0:
464,216,214266,1,0,0:0:0:0:
400,184,214372,1,2,0:0:0:0:
464,168,214478,1,0,0:0:0:0:
464,168,214530,1,2,0:0:0:0:
448,168,214583,1,2,0:0:0:0:
400,184,214689,1,0,0:0:0:0:
464,200,214795,1,0,0:0:0:0:
448,168,214900,1,2,0:0:0:0:
400,184,214953,1,2,0:0:0:0:
368,200,215006,1,2,0:0:0:0:
424,160,215111,1,0,0:0:0:0:
408,224,215217,1,0,0:0:0:0:
464,168,215323,1,2,0:0:0:0:
464,168,215376,1,0,0:0:0:0:
440,184,215428,1,0,0:0:0:0:
408,200,215481,1,0,0:0:0:0:
464,168,215534,1,2,0:0:0:0:
464,168,215745,1,0,0:0:0:0:
440,184,215851,1,2,0:0:0:0:
440,120,215957,1,2,0:0:0:0:
416,144,216009,1,2,0:0:0:0:
392,168,216062,1,2,0:0:0:0:
448,168,216168,1,2,0:0:0:0:
496,120,216273,1,0,0:0:0:0:
472,184,216379,1,2,0:0:0:0:
504,120,216485,1,0,0:0:0:0:
464,168,216590,1,2,0:0:0:0:
408,200,216696,1,2,0:0:0:0:
440,184,216802,1,2,0:0:0:0:
440,216,216854,1,2,0:0:0:0:
408,200,216907,1,2,0:0:0:0:
440,184,217013,1,0,0:0:0:0:
408,200,217066,1,0,0:0:0:0:
384,224,217118,1,0,0:0:0:0:
384,224,217171,1,0,0:0:0:0:
392,256,217224,1,2,0:0:0:0:
440,184,217435,1,2,0:0:0:0:
472,184,217541,1,0,0:0:0:0:
472,184,217647,1,2,0:0:0:0:
448,208,217699,1,2,0:0:0:0:
448,168,217752,1,0,0:0:0:0:
480,168,217858,1,2,0:0:0:0:
416,160,217964,1,2,0:0:0:0:
464,168,218069,1,0,0:0:0:0:
472,232,218175,1,4,0:0:0:0:
488,168,218280,1,6,0:0:0:0:
440,216,218386,1,6,0:0:0:0:
448,208,218492,1,6,0:0:0:0:
496,144,218597,1,4,0:0:0:0:
