osu file format v14

[General]
AudioFilename: LA FESTA LA VITA!!.mp3
AudioLeadIn: 2000
PreviewTime: 32480
Countdown: 0
SampleSet: Normal
StackLeniency: 0.4
Mode: 0
LetterboxInBreaks: 1
WidescreenStoryboard: 0

[Editor]
Bookmarks: 77814,85814
DistanceSpacing: 1.3
BeatDivisor: 4
GridSize: 4
TimelineZoom: 1.5

[Metadata]
Title:LA FESTA LA VITA!!
TitleUnicode:LA FESTA LA VITA!!
Artist:GUHROOVY
ArtistUnicode:GUHROOVY
Creator:Frey
Version:Hard
Source:beatmania IIDX
Tags:21 SPADA Epic Drum and bass Drum'n'bass dnb Akira Uchibori 内堀 彰
BeatmapID:705821
BeatmapSetID:195823

[Difficulty]
HPDrainRate:5
CircleSize:3.5
OverallDifficulty:5
ApproachRate:7
SliderMultiplier:1.3
SliderTickRate:1

[Events]
//Background and Video events
0,0,"r.jpg",0,0
//Break Periods
2,78014,84914
//Storyboard Layer 0 (Background)
//Storyboard Layer 1 (Fail)
//Storyboard Layer 2 (Pass)
//Storyboard Layer 3 (Foreground)
//Storyboard Sound Samples

[TimingPoints]
481,333.333333333333,4,1,1,80,1,0
88480,-100,4,1,1,80,0,1
109814,-100,4,1,1,80,0,0

[Colours]
Combo1 : 255,128,192
Combo2 : 255,113,113
Combo3 : 255,28,141

[HitObjects]
56,100,481,6,0,L|208:84,1,130,4|0,0:0|0:0,0:0:0:0:
256,132,980,1,0,0:0:0:0:
180,172,1147,2,0,P|152:272|168:324,1,130,8|0,0:0|0:0,0:0:0:0:
208,364,1647,1,0,0:0:0:0:
288,340,1814,6,0,L|372:348,1,65
412,284,2147,2,0,L|405:219,1,65
392,136,2480,2,0,P|312:136|256:120,1,130,8|0,0:0|0:0,0:0:0:0:
208,60,2980,1,0,0:0:0:0:
128,88,3147,6,0,P|80:152|88:212,1,130
164,168,3647,1,0,0:0:0:0:
200,248,3814,2,0,P|248:184|240:124,1,130,8|0,0:0|0:0,0:0:0:0:
208,60,4314,1,0,0:0:0:0:
128,88,4480,6,0,L|44:80,1,65
24,156,4814,2,0,L|108:164,1,65
148,224,5147,1,8,0:0:0:0:
232,228,5314,2,0,P|288:220|312:212,2,65
148,224,5814,6,0,P|104:292|128:352,1,130
192,368,6314,1,0,0:0:0:0:
272,336,6480,2,0,P|348:324|424:328,1,130,8|0,0:0|0:0,0:0:0:0:
480,352,6980,1,0,0:0:0:0:
464,268,7147,6,0,P|456:216|456:176,1,65
480,124,7480,2,0,P|477:91|471:59,1,65
388,36,7814,2,0,P|360:55|336:76,1,65
256,56,8147,1,0,0:0:0:0:
196,116,8314,1,0,0:0:0:0:
236,192,8480,6,0,B|380:204,1,130
436,156,8980,1,0,0:0:0:0:
492,220,9147,2,0,P|500:292|464:344,1,130,8|0,0:0|0:0,0:0:0:0:
420,268,9647,1,0,0:0:0:0:
365,202,9814,6,0,P|351:160|356:128,1,65
376,60,10147,2,0,P|340:56|304:72,1,65
268,136,10480,2,0,P|172:132|136:96,1,130,8|0,0:0|0:0,0:0:0:0:
112,36,10980,1,0,0:0:0:0:
32,60,11147,6,0,P|4:136|16:208,1,130,4|0,0:0|0:0,0:0:0:0:
56,256,11647,1,0,0:0:0:0:
132,216,11814,2,0,P|204:208|280:232,1,130,8|0,0:0|0:0,0:0:0:0:
320,64,12480,6,0,L|168:84,1,130
124,132,12980,1,0,0:0:0:0:
132,216,13147,2,0,P|188:252|272:228,1,130,8|0,0:0|0:0,0:0:0:0:
316,192,13647,1,0,0:0:0:0:
400,212,13814,6,0,L|440:364,1,130
356,372,14314,1,0,0:0:0:0:
276,344,14480,2,0,P|216:340|140:352,1,130,8|0,0:0|0:0,0:0:0:0:
32,224,15147,6,0,P|96:260|160:244,1,130
104,180,15647,1,0,0:0:0:0:
58,109,15814,2,0,P|122:101|176:136,1,130,8|0,0:0|0:0,0:0:0:0:
224,208,16314,1,0,0:0:0:0:
308,224,16480,6,0,L|448:208,1,130
496,152,16980,1,0,0:0:0:0:
472,72,17147,2,0,P|420:40|340:52,1,130,8|0,0:0|0:0,0:0:0:0:
292,104,17647,1,0,0:0:0:0:
304,188,17814,6,0,L|316:280,1,65
256,316,18147,2,0,L|191:307,1,65
116,340,18480,2,0,P|44:332|20:280,1,130,8|0,0:0|0:0,0:0:0:0:
32,204,18980,1,0,0:0:0:0:
100,152,19147,6,0,P|166:148|240:140,1,130
256,60,19647,1,0,0:0:0:0:
316,120,19814,2,0,P|304:192|232:224,1,130,8|0,0:0|0:0,0:0:0:0:
176,232,20314,1,0,0:0:0:0:
120,296,20480,6,0,P|124:352|128:368,1,65
204,324,20814,2,0,P|260:320|276:316,1,65
344,360,21147,1,8,0:0:0:0:
380,284,21314,2,0,P|344:264|304:228,1,65
360,172,21647,1,0,0:0:0:0:
432,216,21814,6,0,P|440:148|384:88,1,130,6|8,0:0|0:0,0:0:0:0:
340,48,22314,2,0,L|256:56,1,65
192,64,22647,1,2,0:0:0:0:
108,72,22813,1,8,0:0:0:0:
16,212,23147,6,0,P|67:174|131:176,1,130,2|8,0:0|0:0,0:0:0:0:
196,232,23647,1,0,0:0:0:0:
176,316,23814,2,0,L|112:300,1,65,0|2,0:0|0:0,0:0:0:0:
72,376,24147,1,8,0:0:0:0:
240,372,24480,6,0,L|396:332,1,130,2|8,0:0|0:0,0:0:0:0:
448,352,24980,1,0,0:0:0:0:
476,272,25147,2,0,P|436:244|404:212,1,65,0|2,0:0|0:0,0:0:0:0:
344,256,25480,1,8,0:0:0:0:
280,100,25814,6,0,L|409:84,1,130,2|8,0:0|0:0,0:0:0:0:
492,76,26314,1,0,0:0:0:0:
464,156,26480,2,0,L|436:232,1,65,0|2,0:0|0:0,0:0:0:0:
372,268,26814,1,8,0:0:0:0:
356,184,26980,1,0,0:0:0:0:
272,204,27147,6,0,P|212:200|120:184,1,130,2|8,0:0|0:0,0:0:0:0:
72,144,27647,2,0,P|56:88|60:64,1,65
132,44,27980,1,2,0:0:0:0:
188,108,28147,1,8,0:0:0:0:
72,232,28480,6,0,P|56:284|64:360,1,130,2|8,0:0|0:0,0:0:0:0:
148,356,28980,1,0,0:0:0:0:
208,296,29147,2,0,P|204:240|192:212,1,65,0|2,0:0|0:0,0:0:0:0:
136,176,29480,1,8,0:0:0:0:
256,56,29814,6,0,L|412:72,1,130,2|8,0:0|0:0,0:0:0:0:
432,140,30314,1,0,0:0:0:0:
360,184,30480,2,0,P|352:224|356:260,2,65,0|2|8,0:0|0:0|0:0,0:0:0:0:
244,308,31147,6,0,P|240:240|252:164,1,130,2|8,0:0|0:0,0:0:0:0:
308,116,31647,1,0,0:0:0:0:
360,184,31814,2,0,L|444:176,1,65,0|2,0:0|0:0,0:0:0:0:
480,240,32147,2,0,L|473:304,1,65,8|0,0:0|0:0,0:0:0:0:
400,352,32480,6,0,L|248:364,1,130,2|2,2:0|2:0,0:0:0:0:
196,324,32980,1,2,2:0:0:0:
212,240,33147,1,2,2:0:0:0:
296,232,33314,2,0,P|328:164|292:104,1,130,2|2,2:0|2:0,0:0:0:0:
240,64,33814,6,0,L|88:80,1,130,2|2,2:0|2:0,0:0:0:0:
48,136,34314,1,2,2:0:0:0:
60,220,34480,2,0,P|120:232|136:232,1,65,0|2,0:0|0:0,0:0:0:0:
208,232,34814,2,0,P|240:235|271:244,1,65,2|8,0:0|0:0,0:0:0:0:
312,320,35147,6,0,P|352:272|348:204,1,130,6|8,0:0|0:0,0:0:0:0:
284,152,35647,1,0,0:0:0:0:
344,92,35814,2,0,L|408:80,1,65,0|2,0:0|0:0,0:0:0:0:
480,124,36147,2,0,L|492:188,1,65,8|0,0:0|0:0,0:0:0:0:
440,256,36480,6,0,L|292:228,1,130,2|8,0:0|0:0,0:0:0:0:
228,216,36980,1,0,0:0:0:0:
168,276,37147,2,0,P|172:324|184:352,2,65,0|2|8,0:0|0:0|0:0,0:0:0:0:
228,216,37647,1,0,0:0:0:0:
312,231,37814,6,0,P|336:164|296:100,1,130,2|8,0:0|0:0,0:0:0:0:
240,76,38314,2,0,L|164:84,1,65
92,96,38647,1,2,0:0:0:0:
40,164,38814,2,0,P|28:208|24:248,1,65,8|0,0:0|0:0,0:0:0:0:
36,312,39147,6,0,P|88:356|160:344,1,130,2|8,0:0|0:0,0:0:0:0:
232,364,39647,1,0,0:0:0:0:
216,280,39814,2,0,L|144:264,1,65,0|2,0:0|0:0,0:0:0:0:
172,184,40147,1,8,0:0:0:0:
300,296,40480,6,0,L|432:324,1,130,2|8,0:0|0:0,0:0:0:0:
504,288,40980,1,0,0:0:0:0:
464,212,41147,2,0,P|460:172|464:140,1,65,0|2,0:0|0:0,0:0:0:0:
500,72,41480,1,8,0:0:0:0:
416,76,41647,1,0,0:0:0:0:
376,148,41814,6,0,P|312:148|236:132,1,130,2|8,0:0|0:0,0:0:0:0:
176,92,42314,2,0,P|172:60|176:24,2,65,0|0|2,0:0|0:0|0:0,0:0:0:0:
164,176,42814,1,8,0:0:0:0:
92,132,42980,1,0,0:0:0:0:
32,192,43147,6,0,P|20:244|20:328,1,130,2|8,0:0|0:0,0:0:0:0:
100,340,43647,1,0,0:0:0:0:
180,359,43814,2,0,L|244:352,1,65,0|2,0:0|0:0,0:0:0:0:
304,292,44147,2,0,P|360:300|396:300,1,65,8|0,0:0|0:0,0:0:0:0:
420,368,44480,6,0,P|444:324|428:240,1,130,2|8,0:0|0:0,0:0:0:0:
388,176,44980,1,0,0:0:0:0:
308,208,45147,2,0,L|224:220,1,65,0|2,0:0|0:0,0:0:0:0:
188,152,45480,1,8,0:0:0:0:
336,68,45814,6,0,L|400:77,1,65,6|0,0:0|0:0,0:0:0:0:
464,136,46147,1,8,0:0:0:0:
388,176,46314,2,0,L|236:152,1,130,0|2,0:0|0:0,0:0:0:0:
188,108,46814,2,0,P|200:56|204:24,1,65,8|0,0:0|0:0,0:0:0:0:
120,28,47147,6,0,P|96:100|104:176,1,130,2|8,0:0|0:0,0:0:0:0:
168,200,47647,2,0,P|168:256|104:304,1,130,0|2,0:0|0:0,0:0:0:0:
40,268,48147,2,0,P|28:224|40:184,1,65,8|0,0:0|0:0,0:0:0:0:
98,153,48480,6,0,L|168:100,1,65,2|0,0:0|0:0,0:0:0:0:
236,116,48814,1,8,0:0:0:0:
288,180,48980,2,0,P|304:256|288:316,1,130,0|2,0:0|0:0,0:0:0:0:
220,352,49480,2,0,L|144:364,1,65,8|0,0:0|0:0,0:0:0:0:
70,376,49814,6,0,P|28:329|40:268,1,130,2|8,0:0|0:0,0:0:0:0:
104,212,50314,2,0,L|249:190,1,130,0|2,0:0|0:0,0:0:0:0:
308,232,50814,2,0,P|292:288|288:316,1,65,8|0,0:0|0:0,0:0:0:0:
352,352,51147,6,0,P|408:337|434:327,1,65,2|0,0:0|0:0,0:0:0:0:
492,300,51480,1,8,0:0:0:0:
452,224,51647,2,0,P|448:160|468:88,1,130,0|2,0:0|0:0,0:0:0:0:
502,21,52147,1,8,0:0:0:0:
417,23,52314,1,0,0:0:0:0:
372,96,52480,6,0,L|236:108,1,130,2|8,0:0|0:0,0:0:0:0:
176,56,52980,2,0,P|160:104|192:176,1,130,0|2,0:0|0:0,0:0:0:0:
272,192,53480,2,0,L|256:264,1,65,8|0,0:0|0:0,0:0:0:0:
240,340,53814,6,0,L|444:316,2,195,6|8|8,0:0|0:0|0:0,0:0:0:0:
196,176,55147,2,0,L|-8:200,2,195,6|10|8,0:0|0:0|0:0,0:0:0:0:
240,340,56480,6,0,L|110:326,2,130,6|8|0,0:0|0:0|0:0,0:0:0:0:
316,300,57314,2,0,L|292:224,1,65,2|8,0:0|0:0,0:0:0:0:
268,156,57647,1,0,0:0:0:0:
320,88,57814,6,0,P|384:76|444:120,1,130,2|8,0:0|0:0,0:0:0:0:
484,180,58314,2,0,P|420:192|360:148,1,130,0|2,0:0|0:0,0:0:0:0:
320,88,58814,2,0,P|280:72|228:68,1,65,8|0,0:0|0:0,0:0:0:0:
192,120,59147,6,0,P|124:136|40:132,2,130,2|8|0,0:0|0:0|0:0,0:0:0:0:
180,36,59980,1,2,0:0:0:0:
258,68,60147,1,8,0:0:0:0:
276,152,60314,1,0,0:0:0:0:
208,200,60480,6,0,P|184:272|172:344,1,130,2|8,0:0|0:0,0:0:0:0:
256,352,60980,2,0,L|408:340,1,130,0|2,0:0|0:0,0:0:0:0:
468,356,61480,2,0,P|480:308|480:268,1,65,8|0,0:0|0:0,0:0:0:0:
420,232,61814,6,0,P|412:184|420:96,2,130,2|8|0,0:0|0:0|0:0,0:0:0:0:
500,208,62647,1,2,0:0:0:0:
508,124,62814,2,8,P|504:80|496:44,1,65
424,20,63147,6,0,P|368:28|336:104,1,130,2|8,0:0|0:0,0:0:0:0:
304,168,63647,2,0,L|152:156,1,130,0|2,0:0|0:0,0:0:0:0:
108,212,64147,2,0,L|84:132,1,65,8|0,0:0|0:0,0:0:0:0:
68,68,64480,6,0,L|197:78,2,130,2|8|0,0:0|0:0|0:0,0:0:0:0:
12,132,65314,1,2,0:0:0:0:
48,208,65480,2,0,L|36:288,1,65,8|0,0:0|0:0,0:0:0:0:
120,300,65814,6,0,P|184:292|268:292,2,130,2|8|0,0:0|0:0|0:0,0:0:0:0:
56,356,66647,1,2,0:0:0:0:
38,272,66814,1,8,0:0:0:0:
100,216,66980,1,0,0:0:0:0:
184,200,67147,6,0,P|192:140|176:48,1,130,6|8,0:0|0:0,0:0:0:0:
256,24,67647,2,0,P|317:45|381:51,1,130,0|2,0:0|0:0,0:0:0:0:
464,40,68147,2,0,L|496:112,1,65,8|0,0:0|0:0,0:0:0:0:
464,180,68480,6,0,L|392:212,1,65,2|0,0:0|0:0,0:0:0:0:
332,160,68814,2,0,P|276:152|240:156,1,65,8|0,0:0|0:0,0:0:0:0:
184,172,69147,1,0,0:0:0:0:
128,236,69314,2,0,P|120:300|124:316,2,65,2|8|0,0:0|0:0|0:0,0:0:0:0:
184,172,69814,6,0,P|200:120|192:40,1,130,2|8,0:0|0:0,0:0:0:0:
112,24,70314,2,0,P|48:36|20:116,1,130,0|2,0:0|0:0,0:0:0:0:
36,172,70814,2,0,L|116:188,1,65,8|0,0:0|0:0,0:0:0:0:
184,172,71147,6,0,L|264:188,1,65,2|0,0:0|0:0,0:0:0:0:
324,149,71480,2,0,P|332:201|316:229,1,65,8|0,0:0|0:0,0:0:0:0:
264,268,71814,2,0,P|258:299|268:330,1,65,0|2,0:0|0:0,0:0:0:0:
340,372,72147,2,0,L|416:364,1,65,8|0,0:0|0:0,0:0:0:0:
484,336,72480,6,0,P|504:272|468:204,1,130,2|8,0:0|0:0,0:0:0:0:
408,172,72980,2,0,L|424:28,1,130,0|2,0:0|0:0,0:0:0:0:
504,68,73480,2,0,L|497:132,1,65,8|0,0:0|0:0,0:0:0:0:
480,216,73814,6,0,P|428:256|364:244,1,130,2|8,0:0|0:0,0:0:0:0:
300,196,74314,2,0,P|292:168|292:124,1,65
372,152,74647,2,0,P|371:119|362:88,1,65,2|8,0:0|0:0,0:0:0:0:
292,44,74980,1,0,0:0:0:0:
220,88,75147,6,0,P|118:105|16:104,2,195,6|8|8,0:0|0:0|0:0,0:0:0:0:
292,240,76480,2,0,P|393:257|496:256,2,195,6|8|8,0:0|0:0|0:0,0:0:0:0:
392,104,77814,5,4,0:0:0:0:
256,62,85814,6,0,P|244:134|256:192,1,130,2|0,0:0|0:0,0:0:0:0:
328,232,86314,2,0,L|416:220,2,65,0|8|0,0:0|0:0|0:0,0:0:0:0:
256,276,86814,1,0,0:0:0:0:
184,232,86980,1,0,0:0:0:0:
172,148,87147,6,0,L|160:64,1,65,2|0,0:0|0:0,0:0:0:0:
80,60,87480,1,0,0:0:0:0:
20,120,87647,2,0,P|0:184|4:256,1,130,2|2,0:0|0:0,0:0:0:0:
32,324,88147,2,0,L|116:332,1,65,8|0,0:0|0:0,0:0:0:0:
172,288,88480,6,0,L|328:304,1,130,6|8,0:0|0:0,0:0:0:0:
376,264,88980,1,0,0:0:0:0:
405,343,89147,2,0,P|441:335|489:327,1,65,0|2,0:0|0:0,0:0:0:0:
488,248,89480,2,0,P|463:220|432:183,1,65,8|0,0:0|0:0,0:0:0:0:
481,123,89814,6,0,P|417:119|365:175,1,130,2|8,0:0|0:0,0:0:0:0:
312,224,90314,2,0,L|232:212,1,65
164,200,90647,1,2,0:0:0:0:
92,244,90814,2,0,P|80:296|80:320,1,65,8|0,0:0|0:0,0:0:0:0:
144,364,91147,6,0,P|224:336|240:296,1,130,2|8,0:0|0:0,0:0:0:0:
247,214,91647,1,0,0:0:0:0:
204,140,91814,2,0,L|116:156,1,65,0|2,0:0|0:0,0:0:0:0:
60,128,92147,2,0,P|60:88|72:60,1,65,8|0,0:0|0:0,0:0:0:0:
152,44,92480,6,0,L|215:32,2,65,0|2|8,0:0|0:0|0:0,0:0:0:0:
300,128,93147,2,0,L|363:139,2,65,0|2|8,0:0|0:0|0:0,0:0:0:0:
136,176,93814,6,0,P|96:236|120:312,1,130,6|8,0:0|0:0,0:0:0:0:
180,252,94314,1,0,0:0:0:0:
220,180,94480,2,0,L|212:104,1,65,0|2,0:0|0:0,0:0:0:0:
268,52,94814,2,0,P|312:60|336:60,1,65,8|0,0:0|0:0,0:0:0:0:
412,36,95147,6,0,P|456:40|480:128,1,130,2|8,0:0|0:0,0:0:0:0:
456,192,95647,1,0,0:0:0:0:
376,220,95814,2,0,L|296:208,1,65,0|2,0:0|0:0,0:0:0:0:
252,272,96147,2,0,L|261:336,1,65,8|0,0:0|0:0,0:0:0:0:
340,368,96480,6,0,P|404:372|480:344,1,130,2|8,0:0|0:0,0:0:0:0:
488,272,96980,1,0,0:0:0:0:
456,192,97147,2,0,P|424:192|380:212,1,65,0|2,0:0|0:0,0:0:0:0:
328,256,97480,2,0,P|295:255|265:245,1,65,8|0,0:0|0:0,0:0:0:0:
200,192,97814,6,0,L|208:120,2,65,0|2|0,0:0|0:0|0:0,0:0:0:0:
92,324,98480,2,0,L|84:252,2,65,0|2|8,0:0|0:0|0:0,0:0:0:0:
256,364,99147,6,0,L|412:348,1,130,6|8,0:0|0:0,0:0:0:0:
468,368,99647,1,0,0:0:0:0:
492,288,99814,2,0,P|504:228|464:160,1,130,0|8,0:0|0:0,0:0:0:0:
424,236,100314,1,0,0:0:0:0:
340,224,100480,6,0,L|192:208,1,130,2|8,0:0|0:0,0:0:0:0:
160,276,100980,2,0,P|128:216|148:152,1,130,0|2,0:0|0:0,0:0:0:0:
220,124,101480,2,0,L|208:40,1,65,8|0,0:0|0:0,0:0:0:0:
136,24,101814,6,0,L|-22:44,1,130,2|8,0:0|0:0,0:0:0:0:
16,124,102314,1,0,0:0:0:0:
96,152,102480,2,0,P|104:216|48:280,1,130,0|8,0:0|0:0,0:0:0:0:
0,316,102980,1,0,0:0:0:0:
76,352,103147,6,0,L|224:340,1,130
256,272,103647,2,0,L|385:282,1,130,0|2,0:0|0:0,0:0:0:0:
448,340,104147,1,8,0:0:0:0:
472,260,104314,1,0,0:0:0:0:
412,200,104480,6,0,L|282:189,1,130,2|8,0:0|0:0,0:0:0:0:
200,204,104980,1,0,0:0:0:0:
132,152,105147,2,0,P|120:84|152:24,1,130,0|8,0:0|0:0,0:0:0:0:
228,24,105647,1,0,0:0:0:0:
284,88,105814,6,0,P|352:88|436:64,1,130,2|8,0:0|0:0,0:0:0:0:
484,28,106314,2,0,P|500:80|456:148,1,130,0|2,0:0|0:0,0:0:0:0:
384,168,106814,2,0,P|372:212|372:248,1,65,8|0,0:0|0:0,0:0:0:0:
444,272,107147,6,0,P|396:308|328:304,1,130,2|8,0:0|0:0,0:0:0:0:
288,232,107647,1,0,0:0:0:0:
216,188,107814,2,0,L|128:204,1,65,0|2,0:0|0:0,0:0:0:0:
68,216,108147,1,8,0:0:0:0:
8,160,108314,1,0,0:0:0:0:
36,80,108480,5,6,0:0:0:0:
120,64,108647,2,0,P|184:76|276:76,1,130,8|2,0:0|0:0,0:0:0:0:
328,52,109147,2,0,L|348:136,1,65,8|2,0:0|0:0,0:0:0:0:
272,160,109480,2,0,L|248:236,1,65,8|0,0:0|0:0,0:0:0:0:
312,280,109814,6,0,P|380:264|464:252,1,130,6|0,0:0|0:0,0:0:0:0:
476,92,110480,1,8,0:0:0:0:
308,108,110814,1,0,0:0:0:0:
312,280,111147,2,0,P|228:328|116:232,1,260,0|8,0:0|0:0,0:0:0:0:
12,100,112147,1,0,0:0:0:0:
180,128,112480,6,0,P|252:121|328:112,1,130
472,64,113147,1,8,0:0:0:0:
432,228,113480,1,0,0:0:0:0:
309,114,113814,2,0,P|181:130|168:248,1,260,0|8,0:0|0:0,0:0:0:0:
288,356,114814,1,0,0:0:0:0:
452,316,115147,6,0,P|460:248|464:160,1,130,4|0,0:0|0:0,0:0:0:0:
340,72,115814,2,0,P|344:144|364:228,1,130,8|0,0:0|0:0,0:0:0:0:
216,296,116480,2,0,P|168:220|16:256,1,260,0|8,0:0|0:0,0:0:0:0:
136,376,117480,1,0,0:0:0:0:
304,352,117814,6,0,P|324:300|288:232,1,130
176,116,118480,2,0,P|156:176|186:231,1,130,8|0,0:0|0:0,0:0:0:0:
340,164,119147,2,0,P|412:148|488:144,1,130
452,312,119814,2,0,L|292:292,1,130,8|0,0:0|0:0,0:0:0:0:
160,252,120480,6,0,L|88:264,1,65
28,212,120814,2,0,L|16:140,1,65
68,80,121147,1,0,0:0:0:0:
236,104,121480,1,0,2:0:0:0:
160,252,121814,6,0,P|162:285|170:316,1,65
244,360,122147,2,0,P|277:357|308:349,1,65
356,280,122480,1,0,0:0:0:0:
256,144,122814,6,0,L|112:156,1,130,0|0,2:0|2:0,0:0:0:0:
