osu file format v14

[General]
AudioFilename: GTA feat. Sam Bruno - Red Lips (Mendus Remix).mp3
AudioLeadIn: 0
PreviewTime: 56887
Countdown: 0
SampleSet: Soft
StackLeniency: 0.7
Mode: 0
LetterboxInBreaks: 0
WidescreenStoryboard: 1

[Editor]
Bookmarks: 19312,38512,48112,57712,96112,115312,134512,144112,153712,192112,196912
DistanceSpacing: 0.8
BeatDivisor: 4
GridSize: 8
TimelineZoom: 1.099999

[Metadata]
Title:Red Lips (Mendus Remix)
TitleUnicode:Red Lips (Mendus Remix)
Artist:GTA feat. Sam Bruno
ArtistUnicode:GTA feat. Sam Bruno
Creator:Euny
Version:Natsu's Insane
Source:
Tags:HabiHolic Alarido Natsu Come[Back]Home CBH
BeatmapID:1116219
BeatmapSetID:512810

[Difficulty]
HPDrainRate:5.5
CircleSize:4
OverallDifficulty:7
ApproachRate:8.5
SliderMultiplier:2.2
SliderTickRate:1

[Events]
//Background and Video events
0,0,"^ 3^.png",0,0
//Break Periods
2,96312,109837
//Storyboard Layer 0 (Background)
//Storyboard Layer 1 (Fail)
//Storyboard Layer 2 (Pass)
//Storyboard Layer 3 (Foreground)
//Storyboard Sound Samples

[TimingPoints]
19312,600,4,2,44,50,1,0
19312,-125,4,2,44,50,0,0
38512,-111.111111111111,4,2,44,50,0,0
47812,-100,4,2,44,50,0,0
48112,-100,4,2,44,60,0,0
57112,-166.666666666667,4,2,44,40,0,0
57712,-71.4285714285714,4,2,44,70,0,1
58312,-71.4285714285714,4,2,44,70,0,0
61012,-83.3333333333333,4,2,44,70,0,0
61912,-71.4285714285714,4,2,44,70,0,0
65812,-83.3333333333333,4,2,44,70,0,0
66262,-83.3333333333333,4,2,44,60,0,0
66712,-71.4285714285714,4,2,44,70,0,0
70612,-83.3333333333333,4,2,44,70,0,0
71512,-71.4285714285714,4,2,44,70,0,0
72112,-83.3333333333333,4,2,44,70,0,0
76912,-83.3333333333333,4,2,44,70,0,1
77512,-83.3333333333333,4,2,44,70,0,0
80662,-100,4,2,44,70,0,0
81112,-71.4285714285714,4,2,44,70,0,0
85012,-83.3333333333333,4,2,44,70,0,0
85462,-83.3333333333333,4,2,44,60,0,0
85912,-71.4285714285714,4,2,44,70,0,0
89812,-83.3333333333333,4,2,44,70,0,0
90712,-71.4285714285714,4,2,44,70,0,0
115312,-125,4,2,44,50,0,0
134512,-111.111111111111,4,2,44,50,0,0
144112,-100,4,2,44,60,0,0
153112,-100,4,2,43,60,0,0
153712,-83.3333333333333,4,2,44,70,0,1
154312,-83.3333333333333,4,2,44,70,0,0
157012,-83.3333333333333,4,2,44,70,0,0
157912,-71.4285714285714,4,2,44,70,0,0
161812,-83.3333333333333,4,2,44,70,0,0
162712,-71.4285714285714,4,2,44,70,0,0
163312,-83.3333333333333,4,2,44,70,0,0
167512,-71.4285714285714,4,2,44,70,0,0
168112,-83.3333333333333,4,2,44,70,0,0
172912,-83.3333333333333,4,2,44,70,0,1
173512,-83.3333333333333,4,2,44,70,0,0
177112,-71.4285714285714,4,2,44,70,0,0
177712,-83.3333333333333,4,2,44,70,0,0
181912,-71.4285714285714,4,2,44,70,0,0
182512,-83.3333333333333,4,2,44,70,0,0
186712,-71.4285714285714,4,2,44,70,0,0
187312,-83.3333333333333,4,2,44,70,0,0
192112,-250,4,2,44,40,0,0
193312,-250,4,2,44,30,0,0
194512,-250,4,2,44,20,0,0
195712,-250,4,2,44,10,0,0
196912,-250,4,2,44,5,0,0

[Colours]
Combo1 : 255,157,157
Combo2 : 255,0,0

[HitObjects]
24,344,19312,6,0,L|120:336,1,88,6|0,0:0|0:0,0:0:0:0:
185,361,19762,1,0,0:0:0:0:
121,263,19912,2,0,P|105:223|109:180,1,88,8|2,0:0|0:0,0:0:0:0:
165,18,20512,2,0,P|181:58|177:101,1,88,0|0,0:0|0:0,0:0:0:0:
31,260,21112,1,8,0:0:0:0:
40,271,21712,6,0,L|129:271,1,88,2|0,0:0|0:0,0:0:0:0:
194,318,22162,1,0,0:0:0:0:
259,224,22312,2,0,P|270:182|257:141,1,88,8|2,0:0|0:0,0:0:0:0:
201,84,22762,1,0,0:0:0:0:
318,182,22912,2,0,L|407:182,1,88,0|2,0:0|0:0,0:0:0:0:
194,318,23512,1,8,0:0:0:0:
184,328,24112,6,0,P|123:347|149:269,1,176,2|8,0:0|0:0,0:0:0:0:
318,182,25012,1,2,0:0:0:0:
300,365,25312,1,0,0:0:0:0:
139,269,25612,1,0,0:0:0:0:
119,194,25762,1,0,0:0:0:0:
67,136,25912,2,0,P|105:117|148:122,1,88,8|0,0:0|0:0,0:0:0:0:
379,183,26512,6,0,P|298:212|219:177,1,176,2|8,0:0|0:0,0:0:0:0:
130,27,27412,1,2,0:0:0:0:
23,197,27712,2,0,L|14:287,2,88,0|2|8,0:0|0:0|0:0,0:0:0:0:
174,104,28612,5,2,0:0:0:0:
252,79,28762,1,0,0:0:0:0:
332,61,28912,2,0,B|324:162,1,88,0|0,0:0|0:0,0:0:0:0:
308,338,29512,1,8,0:0:0:0:
308,352,30112,2,0,P|361:302|380:373,1,176,0|8,0:0|0:0,0:0:0:0:
206,362,31012,5,0,0:0:0:0:
142,330,31162,1,0,0:0:0:0:
78,295,31312,2,0,P|68:252|84:206,1,88,2|0,0:0|0:0,0:0:0:0:
230,87,31912,2,0,L|325:80,2,88,8|2|0,0:0|0:0|0:0,0:0:0:0:
293,159,32662,1,0,0:0:0:0:
293,159,32812,2,0,L|387:152,1,88,2|8,0:0|0:0,0:0:0:0:
464,280,33412,5,2,0:0:0:0:
400,232,33562,1,0,0:0:0:0:
380,152,33712,2,0,P|368:111|379:69,1,88,2|0,0:0|0:0,0:0:0:0:
470,299,34312,2,0,P|482:340|471:382,1,88,8|2,0:0|0:0,0:0:0:0:
233,252,34912,2,0,B|321:213|322:281|403:239,1,176,0|8,0:0|0:0,0:0:0:0:
492,23,35812,5,0,0:0:0:0:
475,99,35962,1,0,0:0:0:0:
452,170,36112,2,0,B|337:184|304:152|347:102|377:143,1,176,2|8,0:0|0:0,0:0:0:0:
372,295,37012,2,0,P|339:216|373:138,1,176,2|2,0:0|0:0,0:0:0:0:
485,30,37912,1,8,0:0:0:0:
261,146,38212,1,2,0:0:0:0:
312,86,38362,1,0,0:0:0:0:
300,210,38512,6,0,P|254:222|210:202,1,98.9999969787599,6|0,0:0|0:0,0:0:0:0:
151,125,38962,1,2,0:3:0:0:
93,223,39112,2,0,L|81:324,1,98.9999969787599,2|2,0:3|0:3,0:0:0:0:
268,355,39712,1,2,0:0:0:0:
343,337,39862,1,2,0:3:0:0:
418,320,40012,1,2,0:3:0:0:
486,145,40312,2,0,P|495:192|479:239,1,98.9999969787599,2|0,0:3|0:0,0:0:0:0:
268,355,40912,6,0,P|258:307|274:260,1,98.9999969787599,2|0,0:0|0:0,0:0:0:0:
348,314,41362,1,2,0:3:0:0:
268,355,41512,2,0,L|162:353,1,98.9999969787599,2|2,0:3|0:3,0:0:0:0:
50,249,42112,2,0,L|-4:246,2,49.4999984893799,2|2|2,0:0|0:3|0:3,0:0:0:0:
203,207,42712,2,0,P|219:160|205:114,1,98.9999969787599,2|2,0:3|0:3,0:0:0:0:
124,54,43162,1,2,0:3:0:0:
265,160,43312,6,0,P|311:174|357:158,1,98.9999969787599,2|0,0:0|0:0,0:0:0:0:
432,56,43762,2,0,L|399:103,1,49.4999984893799,2|2,0:3|0:3,0:0:0:0:
272,256,44212,1,2,0:3:0:0:
240,325,44362,1,0,0:0:0:0:
294,378,44512,2,0,P|317:384|342:381,2,49.4999984893799,2|2|2,0:0|0:3|0:3,0:0:0:0:
116,192,45112,1,2,0:3:0:0:
317,237,45412,2,0,L|272:256,1,49.4999984893799,2|0,0:3|0:0,0:0:0:0:
170,328,45712,6,0,P|191:284|183:236,1,98.9999969787599,2|0,0:0|0:0,0:0:0:0:
72,169,46162,2,0,L|116:192,1,49.4999984893799,2|2,0:3|0:3,0:0:0:0:
333,315,46612,1,2,0:3:0:0:
399,280,46762,1,0,0:0:0:0:
426,211,46912,2,0,P|419:187|422:163,2,49.4999984893799,2|2|2,0:0|0:3|0:3,0:0:0:0:
507,365,47512,1,2,0:3:0:0:
343,338,47812,2,0,L|297:344,2,27.5,2|0|2,0:3|0:0|0:3,0:0:0:0:
386,241,48112,6,0,P|395:188|373:139,1,110,2|2,0:0|0:3,0:0:0:0:
268,86,48562,1,2,0:3:0:0:
288,204,48712,2,0,P|331:237|386:241,1,110,2|2,0:0|0:3,0:0:0:0:
483,186,49161,1,0,0:0:0:0:
446,82,49312,2,0,P|440:55|446:28,2,55,2|2|2,0:3|0:3|0:3,0:0:0:0:
481,302,49912,1,2,0:0:0:0:
288,219,50212,2,0,L|250:228,2,27.5,2|0|2,0:3|0:0|0:3,0:0:0:0:
396,196,50512,6,0,L|288:219,1,110,2|2,0:0|0:3,0:0:0:0:
172,245,50962,1,2,0:3:0:0:
265,121,51112,2,0,P|296:165|288:218,1,110,0|2,0:0|0:3,0:0:0:0:
172,245,51562,1,0,0:0:0:0:
72,183,51712,2,0,P|45:177|18:182,2,55,2|2|2,0:0|0:3|0:3,0:0:0:0:
237,361,52312,1,2,0:0:0:0:
372,107,52612,6,0,L|405:88,2,27.5,2|0|2,0:3|0:0|0:3,0:0:0:0:
319,192,52912,1,2,0:0:0:0:
211,55,53212,6,0,L|201:22,2,27.5,2|0|2,2:3|2:0|2:3,0:0:0:0:
275,131,53512,1,2,2:0:0:0:
112,192,53812,6,0,L|74:193,2,27.5,2|0|2,0:3|0:0|0:3,0:0:0:0:
204,154,54112,1,2,0:0:0:0:
211,328,54412,6,0,L|201:360,2,27.5,2|0|2,2:3|2:0|2:3,0:0:0:0:
204,229,54712,1,2,2:0:0:0:
372,276,55012,6,0,L|395:298,2,27.5,2|0|2,0:3|0:0|0:3,0:0:0:0:
279,256,55312,1,2,0:0:0:0:
279,256,55462,1,2,0:3:0:0:
344,184,55612,2,0,L|364:122,2,55,2|2|2,0:3|0:3|0:0,0:0:0:0:
279,256,56062,5,2,0:3:0:0:
279,256,56212,2,0,L|260:307,1,55,2|2,0:3|0:3,0:0:0:0:
173,295,56512,2,0,L|154:346,1,55,2|2,0:0|0:3,0:0:0:0:
106,245,56812,2,0,L|121:208,2,27.5,2|0|2,0:3|0:0|0:3,0:0:0:0:
99,267,57712,5,6,0:0:0:0:
93,285,58012,1,2,0:0:0:0:
206,340,58162,1,2,0:0:0:0:
188,211,58312,1,8,0:0:0:0:
185,227,58612,1,2,0:0:0:0:
188,249,58912,5,2,0:0:0:0:
135,344,59062,1,2,0:0:0:0:
274,297,59212,1,2,0:0:0:0:
188,249,59362,1,2,0:0:0:0:
318,236,59512,2,0,P|349:302|310:364,1,153.999995300293,8|2,0:0|0:0,0:0:0:0:
33,352,60112,5,2,0:0:0:0:
45,341,60412,1,2,0:0:0:0:
131,252,60562,1,2,0:0:0:0:
10,229,60712,1,8,0:0:0:0:
11,216,61012,6,0,P|-2:152|21:92,1,131.99999597168,2|0,0:0|0:0,0:0:0:0:
152,72,61462,2,0,L|22:91,1,131.99999597168,2|0,0:0|0:0,0:0:0:0:
198,7,61912,5,8,0:0:0:0:
115,158,62212,1,2,0:0:0:0:
397,226,62512,5,2,0:0:0:0:
386,237,62812,1,2,0:0:0:0:
282,163,62962,1,2,0:0:0:0:
203,281,63112,1,8,0:0:0:0:
214,271,63412,1,2,0:0:0:0:
224,261,63712,5,2,0:0:0:0:
339,306,63862,1,2,0:0:0:0:
389,192,64012,1,2,0:0:0:0:
481,276,64162,1,2,0:0:0:0:
397,352,64312,2,0,P|329:381|271:335,1,153.999995300293,8|2,0:0|0:0,0:0:0:0:
256,122,64912,5,2,0:0:0:0:
256,137,65212,1,2,0:0:0:0:
256,238,65362,1,2,0:0:0:0:
343,183,65512,1,8,0:0:0:0:
354,177,65812,6,0,L|491:177,1,131.99999597168,2|0,0:0|0:0,0:0:0:0:
337,246,66262,2,0,L|315:106,1,131.99999597168,4|0,0:3|0:0,0:0:0:0:
273,293,66712,5,8,0:0:0:0:
479,257,67012,1,2,0:0:0:0:
192,192,67312,5,2,0:0:0:0:
206,199,67612,1,2,0:0:0:0:
255,293,67762,1,2,0:0:0:0:
303,144,67912,1,8,0:0:0:0:
296,158,68212,1,2,0:0:0:0:
290,172,68512,5,2,0:0:0:0:
255,293,68662,1,2,0:0:0:0:
367,351,68812,1,2,0:0:0:0:
450,257,68962,1,2,0:0:0:0:
411,137,69112,2,0,B|389:89|419:30|419:30|368:59,1,153.999995300293,8|2,0:0|0:0,0:0:0:0:
256,192,69712,5,2,0:0:0:0:
266,181,70012,1,2,0:0:0:0:
411,137,70162,1,2,0:0:0:0:
327,226,70312,1,8,0:0:0:0:
331,240,70612,6,0,P|375:271|390:202,1,131.99999597168,2|8,0:0|0:0,0:0:0:0:
395,91,71062,2,0,P|378:154|402:215,1,131.99999597168,2|0,0:0|0:0,0:0:0:0:
499,312,71512,5,8,0:0:0:0:
325,265,71812,1,8,0:0:0:0:
107,351,72112,5,2,0:0:0:0:
121,344,72412,1,2,0:0:0:0:
250,279,72562,1,2,0:0:0:0:
174,188,72712,2,0,P|157:250|184:309,1,131.99999597168,8|2,0:0|0:0,0:0:0:0:
335,340,73312,5,2,0:0:0:0:
440,323,73462,1,2,0:0:0:0:
397,176,73612,1,2,0:0:0:0:
380,281,73762,1,2,0:0:0:0:
464,214,73912,2,0,P|470:151|426:104,1,131.99999597168,8|2,0:0|0:0,0:0:0:0:
251,71,74512,5,2,0:3:0:0:
213,174,74662,1,2,0:3:0:0:
146,89,74812,2,0,L|73:69,2,65.9999979858399,2|2|2,0:3|0:3|0:3,0:0:0:0:
331,151,75412,5,2,0:3:0:0:
369,48,75562,1,2,0:3:0:0:
436,133,75712,2,0,L|509:153,2,65.9999979858399,2|2|2,0:3|0:3|0:3,0:0:0:0:
251,71,76312,5,2,0:3:0:0:
217,203,76462,1,0,0:0:0:0:
340,151,76612,2,0,P|308:142|276:147,1,65.9999979858399,2|2,0:3|0:3,0:0:0:0:
99,267,76912,5,6,0:0:0:0:
84,273,77212,1,2,0:0:0:0:
17,195,77362,1,2,0:0:0:0:
9,344,77512,1,8,0:0:0:0:
22,340,77812,1,2,0:0:0:0:
35,335,78112,5,2,0:0:0:0:
130,369,78262,1,2,0:0:0:0:
112,262,78412,1,2,0:0:0:0:
222,295,78562,1,2,0:0:0:0:
192,178,78712,2,0,P|165:119|191:60,1,131.99999597168,8|2,0:0|0:0,0:0:0:0:
390,26,79312,5,2,0:0:0:0:
374,30,79612,1,2,0:0:0:0:
263,119,79762,1,2,0:0:0:0:
375,147,79912,1,8,0:0:0:0:
356,160,80212,6,0,P|347:230|390:219,1,131.99999597168,2|0,0:0|0:0,0:0:0:0:
281,209,80662,2,0,L|152:210,1,110,2|0,0:0|0:0,0:0:0:0:
66,107,81112,5,8,0:0:0:0:
157,304,81412,1,8,0:0:0:0:
317,104,81712,5,2,0:0:0:0:
309,119,82012,1,2,0:0:0:0:
212,240,82162,1,2,0:0:0:0:
302,132,82312,1,8,0:0:0:0:
296,142,82612,1,2,0:0:0:0:
290,154,82912,5,2,0:0:0:0:
212,240,83062,1,2,0:0:0:0:
298,317,83212,1,2,0:0:0:0:
376,231,83362,1,2,0:0:0:0:
212,240,83512,2,0,B|159:225|112:241|112:241|152:197,1,153.999995300293,8|2,0:0|0:0,0:0:0:0:
387,221,84112,5,2,0:0:0:0:
376,231,84412,1,2,0:0:0:0:
284,301,84562,1,2,0:0:0:0:
429,284,84712,1,8,0:0:0:0:
433,296,85012,6,0,B|497:316|497:316|434:332,1,131.99999597168,2|0,0:0|0:0,0:0:0:0:
319,295,85462,2,0,B|256:278|256:278|320:258,1,131.99999597168,12|0,0:3|0:0,0:0:0:0:
435,221,85912,5,8,0:0:0:0:
256,148,86212,1,8,0:0:0:0:
502,86,86512,5,2,0:0:0:0:
498,100,86812,1,2,0:0:0:0:
435,221,86962,1,2,0:0:0:0:
402,78,87112,1,8,0:0:0:0:
402,91,87412,1,2,0:0:0:0:
404,106,87712,5,2,0:0:0:0:
316,185,87862,1,2,0:0:0:0:
435,221,88012,1,2,0:0:0:0:
393,100,88162,1,2,0:0:0:0:
312,196,88312,2,0,B|314:315|314:315|296:281,1,153.999995300293,8|2,0:0|0:0,0:0:0:0:
215,67,88912,5,2,0:0:0:0:
219,78,89212,1,2,0:0:0:0:
117,156,89362,1,2,0:0:0:0:
270,171,89512,1,8,0:0:0:0:
276,180,89812,6,0,P|301:242|270:311,1,131.99999597168,2|8,0:0|0:0,0:0:0:0:
148,314,90262,2,0,L|280:300,1,131.99999597168,8|0,0:0|0:0,0:0:0:0:
108,375,90712,5,8,0:0:0:0:
188,196,91012,1,8,0:0:0:0:
379,362,91312,5,2,0:0:0:0:
367,352,91612,1,2,0:0:0:0:
248,247,91762,1,2,0:0:0:0:
379,362,91912,2,0,P|441:379|479:311,1,153.999995300293,8|2,0:0|0:0,0:0:0:0:
398,128,92512,5,2,0:0:0:0:
442,222,92662,1,2,0:0:0:0:
278,243,92812,1,2,0:0:0:0:
372,199,92962,1,2,0:0:0:0:
248,171,93112,2,0,P|204:218|232:308,1,153.999995300293,8|2,0:0|0:0,0:0:0:0:
383,370,93712,5,2,0:3:0:0:
473,344,93862,1,2,0:3:0:0:
483,248,94012,2,0,P|472:212|487:178,2,76.9999976501466,2|2|2,0:3|0:3|0:3,0:0:0:0:
285,370,94612,5,2,0:3:0:0:
195,344,94762,1,2,0:3:0:0:
184,248,94912,2,0,P|195:211|180:177,2,76.9999976501466,2|2|2,0:3|0:3|0:3,0:0:0:0:
3,369,95512,5,2,0:3:0:0:
96,312,95662,1,2,0:3:0:0:
185,246,95812,2,0,P|253:276|324:251,1,153.999995300293,0|6,0:0|0:0,0:0:0:0:
256,192,110512,12,0,115012,0:0:0:0:
26,33,115312,6,0,L|47:132,1,88,6|0,0:0|0:0,0:0:0:0:
133,101,115762,1,0,0:0:0:0:
133,101,115912,2,0,L|112:200,1,88,8|2,0:0|0:0,0:0:0:0:
87,333,116512,2,0,P|127:317|170:321,1,88,0|0,0:0|0:0,0:0:0:0:
325,379,117112,1,8,0:0:0:0:
340,369,117712,6,0,P|350:326|336:284,1,88,2|0,0:0|0:0,0:0:0:0:
261,238,118162,1,0,0:0:0:0:
410,242,118312,2,0,L|508:223,1,88,8|2,0:0|0:0,0:0:0:0:
471,309,118762,1,0,0:0:0:0:
337,201,118912,2,0,P|323:161|331:118,1,88,0|2,0:0|0:0,0:0:0:0:
478,34,119512,1,8,0:0:0:0:
481,49,120112,6,0,B|513:130|446:129|486:220,1,176,2|8,0:0|0:0,0:0:0:0:
327,339,121012,1,2,0:0:0:0:
474,244,121312,1,0,0:0:0:0:
305,339,121612,1,0,0:0:0:0:
235,301,121762,1,0,0:0:0:0:
180,242,121912,2,0,P|218:223|261:228,1,88,8|0,0:0|0:0,0:0:0:0:
464,344,122512,6,0,P|383:373|304:338,1,176,2|8,0:0|0:0,0:0:0:0:
256,131,123412,1,2,0:0:0:0:
101,260,123712,2,0,P|62:277|21:262,2,88,0|2|8,0:0|0:0|0:0,0:0:0:0:
256,131,124612,5,2,0:0:0:0:
326,169,124762,1,0,0:0:0:0:
381,228,124912,2,0,P|343:247|300:242,1,88,2|0,0:0|0:0,0:0:0:0:
180,117,125512,1,8,0:0:0:0:
179,131,126112,2,0,B|177:248|177:248|148:196,1,176,0|8,0:0|0:0,0:0:0:0:
88,28,127012,5,0,0:0:0:0:
47,96,127162,1,0,0:0:0:0:
15,167,127312,2,0,L|18:263,1,88,2|0,0:0|0:0,0:0:0:0:
205,329,127912,2,0,P|246:318|289:328,2,88,8|2|0,0:0|0:0|0:0,0:0:0:0:
132,362,128662,1,0,0:0:0:0:
144,286,128812,2,0,L|129:193,1,88,2|8,0:0|0:0,0:0:0:0:
36,40,129412,5,2,0:0:0:0:
105,85,129562,1,0,0:0:0:0:
182,57,129712,2,0,P|223:45|265:56,1,88,2|0,0:0|0:0,0:0:0:0:
225,224,130312,2,0,P|213:182|225:140,1,88,8|2,0:0|0:0,0:0:0:0:
459,171,130912,2,0,B|371:210|370:142|289:184,1,176,0|8,0:0|0:0,0:0:0:0:
46,367,131812,5,0,0:0:0:0:
63,291,131962,1,0,0:0:0:0:
86,220,132112,2,0,B|129:221|156:247|156:247|132:197|157:122,1,176,2|8,0:0|0:0,0:0:0:0:
381,196,133012,2,0,P|302:229|224:195,1,176,2|2,0:0|0:0,0:0:0:0:
130,26,133912,1,8,0:0:0:0:
74,199,134212,1,0,0:0:0:0:
102,114,134362,1,0,0:0:0:0:
111,270,134512,6,0,P|65:282|21:262,1,98.9999969787599,6|0,0:0|0:0,0:0:0:0:
167,198,134962,1,2,0:3:0:0:
201,278,135112,2,0,L|189:379,1,98.9999969787599,2|2,0:3|0:3,0:0:0:0:
167,198,135712,1,2,0:0:0:0:
251,214,135862,1,2,0:3:0:0:
323,169,136012,1,2,0:3:0:0:
418,20,136312,2,0,L|429:129,1,98.9999969787599,2|2,0:3|0:3,0:0:0:0:
452,369,136912,6,0,L|441:260,1,98.9999969787599,2|0,0:3|0:0,0:0:0:0:
427,118,137362,1,0,0:0:0:0:
368,203,137512,2,0,P|325:223|277:212,1,98.9999969787599,2|2,0:3|0:3,0:0:0:0:
96,131,138112,2,0,P|71:126|47:128,2,49.4999984893799,2|2|2,0:0|0:3|0:3,0:0:0:0:
190,242,138712,2,0,L|200:346,1,98.9999969787599,0|2,0:0|0:3,0:0:0:0:
287,360,139162,1,2,0:3:0:0:
121,355,139312,6,0,P|75:341|29:357,1,98.9999969787599,2|0,0:0|0:0,0:0:0:0:
21,262,139762,2,0,L|49:221,1,49.4999984893799,2|2,0:3|0:3,0:0:0:0:
156,70,140212,1,2,0:3:0:0:
156,149,140362,1,0,0:0:0:0:
216,204,140512,2,0,P|239:210|264:207,2,49.4999984893799,2|2|2,0:0|0:3|0:3,0:0:0:0:
192,6,141112,1,0,0:0:0:0:
387,86,141412,2,0,P|393:110|391:135,1,49.4999984893799,2|0,0:3|0:0,0:0:0:0:
342,221,141712,6,0,L|391:134,1,98.9999969787599,2|0,0:0|0:0,0:0:0:0:
490,57,142162,2,0,L|465:113,1,49.4999984893799,2|2,0:3|0:3,0:0:0:0:
342,221,142612,1,2,0:3:0:0:
276,186,142762,1,0,0:0:0:0:
249,117,142912,2,0,P|256:93|253:69,2,49.4999984893799,2|2|2,0:0|0:3|0:3,0:0:0:0:
77,199,143512,1,2,0:3:0:0:
246,306,143812,2,0,L|266:346,2,24.74999924469,2|0|2,0:3|0:0|0:3,0:0:0:0:
210,201,144112,6,0,L|246:306,1,110,2|2,0:0|0:3,0:0:0:0:
347,345,144562,1,2,0:3:0:0:
399,256,144712,2,0,P|442:223|497:219,1,110,2|2,0:0|0:3,0:0:0:0:
474,309,145161,1,0,0:0:0:0:
399,256,145312,2,0,L|373:200,2,55,2|2|2,0:3|0:3|0:3,0:0:0:0:
255,370,145912,1,2,0:0:0:0:
107,315,146212,2,0,L|88:273,2,27.5,2|0|2,0:3|0:0|0:3,0:0:0:0:
27,263,146512,6,0,P|64:224|117:221,1,110,2|2,0:0|0:3,0:0:0:0:
209,266,146962,1,2,0:3:0:0:
190,169,147112,2,0,L|195:40,1,110,2|2,0:0|0:3,0:0:0:0:
131,14,147562,1,0,0:0:0:0:
270,56,147712,2,0,P|297:62|324:57,2,55,2|2|2,0:0|0:3|0:3,0:0:0:0:
25,11,148312,1,2,0:0:0:0:
112,192,148612,6,0,L|131:225,2,27.5,2|0|2,0:3|0:0|0:3,0:0:0:0:
27,139,148912,1,2,0:3:0:0:
192,165,149212,6,0,L|211:198,2,27.5,2|0|2,0:3|0:0|0:3,0:0:0:0:
107,112,149512,1,2,0:3:0:0:
267,135,149812,6,0,L|286:168,2,27.5,2|0|2,0:3|0:0|0:3,0:0:0:0:
182,82,150112,1,2,0:3:0:0:
347,108,150412,6,0,L|366:141,2,27.5,2|0|2,0:3|0:0|0:3,0:0:0:0:
262,55,150712,1,2,0:3:0:0:
423,77,151012,6,0,L|442:110,2,27.5,2|0|2,0:3|0:0|0:3,0:0:0:0:
338,24,151312,1,2,0:0:0:0:
327,108,151462,1,2,0:3:0:0:
262,55,151612,2,0,L|198:61,2,55,2|2|2,0:3|0:3|0:0,0:0:0:0:
427,81,152062,5,2,0:3:0:0:
427,81,152212,2,0,L|445:133,1,55,2|2,0:3|0:3,0:0:0:0:
512,183,152512,2,0,L|470:222,1,55,2|2,0:0|0:3,0:0:0:0:
401,259,152812,2,0,L|416:290,2,27.5,2|0|2,0:3|0:0|0:3,0:0:0:0:
390,243,153712,5,6,0:0:0:0:
383,229,154012,1,2,0:0:0:0:
196,273,154162,1,2,0:0:0:0:
347,161,154312,1,8,0:0:0:0:
341,146,154612,1,2,0:0:0:0:
334,132,154912,5,2,0:0:0:0:
205,74,155062,1,2,0:0:0:0:
367,58,155212,1,2,0:0:0:0:
199,86,155362,1,2,0:0:0:0:
374,64,155512,2,0,P|410:117|395:179,1,131.99999597168,8|2,0:0|0:0,0:0:0:0:
252,268,156112,5,2,0:0:0:0:
264,257,156412,1,2,0:0:0:0:
430,248,156562,1,2,0:0:0:0:
327,89,156712,1,8,0:0:0:0:
327,100,157012,6,0,L|343:236,1,131.99999597168,0|2,0:0|0:0,0:0:0:0:
324,343,157462,2,0,P|305:283|342:231,1,131.99999597168,8|0,0:0|0:0,0:0:0:0:
459,229,157912,5,8,0:0:0:0:
220,293,158212,1,8,0:0:0:0:
274,43,158512,5,2,0:0:0:0:
277,54,158812,1,2,0:0:0:0:
345,259,158962,1,2,0:0:0:0:
154,166,159112,1,8,0:0:0:0:
169,161,159412,1,2,0:0:0:0:
183,155,159712,5,2,0:0:0:0:
345,259,159862,1,2,0:0:0:0:
185,141,160012,1,2,0:0:0:0:
345,245,160162,1,2,0:0:0:0:
187,126,160312,2,0,P|119:155|61:109,1,153.999995300293,8|2,0:0|0:0,0:0:0:0:
256,27,160912,5,2,0:0:0:0:
261,40,161212,1,2,0:0:0:0:
332,197,161362,1,2,0:0:0:0:
433,69,161512,1,8,0:0:0:0:
422,75,161812,6,0,P|368:112|303:109,1,131.99999597168,0|12,0:0|0:3,0:0:0:0:
177,71,162262,2,0,L|303:109,1,131.99999597168,8|0,0:0|0:0,0:0:0:0:
400,191,162712,5,8,0:0:0:0:
215,263,163012,1,8,0:0:0:0:
435,325,163312,5,0,0:0:0:0:
431,314,163612,1,2,0:0:0:0:
384,139,163762,1,2,0:0:0:0:
322,326,163912,1,8,0:0:0:0:
326,313,164212,1,2,0:0:0:0:
328,300,164512,5,2,0:0:0:0:
431,314,164662,1,2,0:0:0:0:
473,219,164812,1,2,0:0:0:0:
398,147,164962,1,2,0:0:0:0:
307,197,165112,2,0,B|285:149|308:95|308:95|264:119,1,131.99999597168,8|2,0:0|0:0,0:0:0:0:
107,255,165712,5,2,0:0:0:0:
117,244,166012,1,2,0:0:0:0:
228,164,166162,1,2,0:0:0:0:
235,302,166312,1,8,0:0:0:0:
244,309,166612,6,0,B|285:326|285:326|375:308,1,131.99999597168,0|8,0:0|0:0,0:0:0:0:
509,353,167062,2,0,P|456:328|491:282,1,131.99999597168,2|0,0:0|0:0,0:0:0:0:
406,180,167512,5,8,0:0:0:0:
341,374,167812,1,8,0:0:0:0:
195,243,168112,5,2,0:0:0:0:
208,246,168412,1,2,0:0:0:0:
376,280,168562,1,2,0:0:0:0:
291,228,168712,2,0,P|276:292|304:350,1,131.99999597168,8|2,0:0|0:0,0:0:0:0:
495,377,169312,5,2,0:0:0:0:
490,238,169462,1,2,0:0:0:0:
350,283,169612,1,2,0:0:0:0:
457,311,169762,1,2,0:0:0:0:
285,320,169912,2,0,P|278:257|322:211,1,131.99999597168,8|0,0:0|0:0,0:0:0:0:
512,101,170512,5,2,0:3:0:0:
419,157,170662,1,2,0:3:0:0:
322,210,170812,2,0,P|300:178|306:136,2,65.9999979858399,2|2|2,0:3|0:3|0:3,0:0:0:0:
466,376,171412,5,2,0:3:0:0:
393,295,171562,1,2,0:3:0:0:
322,210,171712,2,0,P|349:182|391:180,2,65.9999979858399,2|2|2,0:3|0:3|0:3,0:0:0:0:
160,352,172312,5,2,0:3:0:0:
291,310,172462,1,0,0:0:0:0:
214,221,172612,2,0,P|205:253|210:285,1,65.9999979858399,2|2,0:3|0:3,0:0:0:0:
283,189,172912,5,6,0:0:0:0:
275,176,173212,1,2,0:0:0:0:
112,219,173362,1,2,0:0:0:0:
158,61,173512,1,8,0:0:0:0:
162,73,173812,1,2,0:0:0:0:
166,86,174112,5,2,0:0:0:0:
227,258,174262,1,2,0:0:0:0:
309,191,174412,1,2,0:0:0:0:
127,236,174562,1,2,0:0:0:0:
204,139,174712,2,0,P|193:203|227:258,1,131.99999597168,8|2,0:0|0:0,0:0:0:0:
441,269,175312,5,2,0:0:0:0:
429,269,175612,1,2,0:0:0:0:
282,156,175762,1,2,0:0:0:0:
209,329,175912,1,8,0:0:0:0:
200,342,176212,6,0,P|140:364|75:337,1,131.99999597168,2|0,0:0|0:0,0:0:0:0:
64,209,176662,2,0,L|81:359,1,131.99999597168,2|0,0:0|0:0,0:0:0:0:
0,164,177112,5,8,0:0:0:0:
148,254,177412,1,8,0:0:0:0:
152,27,177712,5,2,0:0:0:0:
160,39,178012,1,2,0:0:0:0:
309,104,178162,1,2,0:0:0:0:
158,162,178312,1,8,0:0:0:0:
170,157,178612,1,2,0:0:0:0:
182,152,178912,5,2,0:0:0:0:
309,104,179062,1,2,0:0:0:0:
216,233,179212,1,2,0:0:0:0:
147,76,179362,1,2,0:0:0:0:
309,104,179512,2,0,B|379:116|408:77|408:77|377:68,1,131.99999597168,8|2,0:0|0:0,0:0:0:0:
147,76,180112,5,2,0:0:0:0:
152,90,180412,1,2,0:0:0:0:
215,238,180562,1,2,0:0:0:0:
53,207,180712,1,8,0:0:0:0:
53,207,181012,6,0,B|181:168,1,131.99999597168,2|0,0:0|0:0,0:0:0:0:
339,141,181462,2,0,P|286:133|325:97,1,131.99999597168,12|0,0:3|0:0,0:0:0:0:
449,91,181912,5,8,0:0:0:0:
350,281,182212,1,8,0:0:0:0:
190,103,182512,5,2,0:0:0:0:
200,109,182812,1,2,0:0:0:0:
323,186,182962,1,2,0:0:0:0:
196,248,183112,1,8,0:0:0:0:
204,237,183412,1,2,0:0:0:0:
213,225,183712,5,2,0:0:0:0:
323,186,183862,1,2,0:0:0:0:
200,109,184012,1,2,0:0:0:0:
204,237,184162,1,2,0:0:0:0:
332,175,184312,2,0,B|335:289|335:289|316:260,1,131.99999597168,8|2,0:0|0:0,0:0:0:0:
256,59,184912,5,2,0:0:0:0:
247,64,185212,1,2,0:0:0:0:
117,156,185362,1,2,0:0:0:0:
236,201,185512,1,8,0:0:0:0:
247,206,185812,6,0,P|272:268|241:337,1,131.99999597168,2|8,0:0|0:0,0:0:0:0:
57,282,186262,2,0,L|189:268,1,131.99999597168,8|0,0:0|0:0,0:0:0:0:
108,375,186712,5,8,0:0:0:0:
32,190,187012,1,8,0:0:0:0:
291,267,187312,5,2,0:0:0:0:
280,275,187612,1,2,0:0:0:0:
108,375,187762,1,2,0:0:0:0:
169,281,187912,2,0,P|162:217|112:177,1,131.99999597168,8|2,0:0|0:0,0:0:0:0:
7,33,188512,5,2,0:0:0:0:
155,46,188662,1,2,0:0:0:0:
16,66,188812,1,2,0:0:0:0:
150,68,188962,1,2,0:0:0:0:
74,169,189112,2,0,P|59:232|82:292,1,131.99999597168,8|2,0:0|0:0,0:0:0:0:
314,356,189712,5,2,0:3:0:0:
398,214,189862,1,2,0:3:0:0:
425,326,190012,2,0,P|457:336|489:330,2,65.9999979858399,2|2|2,0:3|0:3|0:3,0:0:0:0:
277,236,190612,5,2,0:3:0:0:
193,378,190762,1,2,0:3:0:0:
165,265,190912,2,0,P|133:255|101:261,2,65.9999979858399,2|2|2,0:3|0:3|0:3,0:0:0:0:
328,340,191512,5,2,0:3:0:0:
251,189,191662,1,2,0:3:0:0:
342,320,191812,2,0,P|374:328|406:319,1,65.9999979858399,2|2,0:3|0:3,0:0:0:0:
455,227,192112,6,0,B|492:51|492:51|423:135|322:138|256:68|327:6|369:13|369:13|411:17|426:54|375:222,1,704,6|0,0:0|0:0,0:0:0:0:
