osu file format v14

[General]
AudioFilename: GTA feat. Sam Bruno - Red Lips (Mendus Remix).mp3
AudioLeadIn: 0
PreviewTime: 56887
Countdown: 0
SampleSet: Soft
StackLeniency: 0.7
Mode: 0
LetterboxInBreaks: 0
WidescreenStoryboard: 1

[Editor]
Bookmarks: 19312,38512,48112,57712,96112,100912,115312,124312,124912,134512,144112,153712,192112,196912
DistanceSpacing: 1.6
BeatDivisor: 8
GridSize: 4
TimelineZoom: 1.9

[Metadata]
Title:Red Lips (Mendus Remix)
TitleUnicode:Red Lips (Mendus Remix)
Artist:GTA feat. Sam Bruno
ArtistUnicode:GTA feat. Sam Bruno
Creator:Euny
Version:Collab Hard
Source:
Tags:HabiHolic Alarido Natsu Come[Back]Home CBH
BeatmapID:1094092
BeatmapSetID:512810

[Difficulty]
HPDrainRate:5
CircleSize:4
OverallDifficulty:6
ApproachRate:7.5
SliderMultiplier:2
SliderTickRate:2

[Events]
//Background and Video events
0,0,"^ 3^.png",0,0
//Break Periods
2,38712,47287
2,101112,109687
2,134712,143287
//Storyboard Layer 0 (Background)
//Storyboard Layer 1 (Fail)
//Storyboard Layer 2 (Pass)
//Storyboard Layer 3 (Foreground)
Sprite,Foreground,Centre,"Alarido.png",320,240 F,0,19012,19312,0,1 S,0,19012,19312,0.1,0.793548 M,0,19312,,149,412 F,0,19312,38212,1 S,0,19312,38212,0.793548 F,0,38212,38512,1,0 S,0,38212,38512,0.793548,0.1
Sprite,Foreground,Centre,"Alarido.png",320,240 F,0,47812,48112,0,1 S,0,47812,48112,0.1,0.801806 M,0,48112,,149,412 F,0,48112,100612,1 S,0,48112,100612,0.801806 F,0,100612,100912,1,0 S,0,100612,100912,0.801806,0.1
Sprite,Foreground,Centre,"Alarido.png",320,240 F,0,110212,110512,0,1 S,0,110212,110512,0.1,0.801806 M,0,110512,,149,412 F,0,110512,124012,1 S,0,110512,124012,0.801806 F,0,124012,124312,1,0 S,0,124012,124312,0.801806,0.1
Sprite,Foreground,Centre,"Euny.png",320,240 F,0,124612,124912,0,1 S,0,124612,124912,0.1,0.9917423 M,0,124912,,135,405 F,0,124912,134212,1 S,0,124912,134212,0.9917423 F,0,134212,134512,1,0 S,0,134212,134512,0.9917423,0.1
Sprite,Foreground,Centre,"Euny.png",320,240 F,0,143812,144112,0,1 S,0,143812,144112,0.1,0.9834843 M,0,144112,,135,405 F,0,144112,196612,1 S,0,144112,196612,0.9834843 F,0,196612,196912,1,0 S,0,196612,196912,0.9834843,0.1
//Storyboard Sound Samples

[TimingPoints]
19312,600,4,2,44,50,1,0
19312,-100,4,2,44,50,0,0
22537,-100,4,2,44,5,0,0
22612,-100,4,2,44,50,0,0
38512,-100,4,2,44,50,0,0
48112,-100,4,2,44,60,0,0
57112,-100,4,2,44,40,0,0
57712,-100,4,2,44,70,0,1
58312,-100,4,2,44,70,0,0
61462,-100,4,2,44,70,0,0
61912,-100,4,2,44,70,0,0
62512,-100,4,2,44,70,0,0
66262,-100,4,2,44,60,0,0
66712,-100,4,2,44,70,0,0
67312,-100,4,2,44,70,0,0
71062,-100,4,2,44,70,0,0
71512,-100,4,2,44,70,0,0
72112,-100,4,2,44,70,0,0
74512,-133.333333333333,4,2,44,70,0,0
76912,-100,4,2,44,70,0,1
77512,-100,4,2,44,70,0,0
80662,-100,4,2,44,70,0,0
81112,-100,4,2,44,70,0,0
81712,-100,4,2,44,70,0,0
85462,-100,4,2,44,60,0,0
85912,-100,4,2,44,70,0,0
86512,-100,4,2,44,70,0,0
90262,-100,4,2,44,70,0,0
90712,-100,4,2,44,70,0,0
91312,-100,4,2,44,70,0,0
93712,-133.333333333333,4,2,44,70,0,0
115312,-100,4,2,44,50,0,0
134512,-100,4,2,44,50,0,0
144112,-100,4,2,44,60,0,0
153112,-100,4,2,43,60,0,0
153712,-100,4,2,44,70,0,1
154312,-100,4,2,44,70,0,0
157462,-100,4,2,44,70,0,0
157912,-100,4,2,44,70,0,0
158512,-100,4,2,44,70,0,0
162262,-100,4,2,44,70,0,0
162712,-100,4,2,44,70,0,0
163312,-100,4,2,44,70,0,0
167062,-100,4,2,44,70,0,0
167512,-100,4,2,44,70,0,0
168112,-100,4,2,44,70,0,0
170512,-133.333333333333,4,2,44,70,0,0
172912,-100,4,2,44,70,0,1
173512,-100,4,2,44,70,0,0
176662,-100,4,2,44,70,0,0
177112,-100,4,2,44,70,0,0
177712,-100,4,2,44,70,0,0
181462,-100,4,2,44,70,0,0
181912,-100,4,2,44,70,0,0
182512,-100,4,2,44,70,0,0
186262,-100,4,2,44,70,0,0
186712,-100,4,2,44,70,0,0
187312,-100,4,2,44,70,0,0
189712,-133.333333333333,4,2,44,70,0,0
192112,-133.333333333333,4,2,44,40,0,0
193312,-133.333333333333,4,2,44,30,0,0
194512,-133.333333333333,4,2,44,20,0,0
195712,-133.333333333333,4,2,44,10,0,0
196912,-133.333333333333,4,2,44,5,0,0

[Colours]
Combo1 : 255,157,157
Combo2 : 255,0,0

[HitObjects]
104,156,19312,6,0,P|116:128|120:76,2,75,6|0|0,0:0|0:0|0:0,0:0:0:0:
17,181,19912,1,8,0:0:0:0:
171,275,20212,2,0,B|259:311|316:280|316:280|335:256|335:235,1,200,2|0,0:0|0:0,0:0:0:0:
335,235,21112,2,0,L|432:212,1,100,8|0,0:0|0:0,0:0:0:0:
442,31,21712,6,0,P|478:35|519:56,2,75,2|0|0,0:0|0:0|0:0,0:0:0:0:
372,96,22312,2,0,P|332:96|300:84,1,75,8|0,0:0|0:0,0:0:0:0:
284,68,22612,2,0,L|256:164,1,100,2|0,0:0|0:0,0:0:0:0:
84,177,23212,2,0,L|112:81,1,100,2|8,0:0|0:0,0:0:0:0:
256,164,23812,1,2,0:0:0:0:
185,314,24112,6,0,P|77:326|9:258,1,200,2|8,0:0|0:0,0:0:0:0:
0,81,25012,1,2,0:0:0:0:
128,204,25312,2,0,P|148:216|184:228,1,50,0|0,0:0|0:0,0:0:0:0:
257,249,25612,2,0,P|281:251|306:247,1,50
387,216,25912,2,0,P|419:180|431:124,1,100,8|0,0:0|0:0,0:0:0:0:
260,128,26512,6,0,P|248:224|316:300,1,200,2|8,0:0|0:0,0:0:0:0:
260,128,27412,2,0,P|216:104|160:104,1,100,2|0,0:0|0:0,0:0:0:0:
32,136,28012,2,0,P|36:88|8:40,1,100,2|8,0:0|0:0,0:0:0:0:
24,164,28612,1,2,0:0:0:0:
48,300,28912,6,0,P|84:332|136:344,1,100,0|0,0:0|0:0,0:0:0:0:
312,365,29512,1,8,0:0:0:0:
252,194,29812,2,0,P|272:86|340:34,1,200,2|0,0:0|0:0,0:0:0:0:
442,182,30712,2,0,P|410:222|362:238,1,100,8|0,0:0|0:0,0:0:0:0:
160,132,31312,6,0,P|72:184|68:276,1,200,2|8,0:0|0:0,0:0:0:0:
160,132,32212,2,0,P|132:80|92:56,1,100,2|0,0:0|0:0,0:0:0:0:
168,240,32812,2,0,P|184:288|232:320,1,100,2|8,0:0|0:0,0:0:0:0:
360,284,33412,1,2,0:0:0:0:
424,133,33712,6,0,P|432:156|447:175,1,50,2|0,0:0|0:0,0:0:0:0:
396,68,34012,2,0,P|352:44|300:48,1,100,0|8,0:0|0:0,0:0:0:0:
128,89,34612,1,2,0:0:0:0:
172,264,34912,2,0,P|208:300|256:312,1,100,0|0,0:0|0:0,0:0:0:0:
368,228,35512,2,0,P|334:193|286:180,1,100,8|0,0:0|0:0,0:0:0:0:
369,345,36112,6,0,P|461:301|481:209,1,200,2|8,0:0|0:0,0:0:0:0:
384,112,37012,2,0,P|434:118|479:98,1,100,2|0,0:0|0:0,0:0:0:0:
285,53,37612,2,0,P|229:49|185:73,1,100,2|8,0:0|0:0,0:0:0:0:
120,188,38212,1,2,0:0:0:0:
260,204,38512,1,6,0:0:0:0:
114,122,48112,22,0,L|91:232,1,100,2|2,0:0|0:3,0:0:0:0:
128,292,48562,1,2,0:3:0:0:
128,292,48712,2,0,P|167:251|215:233,1,100,2|2,0:0|0:3,0:0:0:0:
276,379,49312,1,2,0:3:0:0:
346,341,49462,1,2,0:3:0:0:
416,302,49612,1,2,0:3:0:0:
411,142,49912,2,0,L|306:197,1,100,2|2,0:0|0:3,0:0:0:0:
169,140,50512,6,0,L|260:94,1,100,2|2,0:0|0:3,0:0:0:0:
275,16,50962,1,2,0:3:0:0:
275,16,51112,2,0,P|222:26|169:21,1,100,2|2,0:0|0:3,0:0:0:0:
15,17,51712,1,2,0:0:0:0:
26,96,51862,1,2,0:3:0:0:
38,174,52012,1,2,0:3:0:0:
94,323,52312,2,0,P|112:277|152:248,1,100,2|2,0:0|0:3,0:0:0:0:
290,326,52912,6,0,P|338:340|386:327,1,100,2|2,0:3|0:3,0:0:0:0:
448,276,53362,1,2,0:3:0:0:
448,276,53512,2,0,L|446:176,1,100,2|2,0:3|0:3,0:0:0:0:
331,63,54112,2,0,L|332:164,1,100,2|2,0:3|0:3,0:0:0:0:
331,243,54562,1,2,0:3:0:0:
330,242,54712,2,0,P|285:221|236:217,1,100,2|2,0:3|0:3,0:0:0:0:
256,192,55312,12,0,57112,0:0:0:0:
228,48,57712,5,6,0:0:0:0:
398,27,58012,1,2,0:0:0:0:
444,88,58162,1,2,0:0:0:0:
368,100,58312,2,0,P|352:140|348:196,1,100,8|2,0:0|0:0,0:0:0:0:
412,320,58912,2,0,P|432:344|460:360,1,50,2|2,0:0|0:0,0:0:0:0:
412,240,59212,2,0,P|436:244|468:240,1,50,2|2,0:0|0:0,0:0:0:0:
348,196,59512,2,0,P|296:184|248:188,1,100,8|2,0:0|0:0,0:0:0:0:
128,256,60112,5,2,0:0:0:0:
85,112,60412,1,2,0:0:0:0:
31,165,60562,1,2,0:0:0:0:
13,91,60712,1,8,0:0:0:0:
168,40,61012,2,0,P|136:48|108:48,1,50,2|0,0:0|0:0,0:0:0:0:
236,104,61462,2,0,P|240:136|236:160,1,50,2|0,0:0|0:0,0:0:0:0:
304,40,61912,2,0,P|324:32|364:28,1,50,8|0,0:0|0:0,0:0:0:0:
436,32,62212,1,2,0:0:0:0:
493,185,62512,5,2,0:0:0:0:
371,289,62812,1,2,0:0:0:0:
328,358,62962,1,2,0:0:0:0:
406,362,63112,2,0,P|454:356|500:323,1,100,8|2,0:0|0:0,0:0:0:0:
392,164,63712,2,0,P|368:152|336:144,1,50,2|2,0:0|0:0,0:0:0:0:
236,176,64012,2,0,P|253:186|287:190,1,50,2|2,0:0|0:0,0:0:0:0:
200,104,64312,2,0,P|155:76|104:74,1,100,8|2,0:0|0:0,0:0:0:0:
8,172,64912,5,2,0:0:0:0:
30,320,65212,1,2,0:0:0:0:
89,365,65362,1,2,0:0:0:0:
100,290,65512,1,8,0:0:0:0:
237,229,65812,2,0,P|213:222|189:221,1,50,2|0,0:0|0:0,0:0:0:0:
251,338,66262,2,0,P|257:362|267:384,1,50,4|0,0:3|0:0,0:0:0:0:
356,262,66712,2,0,P|380:246|396:226,1,50,8|0,0:0|0:0,0:0:0:0:
330,189,67012,1,2,0:0:0:0:
192,132,67312,5,2,0:0:0:0:
130,31,67612,1,2,0:0:0:0:
54,6,67762,1,2,0:0:0:0:
65,80,67912,2,0,P|41:128|37:176,1,100,8|2,0:0|0:0,0:0:0:0:
114,302,68512,2,0,P|92:313|74:331,1,50,2|2,0:0|0:0,0:0:0:0:
176,260,68812,2,0,P|184:236|184:204,1,50,2|2,0:0|0:0,0:0:0:0:
228,316,69112,2,0,P|272:336|344:332,1,100,8|2,0:0|0:0,0:0:0:0:
456,292,69712,5,2,0:0:0:0:
444,152,70012,2,0,P|468:160|500:160,2,50,2|2|8,0:0|0:0|0:0,0:0:0:0:
316,72,70612,2,0,P|340:64|366:45,1,50,2|0,0:0|0:0,0:0:0:0:
220,68,71062,2,0,P|168:52|124:60,1,100,2|0,0:0|0:0,0:0:0:0:
22,116,71512,2,0,P|47:120|72:116,1,50,8|0,0:0|0:0,0:0:0:0:
164,168,71812,1,8,0:0:0:0:
40,228,72112,5,2,0:0:0:0:
131,337,72412,1,2,0:0:0:0:
175,278,72562,1,2,0:0:0:0:
205,347,72712,2,0,P|261:355|305:339,1,100,8|2,0:0|0:0,0:0:0:0:
393,236,73312,2,0,P|393:264|401:288,1,50,2|2,0:0|0:0,0:0:0:0:
457,195,73612,2,0,P|457:167|449:143,1,50,2|2,0:0|0:0,0:0:0:0:
348,100,73912,2,0,P|396:88|429:51,1,100,8|2,0:0|0:0,0:0:0:0:
228,72,74512,6,0,L|220:36,4,37.5000014305115,2|2|2|2|2,0:3|0:3|0:3|0:3|0:3,0:0:0:0:
145,178,75412,2,0,L|153:214,4,37.5000014305115,2|2|2|2|2,0:3|0:3|0:3|0:3|0:3,0:0:0:0:
60,72,76312,1,2,0:3:0:0:
24,156,76612,1,2,0:3:0:0:
104,232,76912,6,0,P|45:250|8:334,2,150,6|2|2,0:0|0:0|0:0,0:0:0:0:
243,268,78112,2,0,P|248:248|244:212,1,50,2|2,0:0|0:0,0:0:0:0:
212,336,78412,2,0,P|180:344|156:360,1,50,2|2,0:0|0:0,0:0:0:0:
288,328,78712,2,0,P|332:348|388:344,1,100,8|2,0:0|0:0,0:0:0:0:
496,260,79312,5,2,0:0:0:0:
360,224,79612,1,2,0:0:0:0:
324,158,79762,1,2,0:0:0:0:
283,220,79912,1,8,0:0:0:0:
414,140,80212,1,2,0:0:0:0:
207,46,80662,1,2,0:0:0:0:
241,271,81112,1,8,0:0:0:0:
323,142,81412,1,8,0:0:0:0:
172,163,81712,6,0,P|122:160|81:133,1,100,2|2,0:0|0:0,0:0:0:0:
0,75,82162,2,0,L|52:63,1,50,2|8,0:0|0:0,0:0:0:0:
16,211,82612,1,2,0:0:0:0:
132,304,82912,2,0,P|116:328|92:344,1,50,2|2,0:0|0:0,0:0:0:0:
208,300,83212,2,0,P|232:312|264:316,1,50,2|2,0:0|0:0,0:0:0:0:
240,180,83512,2,0,P|193:195|168:237,1,100,8|2,0:0|0:0,0:0:0:0:
255,316,84112,5,2,0:0:0:0:
396,308,84412,2,0,P|392:332|392:360,2,50,2|2|8,0:0|0:0|0:0,0:0:0:0:
484,196,85012,1,2,0:0:0:0:
272,216,85462,1,12,0:3:0:0:
372,32,85912,1,8,0:0:0:0:
374,152,86212,1,8,0:0:0:0:
244,96,86512,6,0,P|192:114|144:110,1,100,2|2,0:0|0:0,0:0:0:0:
88,72,86962,2,0,P|93:50|92:20,2,50,2|8|0,0:0|0:0|0:0,0:0:0:0:
28,112,87412,1,2,0:0:0:0:
8,252,87712,2,0,P|6:276|12:300,1,50,2|2,0:0|0:0,0:0:0:0:
132,272,88012,2,0,P|116:268|80:268,1,50,2|2,0:0|0:0,0:0:0:0:
172,336,88312,2,0,P|220:344|276:336,1,100,8|2,0:0|0:0,0:0:0:0:
388,260,88912,5,2,0:0:0:0:
300,148,89212,2,0,P|268:152|236:152,2,50,2|2|8,0:0|0:0|0:0,0:0:0:0:
424,108,89812,1,2,0:0:0:0:
224,44,90262,1,8,0:0:0:0:
260,268,90712,1,8,0:0:0:0:
300,148,91012,1,8,0:0:0:0:
184,224,91312,6,0,P|140:240|84:232,1,100,2|2,0:0|0:0,0:0:0:0:
28,195,91762,2,0,P|18:223|18:244,2,50,2|8|0,0:0|0:0|0:0,0:0:0:0:
4,128,92212,1,2,0:0:0:0:
128,56,92512,2,0,P|141:80|164:96,1,50,2|2,0:0|0:0,0:0:0:0:
248,28,92812,2,0,P|223:24|198:28,1,50,2|2,0:0|0:0,0:0:0:0:
312,72,93112,2,0,P|360:84|412:80,1,100,8|2,0:0|0:0,0:0:0:0:
487,191,93712,6,0,L|479:239,4,37.5000014305115,2|2|2|2|2,0:3|0:3|0:3|0:3|0:3,0:0:0:0:
359,234,94612,2,0,L|363:278,4,37.5000014305115,2|2|2|2|2,0:3|0:3|0:3|0:3|0:3,0:0:0:0:
224,239,95512,2,0,P|200:243|180:243,1,37.5000014305115,2|2,0:3|0:3,0:0:0:0:
113,229,95812,1,0,0:0:0:0:
113,229,95962,1,0,0:0:0:0:
256,192,96112,12,0,100912,0:0:0:0:
256,192,110512,12,0,114112,0:0:0:0:
116,248,115012,6,0,P|136:256|156:260,1,37.5000014305115,0|0,0:0|0:0,0:0:0:0:
238,234,115312,6,0,P|274:222|326:226,2,75,6|0|0,0:0|0:0|0:0,0:0:0:0:
214,320,115912,1,8,0:0:0:0:
388,363,116212,2,0,P|460:299|460:195,1,200,2|0,0:0|0:0,0:0:0:0:
320,80,117112,2,0,P|369:83|413:62,1,100,8|0,0:0|0:0,0:0:0:0:
208,40,117712,6,0,P|172:36|128:56,2,75,2|0|0,0:0|0:0|0:0,0:0:0:0:
185,127,118312,2,0,P|150:137|113:134,1,75,8|0,0:0|0:0,0:0:0:0:
93,124,118612,2,0,P|89:179|105:219,1,100,2|0,0:0|0:0,0:0:0:0:
281,259,119212,2,0,P|235:242|186:247,1,100,2|8,0:0|0:0,0:0:0:0:
48,365,119812,1,2,0:0:0:0:
226,342,120112,6,0,P|326:358|402:282,1,200,2|8,0:0|0:0,0:0:0:0:
466,131,121012,1,2,0:0:0:0:
336,9,121312,2,0,P|320:25|288:41,1,50,0|0,0:0|0:0,0:0:0:0:
278,127,121612,2,0,P|254:127|222:119,1,50,0|0,0:0|0:0,0:0:0:0:
160,60,121912,2,0,P|152:108|120:148,1,100,8|0,0:0|0:0,0:0:0:0:
0,128,122512,6,0,P|24:224|116:268,1,200,2|8,0:0|0:0,0:0:0:0:
283,202,123412,2,0,P|241:177|192:180,1,100,2|0,0:0|0:0,0:0:0:0:
264,320,124012,2,0,P|316:320|364:288,1,100,2|8,0:0|0:0,0:0:0:0:
184,252,124612,1,2,0:0:0:0:
49,341,124912,6,0,B|78:366|78:366|89:301|89:301|74:268|74:268|84:229|79:188,1,200,2|8,0:0|0:0,0:0:0:0:
96,47,125812,2,0,B|132:58|195:20|195:20|252:41|252:41|209:64,1,200,2|0,0:0|0:0,0:0:0:0:
100,161,126712,2,0,P|84:208|87:257,1,100,8|0,0:0|0:0,0:0:0:0:
246,280,127312,6,0,P|261:232|258:183,1,100,2|0,0:0|0:0,0:0:0:0:
173,319,127912,1,8,0:0:0:0:
331,300,128212,2,0,L|435:308,1,100,2|0,0:0|0:0,0:0:0:0:
506,162,128812,2,0,L|387:184,1,100,2|8,0:0|0:0,0:0:0:0:
319,337,129412,1,2,0:0:0:0:
139,323,129712,6,0,P|137:347|143:372,1,50,2|0,0:0|0:0,0:0:0:0:
136,239,130012,2,0,P|90:259|41:266,1,100,0|8,0:0|0:0,0:0:0:0:
164,134,130612,2,0,B|215:173|277:148|277:148|277:238,1,200,2|0,0:0|0:0,0:0:0:0:
104,283,131512,2,0,P|76:237|76:187,1,100,8|0,0:0|0:0,0:0:0:0:
116,17,132112,6,0,B|161:8|200:30|200:30|223:16|223:16|266:35|307:22,1,200,2|8,0:0|0:0,0:0:0:0:
486,39,133012,2,0,L|465:148,1,100,2|0,0:0|0:0,0:0:0:0:
358,292,133612,2,0,L|339:193,1,100,2|8,0:0|0:0,0:0:0:0:
294,60,134212,1,0,0:0:0:0:
196,160,134512,5,6,0:0:0:0:
100,222,144112,22,0,P|148:207|198:206,1,100,2|2,0:0|0:3,0:0:0:0:
266,247,144562,1,2,0:3:0:0:
266,247,144712,2,0,P|275:193|243:143,1,100,2|2,0:0|0:3,0:0:0:0:
148,34,145312,1,2,0:3:0:0:
108,103,145462,1,2,0:3:0:0:
69,33,145612,1,2,0:3:0:0:
64,192,145912,2,0,P|111:203|158:187,1,100,2|2,0:0|0:3,0:0:0:0:
273,84,146512,6,0,L|276:200,1,100,2|2,0:0|0:3,0:0:0:0:
296,261,146962,1,2,0:3:0:0:
296,261,147112,2,0,L|338:169,1,100,2|2,0:0|0:3,0:0:0:0:
375,14,147712,1,2,0:0:0:0:
408,87,147862,1,2,0:3:0:0:
454,21,148012,1,2,0:3:0:0:
445,180,148312,2,0,P|396:186|351:165,1,100,2|2,0:0|0:3,0:0:0:0:
220,73,148912,6,0,L|225:172,1,100,2|2,0:3|0:3,0:0:0:0:
203,249,149362,1,2,0:3:0:0:
203,249,149512,2,0,P|185:203|158:158,1,100,2|2,0:3|0:3,0:0:0:0:
0,157,150112,2,0,L|9:259,1,100,2|2,0:3|0:3,0:0:0:0:
14,336,150562,1,2,0:3:0:0:
14,336,150712,2,0,P|60:320|118:321,1,100,2|2,0:3|0:3,0:0:0:0:
273,323,151312,6,0,B|317:354|317:354|316:277|316:277|285:216|285:216|412:99|388:49|355:3|298:-7|239:14|229:61|232:92|256:122,1,600,2|2,0:0|0:0,0:0:0:0:
512,263,153712,5,6,0:0:0:0:
489,104,154012,1,2,0:0:0:0:
419,142,154162,1,2,0:0:0:0:
422,62,154312,1,8,0:0:0:0:
417,221,154612,1,2,0:0:0:0:
284,131,154912,2,0,L|340:151,1,50,2|2,0:0|0:0,0:0:0:0:
233,219,155212,2,0,L|283:209,1,50,2|2,0:0|0:0,0:0:0:0:
158,245,155512,2,0,P|157:195|190:149,1,100,8|2,0:0|0:0,0:0:0:0:
222,309,156112,5,2,0:0:0:0:
74,372,156412,1,2,0:0:0:0:
12,320,156562,1,2,0:0:0:0:
55,252,156712,1,8,0:0:0:0:
5,99,157012,2,0,L|12:155,1,50
147,234,157462,2,0,L|265:227,1,100,8|0,0:0|0:0,0:0:0:0:
230,153,157912,2,0,P|217:131|198:115,1,50,8|0,0:0|0:0,0:0:0:0:
117,116,158212,1,8,0:0:0:0:
226,233,158512,5,2,0:0:0:0:
309,96,158812,1,2,0:0:0:0:
375,140,158962,1,2,0:0:0:0:
381,60,159112,1,8,0:0:0:0:
373,219,159412,1,2,0:0:0:0:
213,219,159712,2,0,P|232:204|256:197,1,50,2|2,0:0|0:0,0:0:0:0:
193,295,160012,2,0,P|171:286|147:259,1,50,2|2,0:0|0:0,0:0:0:0:
268,274,160312,2,0,P|262:330|230:362,1,100,8|2,0:0|0:0,0:0:0:0:
73,358,160912,5,2,0:0:0:0:
94,199,161212,1,2,0:0:0:0:
21,231,161362,1,2,0:0:0:0:
31,151,161512,1,8,0:0:0:0:
164,63,161812,2,0,L|267:50,1,100
293,125,162262,2,0,L|183:142,1,100,8|0,0:0|0:0,0:0:0:0:
143,205,162712,2,0,L|209:216,1,50,8|0,0:0|0:0,0:0:0:0:
240,271,163012,1,8,0:0:0:0:
395,308,163312,5,0,0:0:0:0:
494,182,163612,1,2,0:0:0:0:
434,128,163762,1,2,0:0:0:0:
372,178,163912,2,0,P|355:132|366:84,1,100,8|2,0:0|0:0,0:0:0:0:
431,229,164512,2,0,P|406:247|380:251,1,50,2|2,0:0|0:0,0:0:0:0:
308,241,164812,1,2,0:0:0:0:
309,320,164962,1,2,0:0:0:0:
237,284,165112,2,0,P|224:230|244:185,1,100,8|2,0:0|0:0,0:0:0:0:
388,132,165712,5,2,0:0:0:0:
245,59,166012,1,2,0:0:0:0:
180,106,166162,1,2,0:0:0:0:
111,63,166312,1,8,0:0:0:0:
113,222,166612,1,0,0:0:0:0:
271,197,166912,1,8,0:0:0:0:
323,257,167062,2,0,P|318:306|334:353,1,100,2|0,0:0|0:0,0:0:0:0:
390,217,167512,2,0,P|373:199|351:188,1,50,8|0,0:0|0:0,0:0:0:0:
271,197,167812,1,8,0:0:0:0:
180,328,168112,5,2,0:0:0:0:
100,189,168412,1,2,0:0:0:0:
35,236,168562,1,2,0:0:0:0:
33,156,168712,2,0,L|25:49,1,100,8|2,0:0|0:0,0:0:0:0:
181,21,169312,2,0,L|237:38,1,50,2|2,0:0|0:0,0:0:0:0:
258,110,169612,1,2,0:0:0:0:
313,52,169762,1,2,0:0:0:0:
342,126,169912,2,0,P|383:87|391:34,1,100,8|0,0:0|0:0,0:0:0:0:
288,185,170512,6,0,L|235:194,4,37.5000014305115,2|2|2|2|2,0:3|0:3|0:3|0:3|0:3,0:0:0:0:
419,156,171412,2,0,L|464:171,4,37.5000014305115,2|2|2|2|2,0:3|0:3|0:3|0:3|0:3,0:0:0:0:
385,287,172312,1,0,0:3:0:0:
254,251,172612,1,0,0:3:0:0:
104,351,172912,5,6,0:0:0:0:
106,191,173212,1,2,0:0:0:0:
75,116,173362,1,2,0:0:0:0:
25,177,173512,2,0,P|-6:132|4:81,1,100,8|2,0:0|0:0,0:0:0:0:
203,57,174112,2,0,L|154:51,1,50,2|2,0:0|0:0,0:0:0:0:
274,104,174412,2,0,L|224:141,1,50,2|2,0:0|0:0,0:0:0:0:
324,40,174712,2,0,P|351:80|351:130,1,100,8|2,0:0|0:0,0:0:0:0:
228,233,175312,5,2,0:0:0:0:
363,317,175612,1,2,0:0:0:0:
427,269,175762,1,2,0:0:0:0:
499,302,175912,1,8,0:0:0:0:
486,142,176212,2,0,L|484:203,1,50,2|0,0:0|0:0,0:0:0:0:
329,232,176662,2,0,L|356:177,2,50,2|8|0,0:0|0:0|0:0,0:0:0:0:
402,128,177112,2,0,P|379:115|341:113,1,50,8|0,0:0|0:0,0:0:0:0:
285,148,177412,1,8,0:0:0:0:
275,307,177712,5,2,0:0:0:0:
118,273,178012,1,2,0:0:0:0:
153,201,178162,1,2,0:0:0:0:
73,199,178312,2,0,P|40:242|33:289,1,100,8|2,0:0|0:0,0:0:0:0:
174,362,178912,2,0,L|116:352,1,50,2|2,0:0|0:0,0:0:0:0:
257,307,179212,2,0,L|186:288,1,50,2|2,0:0|0:0,0:0:0:0:
337,337,179512,2,0,P|338:283|319:241,1,100,8|2,0:0|0:0,0:0:0:0:
164,204,180112,5,2,0:0:0:0:
240,63,180412,1,2,0:0:0:0:
312,97,180562,1,2,0:0:0:0:
363,35,180712,1,8,0:0:0:0:
378,194,181012,1,2,0:0:0:0:
222,156,181312,1,0,0:0:0:0:
222,156,181462,2,0,L|161:134,2,50,12|8|0,0:3|0:0|0:0,0:0:0:0:
109,86,181912,2,0,P|97:107|92:132,1,50,8|0,0:0|0:0,0:0:0:0:
132,213,182212,1,8,0:0:0:0:
202,69,182512,5,2,0:0:0:0:
330,164,182812,1,2,0:0:0:0:
399,123,182962,1,2,0:0:0:0:
402,202,183112,2,0,P|452:209|498:191,1,100,8|2,0:0|0:0,0:0:0:0:
476,32,183712,2,0,L|426:20,1,50,2|2,0:0|0:0,0:0:0:0:
309,61,184012,2,0,L|377:45,1,50,2|2,0:0|0:0,0:0:0:0:
245,12,184312,2,0,P|229:58|242:106,1,100,8|2,0:0|0:0,0:0:0:0:
373,196,184912,5,2,0:0:0:0:
229,265,185212,1,2,0:0:0:0:
164,217,185362,1,2,0:0:0:0:
93,255,185512,1,8,0:0:0:0:
223,347,185812,1,2,0:0:0:0:
237,187,186112,1,8,0:0:0:0:
237,187,186262,2,0,L|346:189,1,100,8|0,0:0|0:0,0:0:0:0:
432,232,186712,2,0,L|377:259,1,50,8|0,0:0|0:0,0:0:0:0:
408,156,187012,1,8,0:0:0:0:
464,305,187312,5,2,0:0:0:0:
309,263,187612,1,2,0:0:0:0:
270,332,187762,1,2,0:0:0:0:
226,263,187912,2,0,P|196:303|195:352,1,100,8|2,0:0|0:0,0:0:0:0:
265,190,188512,2,0,L|205:181,1,50,2|2,0:0|0:0,0:0:0:0:
180,110,188812,1,2,0:0:0:0:
135,177,188962,1,2,0:0:0:0:
82,116,189112,2,0,B|55:158|55:158|65:221,1,100,8|2,0:0|0:0,0:0:0:0:
152,309,189712,6,0,L|189:300,4,37.5000014305115,2|2|2|2|2,0:3|0:3|0:3|0:3|0:3,0:0:0:0:
268,239,190612,2,0,L|311:256,4,37.5000014305115,2|2|2|2|2,0:3|0:3|0:3|0:3|0:3,0:0:0:0:
159,158,191512,2,0,P|135:162|115:162,1,37.5000014305115,2|2,0:3|0:3,0:0:0:0:
50,132,191812,1,0,0:0:0:0:
50,132,191962,1,0,0:0:0:0:
256,192,192112,12,0,196912,0:0:0:0:
