osu file format v14

[General]
AudioFilename: GTA feat. Sam Bruno - Red Lips (Mendus Remix).mp3
AudioLeadIn: 0
PreviewTime: 56887
Countdown: 0
SampleSet: Soft
StackLeniency: 0.7
Mode: 0
LetterboxInBreaks: 0
WidescreenStoryboard: 1

[Editor]
Bookmarks: 19312,38512,48112,57712,96112,115312,134512,144112,153712,192112,196912
DistanceSpacing: 1.2
BeatDivisor: 16
GridSize: 4
TimelineZoom: 3.199999

[Metadata]
Title:Red Lips (Mendus Remix)
TitleUnicode:Red Lips (Mendus Remix)
Artist:GTA feat. Sam Bruno
ArtistUnicode:GTA feat. Sam Bruno
Creator:Euny
Version:CBH's Extra
Source:
Tags:HabiHolic Alarido Natsu Come[Back]Home CBH
BeatmapID:1114720
BeatmapSetID:512810

[Difficulty]
HPDrainRate:6
CircleSize:4
OverallDifficulty:8
ApproachRate:9
SliderMultiplier:2.4
SliderTickRate:1

[Events]
//Background and Video events
0,0,"^ 3^.png",0,0
//Break Periods
2,96312,109912
//Storyboard Layer 0 (Background)
//Storyboard Layer 1 (Fail)
//Storyboard Layer 2 (Pass)
//Storyboard Layer 3 (Foreground)
//Storyboard Sound Samples

[TimingPoints]
19312,600,4,2,44,50,1,0
38512,-90.9090909090909,4,2,44,50,0,0
48112,-90.9090909090909,4,2,44,60,0,0
57112,-90.9090909090909,4,2,44,40,0,0
57712,-68.9655172413793,4,2,44,70,0,1
58312,-68.9655172413793,4,2,44,70,0,0
76912,-60.6060606060606,4,2,44,70,0,1
77512,-60.6060606060606,4,2,44,70,0,0
115312,-100,4,2,44,50,0,0
134512,-90.9090909090909,4,2,44,50,0,0
144112,-90.9090909090909,4,2,44,60,0,0
153112,-90.9090909090909,4,2,43,60,0,0
153712,-60.6060606060606,4,2,44,70,0,1
154312,-60.6060606060606,4,2,44,70,0,0
172912,-54.054054054054,4,2,44,70,0,1
173512,-54.054054054054,4,2,44,70,0,0
192112,-54.054054054054,4,2,44,40,0,0
193312,-54.054054054054,4,2,44,30,0,0
194512,-54.054054054054,4,2,44,20,0,0
195712,-54.054054054054,4,2,44,10,0,0
196912,-54.054054054054,4,2,44,5,0,0

[Colours]
Combo1 : 255,157,157
Combo2 : 255,0,0

[HitObjects]
129,330,19312,6,0,L|139:200,1,120,6|0,0:0|0:0,0:0:0:0:
106,145,19762,1,0,0:0:0:0:
184,272,19912,2,0,L|260:264,1,60,8|0,0:0|0:0,0:0:0:0:
304,305,20212,1,2,0:0:0:0:
382,184,20512,6,0,L|369:49,1,120,0|0,0:0|0:0,0:0:0:0:
281,177,21112,2,0,P|234:181|162:146,1,120,8|0,0:0|0:0,0:0:0:0:
91,30,21712,6,0,B|103:63|103:63|91:158,1,120,2|0,0:0|0:0,0:0:0:0:
35,189,22162,1,0,0:0:0:0:
166,181,22312,2,0,P|173:148|161:113,1,60,8|0,0:0|0:0,0:0:0:0:
102,217,22612,2,0,P|103:246|118:272,1,60,2|0,0:0|0:0,0:0:0:0:
169,323,22912,6,0,B|212:334|212:334|298:317,1,120,0|2,0:0|0:0,0:0:0:0:
357,307,23362,1,0,0:0:0:0:
466,176,23512,2,0,L|397:169,1,60,8|0,0:0|0:0,0:0:0:0:
249,118,23812,2,0,L|309:112,1,60,2|0,0:0|0:0,0:0:0:0:
207,59,24112,6,0,L|201:199,1,120,2|0,0:0|0:0,0:0:0:0:
144,222,24562,1,0,0:0:0:0:
257,323,24712,2,0,L|261:251,1,60,8|0,0:0|0:0,0:0:0:0:
310,211,25012,1,2,0:0:0:0:
310,211,25312,6,0,L|376:205,1,60,0|0,0:0|0:0,0:0:0:0:
478,261,25612,2,0,L|418:266,1,60,0|0,0:0|0:0,0:0:0:0:
288,311,25912,2,0,L|354:305,1,60,8|0,0:0|0:0,0:0:0:0:
456,361,26212,2,0,L|396:366,1,60,0|0,0:0|0:0,0:0:0:0:
256,246,26512,6,0,L|256:118,1,120,2|0,0:0|0:0,0:0:0:0:
324,101,26962,1,0,0:0:0:0:
184,150,27112,2,0,B|151:160|151:160|54:144,1,120,8|2,0:0|0:0,0:0:0:0:
18,12,27712,5,0,0:0:0:0:
41,79,27862,1,0,0:0:0:0:
66,146,28012,1,2,0:0:0:0:
34,285,28312,1,8,0:0:0:0:
174,312,28612,2,0,L|239:293,1,60,2|0,0:0|0:0,0:0:0:0:
231,295,28912,5,0,0:0:0:0:
341,356,29062,1,0,0:0:0:0:
351,227,29212,2,0,L|334:91,1,120,0|8,0:0|0:0,0:0:0:0:
473,25,29812,1,2,0:0:0:0:
309,167,30112,6,0,B|235:164|235:164|148:192|148:192|72:189,1,240,0|8,0:0|0:0,0:0:0:0:
17,55,31012,1,0,0:0:0:0:
211,201,31312,6,0,L|193:342,1,120,2|0,0:0|0:0,0:0:0:0:
298,218,31912,2,0,L|282:98,1,120,8|2,0:0|0:0,0:0:0:0:
27,215,32512,6,0,B|56:230|56:230|147:218,1,120,0|2,0:0|0:0,0:0:0:0:
194,167,32962,1,0,0:0:0:0:
281,62,33112,2,0,B|367:50|367:50|396:65,1,120,8|2,0:0|0:0,0:0:0:0:
459,104,33562,1,0,0:0:0:0:
384,173,33712,6,0,L|389:238,1,60,2|0,0:0|0:0,0:0:0:0:
248,335,34012,2,0,L|261:206,1,120,0|8,0:0|0:0,0:0:0:0:
154,117,34612,1,2,0:0:0:0:
68,319,34912,6,0,B|119:311|119:311|251:336|251:336|309:328,1,240,0|8,0:0|0:0,0:0:0:0:
407,226,35812,1,0,0:0:0:0:
131,17,36112,6,0,P|116:53|139:138,1,120,2|0,0:0|0:0,0:0:0:0:
195,166,36562,1,0,0:0:0:0:
320,215,36712,2,0,L|389:205,1,60,8|0,0:0|0:0,0:0:0:0:
445,235,37012,1,2,0:0:0:0:
256,192,37312,12,0,38362,0:0:0:0:
135,313,38512,6,0,L|144:227,1,66.0000020141602,6|0,0:0|0:0,0:0:0:0:
101,178,38812,1,0,0:0:0:0:
224,287,38962,2,0,L|292:279,1,66.0000020141602,2|2,0:3|0:3,0:0:0:0:
365,304,39262,1,0,0:0:0:0:
428,256,39412,2,0,B|451:221|451:221|436:113,1,132.00000402832,2|2,0:3|0:0,0:0:0:0:
391,67,39862,5,2,0:3:0:0:
282,194,40012,2,0,L|350:188,1,66.0000020141602,2|0,0:3|0:0,0:0:0:0:
215,107,40312,2,0,P|178:98|143:66,1,66.0000020141602,2|0,0:3|0:0,0:0:0:0:
22,44,40612,2,0,L|93:26,1,66.0000020141602,0|0,0:0|0:0,0:0:0:0:
252,183,40912,6,0,P|294:135|290:71,1,132.00000402832,2|0,0:0|0:0,0:0:0:0:
221,22,41362,1,2,0:3:0:0:
323,236,41512,2,0,L|402:244,1,66.0000020141602,2|0,0:3|0:0,0:0:0:0:
272,326,41812,2,0,L|127:337,1,132.00000402832,2|2,0:3|0:0,0:0:0:0:
67,367,42262,1,2,0:3:0:0:
197,254,42412,2,0,P|198:208|181:163,1,66.0000020141602,2|0,0:3|0:0,0:0:0:0:
286,20,42712,2,0,P|285:66|302:111,1,66.0000020141602,2|0,0:3|0:0,0:0:0:0:
319,158,43012,1,2,0:3:0:0:
374,47,43162,1,2,0:3:0:0:
451,255,43312,6,0,L|302:247,1,132.00000402832,2|0,0:0|0:0,0:0:0:0:
259,300,43762,1,2,0:3:0:0:
388,207,43912,2,0,L|379:130,1,66.0000020141602,2|0,0:3|0:0,0:0:0:0:
215,33,44212,2,0,L|207:98,1,66.0000020141602,2|0,0:3|0:0,0:0:0:0:
143,146,44512,5,2,0:0:0:0:
290,112,44662,1,2,0:3:0:0:
244,260,44812,2,0,B|211:281|211:281|110:270,1,132.00000402832,2|2,0:3|0:3,0:0:0:0:
62,214,45262,1,0,0:0:0:0:
45,291,45412,2,0,L|51:368,1,66.0000020141602,2|0,0:3|0:0,0:0:0:0:
244,260,45712,6,0,L|252:111,1,132.00000402832,2|0,0:0|0:0,0:0:0:0:
307,72,46162,1,2,0:3:0:0:
198,189,46312,2,0,L|130:179,1,66.0000020141602,2|0,0:3|0:0,0:0:0:0:
239,334,46612,2,0,P|279:327|314:242,1,132.00000402832,2|2,0:3|0:0,0:0:0:0:
287,176,47062,5,2,0:3:0:0:
399,340,47212,2,0,L|330:330,1,66.0000020141602,2|0,0:3|0:0,0:0:0:0:
221,185,47512,2,0,L|286:175,1,66.0000020141602,2|0,0:3|0:0,0:0:0:0:
332,110,47812,2,0,L|310:105,2,16.5000005035401,2|0|0,0:3|0:0|0:0,0:0:0:0:
274,29,47962,2,0,L|258:33,2,16.5000005035401,2|0|0,0:3|0:0|0:0,0:0:0:0:
234,34,48112,6,0,L|99:22,1,132.00000402832,2|2,0:0|0:3,0:0:0:0:
22,190,48562,1,2,0:3:0:0:
22,190,48712,2,0,L|158:165,1,132.00000402832,2|2,0:0|0:3,0:0:0:0:
452,104,49312,5,2,0:3:0:0:
414,255,49462,1,2,0:3:0:0:
341,49,49612,1,2,0:3:0:0:
341,49,49912,1,2,0:0:0:0:
212,227,50212,2,0,L|213:243,2,16.5000005035401,2|0|0,0:3|0:0|0:0,0:0:0:0:
284,166,50362,2,0,L|283:150,2,16.5000005035401,2|0|0,0:3|0:0|0:0,0:0:0:0:
279,126,50512,6,0,P|236:105|148:122,1,132.00000402832,2|2,0:0|0:3,0:0:0:0:
193,357,50962,1,2,0:3:0:0:
193,357,51112,2,0,L|212:220,1,132.00000402832,0|2,0:0|0:3,0:0:0:0:
59,33,51712,5,2,0:0:0:0:
215,107,51862,1,2,0:3:0:0:
96,247,52012,1,2,0:3:0:0:
199,0,52312,1,2,0:0:0:0:
323,204,52612,2,0,L|325:221,2,16.5000005035401,2|0|0,0:3|0:0|0:0,0:0:0:0:
224,165,52762,2,0,L|226:148,2,16.5000005035401,2|0|0,0:3|0:0|0:0,0:0:0:0:
230,125,52912,6,0,L|244:47,1,66.0000020141602,2|0,0:0|0:0,0:0:0:0:
52,265,53212,2,0,L|50:281,2,16.5000005035401,2|0|0,0:3|0:0|0:0,0:0:0:0:
111,330,53362,2,0,L|113:346,2,16.5000005035401,2|0|0,0:3|0:0|0:0,0:0:0:0:
132,363,53512,6,0,L|208:356,1,66.0000020141602,2|0,0:0|0:0,0:0:0:0:
274,187,53812,2,0,L|257:190,2,16.5000005035401,2|0|0,0:3|0:0|0:0,0:0:0:0:
331,102,53962,2,0,L|348:105,2,16.5000005035401,2|0|0,0:3|0:0|0:0,0:0:0:0:
369,110,54112,6,0,L|453:119,1,66.0000020141602,2|0,0:0|0:0,0:0:0:0:
118,140,54412,2,0,L|119:123,2,16.5000005035401,2|0|0,0:3|0:0|0:0,0:0:0:0:
181,201,54562,2,0,L|180:218,2,16.5000005035401,2|0|0,0:3|0:0|0:0,0:0:0:0:
181,241,54712,6,0,L|185:320,1,66.0000020141602,2|0,0:0|0:0,0:0:0:0:
327,201,55012,2,0,L|347:204,2,16.5000005035401,0|0|0,0:0|0:0|0:0,0:0:0:0:
390,70,55162,2,0,L|370:73,2,16.5000005035401,2|0|0,0:3|0:0|0:0,0:0:0:0:
351,81,55312,5,0,0:0:0:0:
367,288,55462,1,2,0:3:0:0:
350,114,55612,1,2,0:3:0:0:
278,337,55762,1,2,0:3:0:0:
430,227,55912,2,0,P|451:260|456:304,1,66.0000020141602,2|2,0:0|0:3,0:0:0:0:
290,177,56212,2,0,P|269:144|264:100,1,66.0000020141602,2|2,0:3|0:3,0:0:0:0:
303,49,56512,5,2,0:0:0:0:
191,216,56662,1,2,0:3:0:0:
149,65,56812,1,2,0:3:0:0:
203,251,56962,1,2,0:3:0:0:
314,19,57112,1,0,0:0:0:0:
54,346,57712,6,0,L|70:248,1,87.0000026550294,6|0,0:0|0:0,0:0:0:0:
44,157,58012,1,2,0:0:0:0:
153,289,58162,1,2,0:0:0:0:
340,156,58312,2,0,L|163:171,1,174.000005310059,8|2,0:0|0:0,0:0:0:0:
262,208,58912,5,2,0:0:0:0:
324,43,59062,1,2,0:0:0:0:
271,177,59212,1,2,0:0:0:0:
217,4,59362,1,2,0:0:0:0:
198,251,59512,2,0,P|238:283|341:221,1,174.000005310059,8|2,0:0|0:0,0:0:0:0:
134,187,60112,6,0,P|109:231|115:291,1,87.0000026550294,2|0,0:0|0:0,0:0:0:0:
165,353,60412,1,2,0:0:0:0:
29,199,60562,1,2,0:0:0:0:
198,251,60712,2,0,B|252:262|252:262|318:251|318:251|376:260,1,174.000005310059,8|2,0:0|0:0,0:0:0:0:
131,53,61462,6,0,L|139:141,1,87.0000026550294,2|0,0:0|0:0,0:0:0:0:
383,338,61912,6,0,L|390:251,1,87.0000026550294,8|0,0:0|0:0,0:0:0:0:
134,92,62212,2,0,L|141:178,1,87.0000026550294,2|0,0:0|0:0,0:0:0:0:
357,278,62512,6,0,L|364:191,1,87.0000026550294,2|0,0:0|0:0,0:0:0:0:
441,119,62812,1,2,0:0:0:0:
282,226,62962,1,2,0:0:0:0:
171,57,63112,2,0,B|173:103|173:103|188:140,1,87.0000026550294,8|0,0:0|0:0,0:0:0:0:
339,280,63412,2,0,B|337:234|337:234|321:196,1,87.0000026550294,2|0,0:0|0:0,0:0:0:0:
85,211,63712,5,2,0:0:0:0:
262,259,63862,1,2,0:0:0:0:
130,353,64012,1,2,0:0:0:0:
244,182,64162,1,2,0:0:0:0:
359,314,64312,2,0,L|170:293,1,174.000005310059,8|2,0:0|0:0,0:0:0:0:
76,116,64912,6,0,P|122:118|174:96,1,87.0000026550294,2|0,0:0|0:0,0:0:0:0:
219,0,65212,1,2,0:0:0:0:
223,193,65362,1,2,0:0:0:0:
308,96,65512,2,0,B|320:171|320:171|317:186|317:186|337:291,1,174.000005310059,8|2,0:0|0:0,0:0:0:0:
23,212,66262,6,0,L|118:223,1,87.0000026550294,4|0,0:3|0:0,0:0:0:0:
269,86,66712,6,0,L|182:96,1,87.0000026550294,8|0,0:0|0:0,0:0:0:0:
214,291,67012,2,0,L|309:302,1,87.0000026550294,2|0,0:0|0:0,0:0:0:0:
489,212,67312,6,0,L|394:223,1,87.0000026550294,2|0,0:0|0:0,0:0:0:0:
315,163,67612,1,2,0:0:0:0:
437,306,67762,1,2,0:0:0:0:
371,105,67912,2,0,P|329:83|233:158,1,174.000005310059,8|2,0:0|0:0,0:0:0:0:
417,176,68512,5,2,0:0:0:0:
353,339,68662,1,2,0:0:0:0:
315,163,68812,1,2,0:0:0:0:
347,312,68962,1,2,0:0:0:0:
371,100,69112,2,0,P|328:80|280:84,1,87.0000026550294,8|0,0:0|0:0,0:0:0:0:
58,187,69412,2,0,P|101:207|149:203,1,87.0000026550294,2|0,0:0|0:0,0:0:0:0:
17,89,69712,6,0,L|21:273,1,174.000005310059,2|2,0:0|0:0,0:0:0:0:
62,359,70162,1,2,0:0:0:0:
221,224,70312,2,0,P|178:204|130:208,1,87.0000026550294,8|0,0:0|0:0,0:0:0:0:
278,321,70612,6,0,L|386:312,1,87.0000026550294,2|0,0:0|0:0,0:0:0:0:
468,300,70912,1,8,0:0:0:0:
322,190,71062,2,0,P|312:140|321:81,1,87.0000026550294,2|2,0:0|0:0,0:0:0:0:
394,37,71362,1,0,0:0:0:0:
237,169,71512,2,0,B|188:176|188:176|126:168|126:168|53:176,1,174.000005310059,8|8,0:0|0:0,0:0:0:0:
227,305,72112,6,0,L|322:288,1,87.0000026550294,2|0,0:0|0:0,0:0:0:0:
410,320,72412,1,2,0:0:0:0:
243,218,72562,1,2,0:0:0:0:
394,65,72712,2,0,L|383:254,1,174.000005310059,8|2,0:0|0:0,0:0:0:0:
350,147,73312,5,2,0:0:0:0:
415,315,73462,1,2,0:0:0:0:
474,77,73612,1,2,0:0:0:0:
328,251,73762,1,2,0:0:0:0:
205,116,73912,2,0,L|397:97,1,174.000005310059,8|2,0:0|0:0,0:0:0:0:
211,225,74512,5,2,0:3:0:0:
107,212,74662,1,2,0:3:0:0:
229,228,74812,1,2,0:3:0:0:
88,208,74962,1,2,0:3:0:0:
245,232,75112,1,2,0:3:0:0:
132,56,75412,5,2,0:3:0:0:
166,266,75562,1,2,0:3:0:0:
136,77,75712,1,2,0:3:0:0:
161,247,75862,1,2,0:3:0:0:
141,96,76012,1,2,0:3:0:0:
89,298,76312,5,2,0:3:0:0:
275,346,76462,1,0,0:0:0:0:
368,198,76612,2,0,L|370:224,2,21.7500006637573,2|0|0,0:3|0:0|0:0,0:0:0:0:
296,139,76762,2,0,L|297:117,2,21.7500006637573,2|0|0,0:3|0:0|0:0,0:0:0:0:
226,190,76912,6,0,L|236:319,1,99.0000009441376,6|0,0:0|0:0,0:0:0:0:
135,357,77212,1,2,0:0:0:0:
306,239,77362,1,2,0:0:0:0:
142,84,77512,2,0,L|158:297,1,198.000001888275,8|2,0:0|0:0,0:0:0:0:
314,102,78112,5,2,0:0:0:0:
180,181,78262,1,2,0:0:0:0:
317,267,78412,1,2,0:0:0:0:
226,100,78562,1,2,0:0:0:0:
267,328,78712,2,0,P|314:348|365:329,1,99.0000009441376,8|0,0:0|0:0,0:0:0:0:
443,251,79012,1,2,0:0:0:0:
265,93,79312,6,0,B|207:99|207:99|132:87|132:87|60:94,1,198.000001888275,2|2,0:0|0:0,0:0:0:0:
18,201,79762,1,2,0:0:0:0:
193,296,79912,2,0,L|200:193,1,99.0000009441376,8|0,0:0|0:0,0:0:0:0:
369,48,80212,6,0,L|375:146,1,99.0000009441376,2|0,0:0|0:0,0:0:0:0:
189,365,80662,6,0,L|195:266,1,99.0000009441376,2|8,0:0|0:0,0:0:0:0:
373,119,81112,6,0,L|379:217,1,99.0000009441376,8|0,0:0|0:0,0:0:0:0:
161,305,81412,2,0,L|167:206,1,99.0000009441376,8|0,0:0|0:0,0:0:0:0:
420,170,81712,6,0,L|426:268,1,99.0000009441376,2|0,0:0|0:0,0:0:0:0:
349,360,82012,1,2,0:0:0:0:
503,215,82162,1,2,0:0:0:0:
349,124,82312,2,0,B|292:141|292:141|205:122|205:122|144:138,1,198.000001888275,8|2,0:0|0:0,0:0:0:0:
263,347,82912,5,2,0:0:0:0:
253,162,83062,1,2,0:0:0:0:
261,320,83212,1,2,0:0:0:0:
355,135,83362,1,2,0:0:0:0:
193,242,83512,2,0,L|88:232,1,99.0000009441376,8|0,0:0|0:0,0:0:0:0:
4,154,83812,1,2,0:0:0:0:
224,66,84112,6,0,B|279:49|279:49|439:77,1,198.000001888275,2|2,0:0|0:0,0:0:0:0:
490,168,84562,1,2,0:0:0:0:
278,283,84712,2,0,L|296:177,1,99.0000009441376,8|0,0:0|0:0,0:0:0:0:
102,66,85012,6,0,B|119:113|119:113|108:172,1,99.0000009441376,2|0,0:0|0:0,0:0:0:0:
338,337,85462,6,0,B|321:290|321:290|332:231,1,99.0000009441376,12|8,0:3|0:0,0:0:0:0:
150,106,85912,6,0,B|167:153|167:153|156:212,1,99.0000009441376,8|0,0:0|0:0,0:0:0:0:
399,376,86212,2,0,B|382:329|382:329|393:270,1,99.0000009441376,8|0,0:0|0:0,0:0:0:0:
200,112,86512,6,0,B|217:159|217:159|206:218,1,99.0000009441376,2|0,0:0|0:0,0:0:0:0:
125,292,86812,1,2,0:0:0:0:
301,358,86962,1,2,0:0:0:0:
403,177,87112,2,0,L|199:208,1,198.000001888275,8|2,0:0|0:0,0:0:0:0:
257,281,87712,5,2,0:0:0:0:
217,107,87862,1,2,0:0:0:0:
162,317,88012,1,2,0:0:0:0:
215,135,88162,1,2,0:0:0:0:
334,306,88312,2,0,P|305:348|247:363,1,99.0000009441376,8|0,0:0|0:0,0:0:0:0:
299,167,88612,2,0,L|408:172,1,99.0000009441376,2|0,0:0|0:0,0:0:0:0:
257,281,88912,6,0,L|53:272,1,198.000001888275,2|2,0:0|0:0,0:0:0:0:
7,165,89362,1,2,0:0:0:0:
190,142,89512,2,0,L|171:242,1,99.0000009441376,8|0,0:0|0:0,0:0:0:0:
458,134,89812,6,0,L|439:36,1,99.0000009441376,2|0,0:0|0:0,0:0:0:0:
390,224,90112,1,8,0:0:0:0:
287,284,90262,2,0,L|268:381,1,99.0000009441376,8|0,0:0|0:0,0:0:0:0:
190,214,90562,1,0,0:0:0:0:
260,120,90712,2,0,L|468:134,1,198.000001888275,8|8,0:0|0:0,0:0:0:0:
236,44,91312,6,0,P|187:81|231:195,1,198.000001888275,2|2,0:0|0:0,0:0:0:0:
343,211,91762,1,2,0:0:0:0:
177,298,91912,2,0,L|78:291,1,99.0000009441376,8|0,0:0|0:0,0:0:0:0:
260,120,92212,2,0,L|363:127,1,99.0000009441376,2|0,0:0|0:0,0:0:0:0:
456,57,92512,5,2,0:0:0:0:
411,253,92662,1,2,0:0:0:0:
451,88,92812,1,2,0:0:0:0:
488,318,92962,1,2,0:0:0:0:
332,213,93112,2,0,L|344:102,1,99.0000009441376,8|0,0:0|0:0,0:0:0:0:
98,33,93412,2,0,L|108:131,1,99.0000009441376,2|0,0:0|0:0,0:0:0:0:
46,233,93712,5,2,0:3:0:0:
219,167,93862,1,2,0:3:0:0:
70,222,94012,1,2,0:3:0:0:
256,298,94162,1,2,0:3:0:0:
181,93,94312,1,2,0:3:0:0:
149,328,94612,5,2,0:3:0:0:
133,161,94762,1,2,0:3:0:0:
146,303,94912,1,2,0:3:0:0:
255,132,95062,1,2,0:3:0:0:
314,340,95212,1,2,0:3:0:0:
101,233,95512,5,2,0:3:0:0:
264,293,95662,1,2,0:3:0:0:
255,132,95812,2,0,L|258:167,2,24.7500002360344,0|0|0,0:0|0:0|0:0,0:0:0:0:
329,226,95962,2,0,L|331:201,2,24.7500002360344,0|0|0,0:0|0:0|0:0,0:0:0:0:
392,295,96112,5,6,0:0:0:0:
256,192,110512,12,0,115012,0:0:0:0:
107,289,115312,6,0,L|116:205,1,60,6|0,0:0|0:0,0:0:0:0:
192,70,115612,2,0,L|198:129,1,60,0|0,0:0|0:0,0:0:0:0:
313,129,115912,2,0,L|320:70,1,60,8|0,0:0|0:0,0:0:0:0:
398,229,116212,2,0,L|405:289,1,60,2|0,0:0|0:0,0:0:0:0:
415,360,116512,5,0,0:0:0:0:
141,135,116812,1,0,0:0:0:0:
477,15,117112,1,8,0:0:0:0:
247,286,117412,1,0,0:0:0:0:
339,175,117712,6,0,P|350:141|350:101,1,60,2|0,0:0|0:0,0:0:0:0:
142,286,118012,2,0,P|144:315|154:344,1,60,0|0,0:0|0:0,0:0:0:0:
205,86,118312,2,0,P|216:52|216:12,1,60,8|0,0:0|0:0,0:0:0:0:
8,197,118612,2,0,P|10:226|20:255,1,60,2|0,0:0|0:0,0:0:0:0:
51,319,118912,5,0,0:0:0:0:
342,114,119212,1,2,0:0:0:0:
76,301,119512,1,8,0:0:0:0:
452,175,119812,1,2,0:0:0:0:
174,32,120112,6,0,L|183:178,1,120,2|0,0:0|0:0,0:0:0:0:
265,268,120712,2,0,B|308:281|308:281|388:269,1,120,8|2,0:0|0:0,0:0:0:0:
492,177,121312,5,0,0:0:0:0:
425,149,121462,1,0,0:0:0:0:
267,74,121612,1,0,0:0:0:0:
332,41,121762,1,0,0:0:0:0:
214,209,121912,2,0,L|141:193,1,60,8|0,0:0|0:0,0:0:0:0:
35,74,122212,2,0,L|108:58,1,60,0|0,0:0|0:0,0:0:0:0:
55,185,122512,6,0,L|38:324,1,120,2|0,0:0|0:0,0:0:0:0:
277,384,123112,2,0,L|262:264,1,120,8|2,0:0|0:0,0:0:0:0:
347,148,123712,6,0,L|420:161,1,60,0|0,0:0|0:0,0:0:0:0:
212,73,124012,2,0,L|271:62,1,60,2|0,0:0|0:0,0:0:0:0:
64,147,124312,2,0,L|201:177,1,120,8|2,0:0|0:0,0:0:0:0:
215,236,124762,1,0,0:0:0:0:
134,110,124912,6,0,L|150:45,2,60,2|0|0,0:0|0:0|0:0,0:0:0:0:
36,216,125512,1,8,0:0:0:0:
145,309,125812,2,0,B|190:328|190:328|271:313,1,120,2|0,0:0|0:0,0:0:0:0:
378,232,126412,6,0,L|372:163,1,60,0|0,0:0|0:0,0:0:0:0:
478,24,126712,1,8,0:0:0:0:
272,117,127012,2,0,B|231:110|231:110|185:120|185:120|139:112,1,120,0|2,0:0|0:0,0:0:0:0:
38,29,127612,5,0,0:0:0:0:
53,99,127762,1,0,0:0:0:0:
35,168,127912,1,8,0:0:0:0:
118,285,128212,1,2,0:0:0:0:
346,183,128512,6,0,L|340:109,1,60,0|0,0:0|0:0,0:0:0:0:
442,312,128812,1,2,0:0:0:0:
226,233,129112,2,0,L|217:89,1,120,8|2,0:0|0:0,0:0:0:0:
157,289,129562,1,0,0:0:0:0:
157,289,129712,6,0,P|216:321|288:296,1,120,2|0,0:0|0:0,0:0:0:0:
393,245,130312,1,8,0:0:0:0:
350,107,130612,2,0,L|358:35,1,60,2|0,0:0|0:0,0:0:0:0:
225,237,130912,2,0,L|219:178,1,60,0|0,0:0|0:0,0:0:0:0:
163,131,131212,5,0,0:0:0:0:
362,312,131512,1,8,0:0:0:0:
356,47,131812,2,0,P|325:53|287:49,1,60,0|0,0:0|0:0,0:0:0:0:
229,26,132112,5,2,0:0:0:0:
132,288,132412,1,0,0:0:0:0:
66,24,132712,1,8,0:0:0:0:
266,293,133012,1,2,0:0:0:0:
437,119,133312,6,0,L|295:137,1,120,0|2,0:0|0:0,0:0:0:0:
192,62,133912,1,8,0:0:0:0:
115,308,134212,2,0,L|186:299,1,60,0|0,0:0|0:0,0:0:0:0:
234,248,134512,6,0,L|382:262,1,132.00000402832,6|0,0:0|0:0,0:0:0:0:
421,317,134962,1,2,0:3:0:0:
307,212,135112,2,0,L|321:139,1,66.0000020141602,2|0,0:3|0:0,0:0:0:0:
89,29,135412,2,0,L|101:93,1,66.0000020141602,2|0,0:3|0:0,0:0:0:0:
73,168,135712,5,2,0:0:0:0:
193,46,135862,1,2,0:3:0:0:
73,168,136012,2,0,L|86:240,1,66.0000020141602,2|0,0:3|0:0,0:0:0:0:
258,345,136312,2,0,L|270:281,1,66.0000020141602,2|0,0:3|0:0,0:0:0:0:
271,104,136612,2,0,L|195:120,1,66.0000020141602,2|0,0:3|0:0,0:0:0:0:
43,328,136912,6,0,L|187:301,1,132.00000402832,2|0,0:3|0:0,0:0:0:0:
201,229,137362,1,0,0:0:0:0:
394,273,137512,2,0,P|387:311|355:344,1,66.0000020141602,2|0,0:3|0:0,0:0:0:0:
290,163,137812,2,0,L|298:91,1,66.0000020141602,2|0,0:3|0:0,0:0:0:0:
347,35,138112,5,2,0:0:0:0:
164,116,138262,1,2,0:3:0:0:
347,35,138412,2,0,P|372:60|379:102,1,66.0000020141602,2|0,0:3|0:0,0:0:0:0:
284,228,138712,2,0,L|292:144,1,66.0000020141602,0|0,0:0|0:0,0:0:0:0:
180,334,139012,1,2,0:3:0:0:
180,334,139162,1,2,0:3:0:0:
36,189,139312,6,0,B|89:194|89:194|120:187|120:187|173:195,1,132.00000402832,2|0,0:0|0:0,0:0:0:0:
221,252,139762,1,2,0:3:0:0:
336,95,139912,2,0,L|341:169,1,66.0000020141602,2|0,0:3|0:0,0:0:0:0:
191,13,140212,2,0,L|187:79,1,66.0000020141602,2|0,0:3|0:0,0:0:0:0:
114,112,140512,5,2,0:0:0:0:
274,197,140662,1,2,0:3:0:0:
128,121,140812,1,2,0:3:0:0:
190,296,140962,1,0,0:0:0:0:
277,118,141112,2,0,L|273:53,1,66.0000020141602,0|0,0:0|0:0,0:0:0:0:
83,221,141412,2,0,L|79:286,1,66.0000020141602,2|0,0:3|0:0,0:0:0:0:
234,233,141712,6,0,L|384:222,1,132.00000402832,2|0,0:0|0:0,0:0:0:0:
417,162,142162,1,2,0:3:0:0:
306,270,142312,2,0,P|335:293|373:296,1,66.0000020141602,2|0,0:3|0:0,0:0:0:0:
232,155,142612,2,0,L|142:159,1,66.0000020141602,2|0,0:3|0:0,0:0:0:0:
102,110,142912,5,2,0:0:0:0:
177,280,143062,1,2,0:3:0:0:
102,110,143212,2,0,L|12:114,1,66.0000020141602,2|0,0:3|0:0,0:0:0:0:
292,207,143512,2,0,P|309:174|309:135,1,66.0000020141602,2|0,0:3|0:0,0:0:0:0:
264,355,143812,2,0,L|264:338,2,16.5000005035401,2|0|0,0:3|0:0|0:0,0:0:0:0:
350,272,143962,2,0,L|350:289,2,16.5000005035401,2|0|0,0:3|0:0|0:0,0:0:0:0:
351,313,144112,6,0,P|369:337|408:352,1,66.0000020141602,2|0,0:0|0:0,0:0:0:0:
454,207,144412,1,2,0:3:0:0:
486,333,144562,1,2,0:3:0:0:
487,141,144712,2,0,P|449:133|406:152,1,66.0000020141602,2|0,0:0|0:0,0:0:0:0:
287,286,145012,2,0,P|255:293|223:284,1,66.0000020141602,2|0,0:3|0:0,0:0:0:0:
156,242,145312,5,2,0:3:0:0:
272,64,145462,1,2,0:3:0:0:
396,214,145612,2,0,L|251:203,1,132.00000402832,2|2,0:3|0:0,0:0:0:0:
206,149,146062,1,0,0:0:0:0:
33,212,146212,2,0,L|34:228,2,16.5000005035401,2|0|0,0:3|0:0|0:0,0:0:0:0:
111,187,146362,2,0,L|112:171,2,16.5000005035401,2|0|0,0:3|0:0|0:0,0:0:0:0:
114,147,146512,6,0,L|120:71,1,66.0000020141602,2|0,0:0|0:0,0:0:0:0:
241,247,146812,1,2,0:3:0:0:
114,147,146962,1,2,0:3:0:0:
241,247,147112,2,0,L|235:312,1,66.0000020141602,2|0,0:0|0:0,0:0:0:0:
387,163,147412,2,0,L|392:97,1,66.0000020141602,2|0,0:3|0:0,0:0:0:0:
331,45,147712,5,2,0:0:0:0:
445,243,147862,1,2,0:3:0:0:
291,147,148012,2,0,B|255:151|255:151|194:146|194:146|141:150,1,132.00000402832,2|2,0:3|0:0,0:0:0:0:
87,114,148462,1,0,0:0:0:0:
139,353,148612,2,0,L|136:369,2,16.5000005035401,2|0|0,0:3|0:0|0:0,0:0:0:0:
226,321,148762,2,0,L|223:305,2,16.5000005035401,2|0|0,0:3|0:0|0:0,0:0:0:0:
217,283,148912,2,0,L|292:297,1,66.0000020141602,2|0,0:3|0:0,0:0:0:0:
242,157,149212,6,0,L|264:162,2,16.5000005035401,2|0|0,0:3|0:0|0:0,0:0:0:0:
204,74,149362,2,0,L|182:79,2,16.5000005035401,2|0|0,0:3|0:0|0:0,0:0:0:0:
165,84,149512,2,0,L|182:8,1,66.0000020141602,2|0,0:3|0:0,0:0:0:0:
31,69,149812,6,0,L|54:72,2,16.5000005035401,2|0|0,0:3|0:0|0:0,0:0:0:0:
92,164,149962,2,0,L|109:162,2,16.5000005035401,2|0|0,0:3|0:0|0:0,0:0:0:0:
132,158,150112,2,0,L|111:233,1,66.0000020141602,2|0,0:3|0:0,0:0:0:0:
342,281,150412,6,0,L|357:276,2,16.5000005035401,2|0|0,0:3|0:0|0:0,0:0:0:0:
422,327,150562,2,0,L|437:332,2,16.5000005035401,2|0|0,0:3|0:0|0:0,0:0:0:0:
461,342,150712,2,0,L|444:268,1,66.0000020141602,2|0,0:3|0:0,0:0:0:0:
264,266,151012,2,0,L|268:295,2,16.5000005035401,2|0|0,0:3|0:0|0:0,0:0:0:0:
173,251,151162,2,0,L|175:234,2,16.5000005035401,2|0|0,0:3|0:0|0:0,0:0:0:0:
180,211,151312,5,2,0:0:0:0:
270,71,151462,1,2,0:3:0:0:
184,187,151612,1,2,0:3:0:0:
188,29,151762,1,2,0:3:0:0:
99,254,151912,2,0,P|113:294|148:318,1,66.0000020141602,2|2,0:0|0:3,0:0:0:0:
347,63,152212,2,0,P|333:23|298:-1,1,66.0000020141602,2|2,0:3|0:3,0:0:0:0:
270,71,152512,5,2,0:0:0:0:
427,189,152662,1,2,0:3:0:0:
261,99,152812,1,2,0:3:0:0:
295,338,152962,1,2,0:3:0:0:
359,96,153112,6,0,L|350:162,1,66.0000020141602,2|2,0:0|0:0,0:0:0:0:
192,269,153412,2,0,L|183:203,1,66.0000020141602,2|2,0:0|0:0,0:0:0:0:
289,38,153712,6,0,L|277:136,1,99.0000009441376,6|0,0:0|0:0,0:0:0:0:
342,236,154012,1,2,0:0:0:0:
165,97,154162,1,2,0:0:0:0:
366,114,154312,2,0,P|415:118|467:102,1,99.0000009441376,8|0,0:0|0:0,0:0:0:0:
191,193,154612,2,0,L|178:301,1,99.0000009441376,2|0,0:0|0:0,0:0:0:0:
71,342,154912,5,2,0:0:0:0:
276,234,155062,1,2,0:0:0:0:
95,330,155212,1,2,0:0:0:0:
372,339,155362,1,2,0:0:0:0:
239,165,155512,2,0,P|203:199|198:252,1,99.0000009441376,8|0,0:0|0:0,0:0:0:0:
416,133,155812,2,0,L|406:32,1,99.0000009441376,2|0,0:0|0:0,0:0:0:0:
275,233,156112,6,0,P|268:281|233:315,1,99.0000009441376,2|0,0:0|0:0,0:0:0:0:
117,343,156412,1,2,0:0:0:0:
45,122,156562,1,2,0:0:0:0:
124,313,156712,2,0,L|139:105,1,198.000001888275,8|0,0:0|0:0,0:0:0:0:
360,30,157312,5,2,0:0:0:0:
360,30,157462,2,0,L|362:137,1,99.0000009441376,8|0,0:0|0:0,0:0:0:0:
181,315,157762,1,0,0:0:0:0:
451,118,157912,2,0,L|453:225,1,99.0000009441376,8|0,0:0|0:0,0:0:0:0:
260,352,158212,2,0,L|258:245,1,99.0000009441376,8|0,0:0|0:0,0:0:0:0:
79,106,158512,6,0,B|168:102|168:102|205:112|205:112|288:109,1,198.000001888275,2|2,0:0|0:0,0:0:0:0:
378,48,158962,1,2,0:0:0:0:
488,265,159112,2,0,P|423:240|398:206,1,99.0000009441376,8|0,0:0|0:0,0:0:0:0:
196,147,159412,2,0,P|131:172|106:206,1,99.0000009441376,2|0,0:0|0:0,0:0:0:0:
213,257,159712,5,2,0:0:0:0:
281,53,159862,1,2,0:0:0:0:
352,308,160012,1,2,0:0:0:0:
218,132,160162,1,2,0:0:0:0:
83,348,160312,2,0,L|211:338,1,99.0000009441376,8|0,0:0|0:0,0:0:0:0:
394,221,160612,2,0,B|340:210|340:210|311:161,1,99.0000009441376,2|0,0:0|0:0,0:0:0:0:
162,50,160912,6,0,P|174:108|143:160,1,99.0000009441376,2|0,0:0|0:0,0:0:0:0:
77,230,161212,1,2,0:0:0:0:
267,112,161362,1,2,0:0:0:0:
98,94,161512,2,0,L|-15:107,1,99.0000009441376,8|0,0:0|0:0,0:0:0:0:
199,250,161812,2,0,L|312:263,1,99.0000009441376,0|0,0:0|0:0,0:0:0:0:
379,347,162112,5,12,0:3:0:0:
483,162,162262,2,0,B|355:151|355:151|294:101,1,198.000001888275,8|0,0:0|0:0,0:0:0:0:
219,20,162712,2,0,P|183:69|183:134,1,99.0000009441376,8|0,0:0|0:0,0:0:0:0:
352,342,163012,2,0,P|388:293|388:228,1,99.0000009441376,8|0,0:0|0:0,0:0:0:0:
274,257,163312,6,0,L|165:266,1,99.0000009441376,0|0,0:0|0:0,0:0:0:0:
65,218,163612,1,2,0:0:0:0:
231,364,163762,1,2,0:0:0:0:
342,190,163912,2,0,P|334:139|351:73,1,99.0000009441376,8|0,0:0|0:0,0:0:0:0:
422,345,164212,2,0,L|313:354,1,99.0000009441376,2|0,0:0|0:0,0:0:0:0:
229,278,164512,5,2,0:0:0:0:
174,82,164662,1,2,0:0:0:0:
145,339,164812,1,2,0:0:0:0:
247,168,164962,1,2,0:0:0:0:
44,250,165112,2,0,L|54:365,1,99.0000009441376,8|0,0:0|0:0,0:0:0:0:
251,133,165412,2,0,L|241:248,1,99.0000009441376,2|0,0:0|0:0,0:0:0:0:
355,44,165712,6,0,L|151:56,1,198.000001888275,2|2,0:0|0:0,0:0:0:0:
44,16,166162,1,2,0:0:0:0:
138,208,166312,2,0,P|184:171|202:131,1,99.0000009441376,8|0,0:0|0:0,0:0:0:0:
355,44,166612,2,0,P|378:87|417:116,1,99.0000009441376,0|0,0:0|0:0,0:0:0:0:
480,14,166912,5,8,0:0:0:0:
336,162,167062,2,0,B|339:232|339:232|331:292|331:292|339:368,1,198.000001888275,2|0,0:0|0:0,0:0:0:0:
136,250,167512,2,0,L|249:257,1,99.0000009441376,8|0,0:0|0:0,0:0:0:0:
335,63,167812,2,0,L|222:70,1,99.0000009441376,8|0,0:0|0:0,0:0:0:0:
37,242,168112,6,0,L|248:257,1,198.000001888275,2|2,0:0|0:0,0:0:0:0:
289,361,168562,1,2,0:0:0:0:
453,224,168712,2,0,L|445:117,1,99.0000009441376,8|0,0:0|0:0,0:0:0:0:
270,19,169012,2,0,P|278:69|257:126,1,99.0000009441376,2|0,0:0|0:0,0:0:0:0:
114,255,169312,5,2,0:0:0:0:
246,140,169462,1,2,0:0:0:0:
238,350,169612,1,2,0:0:0:0:
230,162,169762,1,2,0:0:0:0:
109,348,169912,2,0,P|56:330|29:283,1,99.0000009441376,8|0,0:0|0:0,0:0:0:0:
260,248,170212,2,0,L|366:254,1,99.0000009441376,0|0,0:0|0:0,0:0:0:0:
477,69,170512,5,2,0:3:0:0:
245,106,170662,1,2,0:3:0:0:
450,74,170812,1,2,0:3:0:0:
271,102,170962,1,2,0:3:0:0:
423,80,171112,1,2,0:3:0:0:
343,322,171412,5,2,0:3:0:0:
345,52,171562,1,2,0:3:0:0:
344,297,171712,1,2,0:3:0:0:
343,81,171862,1,2,0:3:0:0:
343,270,172012,1,2,0:3:0:0:
128,168,172312,5,2,0:3:0:0:
349,168,172462,1,0,0:0:0:0:
212,304,172612,2,0,L|214:274,2,24.7500002360344,2|0|0,0:3|0:0|0:0,0:0:0:0:
263,171,172762,2,0,L|264:195,2,24.7500002360344,2|0|0,0:3|0:0|0:0,0:0:0:0:
200,92,172912,6,0,P|258:70|311:83,1,110.999999576569,6|0,0:0|0:0,0:0:0:0:
367,196,173212,1,2,0:0:0:0:
483,40,173362,1,2,0:0:0:0:
423,277,173512,2,0,P|365:299|312:286,1,110.999999576569,8|0,0:0|0:0,0:0:0:0:
93,244,173812,2,0,P|143:223|198:232,1,110.999999576569,2|0,0:0|0:0,0:0:0:0:
151,356,174112,5,2,0:0:0:0:
96,143,174262,1,2,0:0:0:0:
144,328,174412,1,2,0:0:0:0:
224,67,174562,1,2,0:0:0:0:
364,241,174712,2,0,L|231:227,1,110.999999576569,8|0,0:0|0:0,0:0:0:0:
496,76,175012,2,0,L|385:87,1,110.999999576569,2|0,0:0|0:0,0:0:0:0:
430,325,175312,6,0,L|199:299,1,221.999999153137,2|2,0:0|0:0,0:0:0:0:
89,359,175762,1,2,0:0:0:0:
282,263,175912,2,0,P|238:226|160:237,1,110.999999576569,8|0,0:0|0:0,0:0:0:0:
25,107,176212,2,0,L|149:93,1,110.999999576569,2|0,0:0|0:0,0:0:0:0:
246,21,176512,5,0,0:0:0:0:
360,155,176662,2,0,L|347:278,1,110.999999576569,2|8,0:0|0:0,0:0:0:0:
245,39,176962,1,0,0:0:0:0:
173,241,177112,2,0,L|184:351,1,110.999999576569,8|0,0:0|0:0,0:0:0:0:
392,34,177412,2,0,L|379:157,1,110.999999576569,8|0,0:0|0:0,0:0:0:0:
443,334,177712,6,0,B|363:326|363:326|293:334|293:334|199:321,1,221.999999153137,2|2,0:0|0:0,0:0:0:0:
95,364,178162,1,2,0:0:0:0:
49,143,178312,2,0,P|109:159|169:137,1,110.999999576569,8|0,0:0|0:0,0:0:0:0:
328,46,178612,2,0,P|381:33|433:49,1,110.999999576569,2|0,0:0|0:0,0:0:0:0:
382,171,178912,5,2,0:0:0:0:
185,44,179062,1,2,0:0:0:0:
360,159,179212,1,2,0:0:0:0:
190,306,179362,1,2,0:0:0:0:
334,143,179512,2,0,L|224:153,1,110.999999576569,8|0,0:0|0:0,0:0:0:0:
6,334,179812,2,0,L|116:343,1,110.999999576569,2|0,0:0|0:0,0:0:0:0:
399,199,180112,6,0,P|420:134|287:70,1,221.999999153137,2|2,0:0|0:0,0:0:0:0:
185,109,180562,1,2,0:0:0:0:
299,287,180712,2,0,L|417:272,1,110.999999576569,8|0,0:0|0:0,0:0:0:0:
202,209,181012,2,0,P|145:204|95:158,1,110.999999576569,2|0,0:0|0:0,0:0:0:0:
46,51,181312,5,0,0:0:0:0:
34,259,181462,2,0,L|50:385,1,110.999999576569,12|8,0:3|0:0,0:0:0:0:
49,73,181762,1,0,0:0:0:0:
163,291,181912,2,0,L|176:180,1,110.999999576569,8|0,0:0|0:0,0:0:0:0:
381,9,182212,2,0,L|397:135,1,110.999999576569,8|0,0:0|0:0,0:0:0:0:
487,331,182512,6,0,B|416:325|416:325|344:336|344:336|263:327,1,221.999999153137,2|2,0:0|0:0,0:0:0:0:
138,367,182962,1,2,0:0:0:0:
27,169,183112,2,0,P|84:178|134:149,1,110.999999576569,8|0,0:0|0:0,0:0:0:0:
354,27,183412,2,0,L|341:155,1,110.999999576569,2|0,0:0|0:0,0:0:0:0:
408,253,183712,5,2,0:0:0:0:
242,76,183862,1,2,0:0:0:0:
256,330,184012,1,2,0:0:0:0:
423,161,184162,1,2,0:0:0:0:
195,154,184312,2,0,L|68:167,1,110.999999576569,8|0,0:0|0:0,0:0:0:0:
302,260,184612,2,0,P|357:270|421:242,1,110.999999576569,2|0,0:0|0:0,0:0:0:0:
334,33,184912,6,0,L|348:154,1,110.999999576569,2|0,0:0|0:0,0:0:0:0:
172,292,185212,1,2,0:0:0:0:
352,169,185362,1,2,0:0:0:0:
168,270,185512,2,0,L|156:160,1,110.999999576569,8|0,0:0|0:0,0:0:0:0:
337,243,185812,2,0,P|391:237|425:195,1,110.999999576569,2|0,0:0|0:0,0:0:0:0:
449,64,186112,5,8,0:0:0:0:
240,32,186262,2,0,L|117:43,1,110.999999576569,8|0,0:0|0:0,0:0:0:0:
429,79,186562,1,0,0:0:0:0:
159,192,186712,2,0,L|270:202,1,110.999999576569,8|0,0:0|0:0,0:0:0:0:
486,334,187012,2,0,L|375:343,1,110.999999576569,8|0,0:0|0:0,0:0:0:0:
157,323,187312,6,0,B|173:267|173:267|158:175|158:175|181:106,1,221.999999153137,2|2,0:0|0:0,0:0:0:0:
299,45,187762,1,2,0:0:0:0:
135,235,187912,2,0,L|6:222,1,110.999999576569,8|0,0:0|0:0,0:0:0:0:
277,147,188212,2,0,L|388:136,1,110.999999576569,2|0,0:0|0:0,0:0:0:0:
478,234,188512,5,2,0:0:0:0:
369,45,188662,1,2,0:0:0:0:
463,205,188812,1,2,0:0:0:0:
502,15,188962,1,2,0:0:0:0:
349,190,189112,2,0,P|285:183|231:151,1,110.999999576569,8|0,0:0|0:0,0:0:0:0:
36,27,189412,2,0,L|50:175,1,110.999999576569,2|0,0:0|0:0,0:0:0:0:
17,267,189712,5,2,0:3:0:0:
220,316,189862,1,2,0:3:0:0:
153,164,190012,1,2,0:3:0:0:
125,368,190162,1,2,0:3:0:0:
278,131,190312,2,0,L|392:138,1,110.999999576569,2|0,0:3|0:0,0:0:0:0:
464,26,190612,5,2,0:3:0:0:
364,250,190762,1,2,0:3:0:0:
448,53,190912,1,2,0:3:0:0:
475,315,191062,1,2,0:3:0:0:
283,161,191212,2,0,P|243:208|243:280,1,110.999999576569,2|0,0:3|0:0,0:0:0:0:
403,126,191512,6,0,L|395:-5,1,110.999999576569,2|2,0:3|0:3,0:0:0:0:
323,243,191812,2,0,L|321:287,2,27.7499998941422,2|0|0,0:3|0:0|0:0,0:0:0:0:
391,357,191962,2,0,L|389:329,2,27.7499998941422,2|0|0,0:3|0:0|0:0,0:0:0:0:
466,236,192112,1,6,0:0:0:0:
256,192,192187,12,0,196912,0:0:0:0:
